#TITLE:My Only Shining Star;
#SUBTITLE:;
#ARTIST:NAOKI feat. Becky Lucinda;
#TITLETRANSLIT:;
#SUBTITLETRANSLIT:;
#ARTISTTRANSLIT:;
#CREDIT:;
#BANNER:My Only Shining Star.png;
#BACKGROUND:My Only Shining Star-bg.png;
#LYRICSPATH:;
#CDTITLE:./CDTITLES/Dancing Stage SuperNOVA.png;
#MUSIC:My Only Shining Star.mp3;
#OFFSET:0.707;
#SAMPLESTART:37.970;
#SAMPLELENGTH:15.000;
#SELECTABLE:YES;
#BPMS:0.000=155.000;
#STOPS:;
#BGCHANGES:;

//---------------dance-single - ----------------
#NOTES:
     dance-single:
     :
     Easy:
     3:
     0.136,0.257,0.084,0.000,0.000:
0000
0000
0000
0000
,
1000
0000
0000
0000
,
0000
0000
0000
0000
,
0001
0000
0000
0000
,
0000
0000
0000
0000
,
0100
0000
0000
0000
,
0100
0000
0000
0000
,
0010
0000
0000
0000
,
0010
0000
0010
0000
,
1000
0000
1000
0000
,
0000
0000
0000
0000
,
0001
0000
0001
0000
,
0000
0000
0000
0000
,
1000
0000
1000
0000
,
0000
0000
0000
0000
,
0001
0000
0001
0000
,
1001
0000
0000
0000
,
1000
0000
0000
0000
,
0001
0000
0000
0000
,
0100
0000
0000
0000
,
0010
0000
0000
0000
,
1000
0000
0000
0000
,
0001
0000
0000
0000
,
0010
0000
0000
0000
,
0100
0000
0010
0000
,
1001
0000
0000
0000
,
0100
0000
0100
0000
,
0010
0000
0000
0000
,
0100
0000
0100
0000
,
1001
0000
0000
0000
,
0100
0000
0100
0000
,
0010
0000
0000
0000
,
0100
0000
0100
0000
,
1001
0000
0000
0000
,
0010
0000
0100
0000
,
0010
0000
0000
0000
,
0100
0000
0100
0000
,
1001
0000
0000
0000
,
0010
0000
0100
0000
,
0010
0000
0000
0000
,
0100
0000
0010
0000
,
1000
0000
0000
0000
,
0000
0000
0000
0000
,
1000
0000
0000
0000
,
0000
0000
0000
0000
,
0001
0000
0000
0000
,
1000
0000
0000
0000
,
0001
0000
0000
0000
,
0000
0000
0000
0000
,
1001
0000
0000
0000
,
0100
0000
0010
0100
,
0010
0000
0000
0000
,
0001
0000
1000
0000
,
0110
0000
0000
0000
,
1000
0000
0001
1000
,
0001
0000
0000
0000
,
0010
0000
0100
0000
,
1000
0001
1000
0001
,
0100
0010
0100
0010
,
1000
0001
0100
0000
,
0010
0000
1000
0000
,
0001
0000
0000
1001
0000
0000
0000
0000
;

//---------------dance-single - ----------------
#NOTES:
     dance-single:
     :
     Medium:
     4:
     0.247,0.482,0.115,0.042,0.026:
0000
0000
0000
0000
,
1000
0000
0000
0000
,
1000
0000
0000
0000
,
1000
0000
0000
0000
,
1000
0000
0000
0000
,
0001
0000
0001
0000
,
0001
0000
0001
0000
,
1000
0000
0001
0000
,
1000
0100
0010
0000
,
0001
0000
0000
0000
,
1000
0100
0010
0001
,
1000
0000
0000
0000
,
0010
0100
0001
0000
,
1000
0000
0000
0000
,
0001
0010
0100
1000
,
0001
0000
0000
0000
,
0100
0000
0010
0000
,
1000
1000
0000
0001
,
0000
0001
0000
0001
,
1000
1000
0000
0100
,
0000
0100
0000
0100
,
1000
1000
0000
0010
,
0000
0010
0000
0010
,
0100
0000
0000
0000
0000
0000
0001
0010
,
0000
0100
0000
1000
0000
0001
0000
0000
,
1000
0000
1000
0000
,
1000
0000
0100
0000
,
0010
0000
0001
0000
,
1000
0010
0001
0010
,
0100
0000
0100
0000
,
0100
0000
1000
0000
,
0010
0000
0100
0000
,
0001
0010
1000
0010
,
0001
0000
0001
0000
,
0001
0000
0010
0000
,
0100
0000
1000
0000
,
0001
0100
1000
0100
,
0010
0000
0010
0000
,
0010
0000
0001
0000
,
0100
0000
0010
0000
,
1000
0100
0001
0100
,
0020
0000
0000
0030
,
2000
0000
0000
3000
,
0002
0000
0000
0003
,
0020
0000
0000
0030
,
0100
0000
0000
1000
0000
0000
0010
0000
0000
0000
0000
0000
0000
0000
0000
0000
,
0100
0000
0000
0001
0000
0000
0010
0000
0000
0000
0000
0000
0000
0000
0000
0000
,
0100
0000
0000
1000
0000
0000
0001
0000
0100
0000
0010
0000
1000
0000
0001
0000
,
0000
0000
0000
0000
,
0010
0000
0100
0000
,
1000
0001
0100
0000
,
0010
0000
0010
0000
,
1000
0100
0010
0001
,
0100
0000
0010
0000
,
1000
0001
0010
0000
,
0100
0000
0100
0000
,
1000
0010
0100
0001
,
1001
1100
1001
0101
,
1001
1010
1001
0011
,
1100
0011
0101
0000
,
1000
0000
0000
0100
0000
0000
0010
0000
0000
0000
0001
0000
0100
0000
1000
0000
,
0100
0000
0000
0001
0000
0000
0010
0000
0000
0000
0000
0000
0000
0000
0000
0000
;

//---------------dance-single - ----------------
#NOTES:
     dance-single:
     :
     Hard:
     6:
     0.402,0.449,0.084,0.000,0.042:
0000
0000
0000
0000
,
1000
1000
1000
0000
0100
0000
0010
0000
,
0001
0001
0001
0000
0100
0000
0010
0000
,
1000
1000
1000
0000
0100
0000
0010
0000
,
0001
0001
0001
0000
0100
0000
0010
0000
,
1000
0100
0010
0100
,
1000
0010
0100
0010
,
1000
0100
0010
0001
,
0100
0000
0000
0000
0010
0000
0000
0000
1000
0000
0000
0001
0000
0000
1000
0000
,
0100
0000
0010
0000
0001
0000
0100
0010
,
0100
0000
0001
0000
1000
0100
0010
0001
,
0100
0000
0010
0000
1000
0000
0100
0010
,
0100
0000
1000
0000
0001
0100
0010
1000
,
0001
0000
0010
0000
0100
0000
1000
0001
,
0100
0000
0010
0000
1000
0100
0001
0100
,
1000
0000
0010
0000
0100
0000
0001
1000
,
0100
0000
0010
0000
0001
0100
1000
0100
,
0001
0000
1000
0100
0010
0000
0001
0100
,
0010
0000
1000
0100
0010
0001
0100
0010
,
1000
0000
0001
0100
1000
0000
0001
0010
,
1000
0000
0001
0100
0010
1000
0100
0010
,
0001
0000
1000
0010
0001
0000
1000
0100
,
0001
0000
1000
0010
0100
0001
0010
1000
,
0010
0000
0001
0100
1000
0000
0001
0010
,
0000
0100
0000
1000
0000
0001
0000
0000
,
0010
0000
0100
1000
0000
0001
0000
0100
,
0000
0010
0000
1000
0000
0001
0010
0000
,
0100
0000
0100
1000
0000
0001
0000
1000
,
0000
0000
0000
0000
,
0010
0000
0100
0001
0000
1000
0000
0100
,
0000
0010
0000
0001
0000
1000
0010
0000
,
0100
0000
0100
0001
0000
1000
0000
0001
,
0000
0000
0000
0000
,
0100
0000
0010
1000
0000
0001
0000
0010
,
0000
0100
0000
1000
0000
0001
0100
0000
,
0010
0000
0010
1000
0000
0001
0000
1000
,
0000
0000
0000
0000
,
0100
0000
0010
0001
0000
1000
0000
0010
,
0000
0100
0000
0001
0000
1000
0100
0000
,
0010
0000
0010
0001
0000
1000
0000
0001
,
0000
0000
0000
0000
,
0100
0000
0000
0000
0000
0000
0000
0100
,
0100
0000
0000
0000
0000
0000
0000
0010
,
0010
0000
0000
1000
1000
0000
0000
0001
,
0001
1000
0000
0000
,
0001
0000
0000
0100
0000
0000
0001
0000
0000
0000
0000
0000
0000
0000
0000
0000
,
1000
0000
0000
0100
0000
0000
1000
0000
0000
0000
0000
0000
0000
0000
0000
0000
,
0001
0000
0000
0010
0000
0000
0100
0000
1000
0000
0010
0000
0100
0001
0100
0001
,
0000
0000
0000
0000
,
1010
0000
0000
0101
0000
0000
1001
0000
,
0100
0010
0001
1000
,
0010
0000
0100
0001
0000
1000
0000
0100
,
0000
0000
0000
0000
,
0011
0000
0000
1100
0000
0000
1001
0000
,
0100
0010
1000
0100
,
0010
0000
0001
0100
0000
0010
0000
1000
,
0000
0000
0000
0000
,
0001
0010
0100
1000
0010
0100
0001
1000
,
0100
0010
0001
1000
0010
0100
0001
0010
,
0000
1100
0011
0000
,
0100
0000
0000
0010
0000
0000
1000
0000
0000
0000
0001
0000
0010
0000
0100
0000
,
1000
0000
0000
0001
0000
0000
1000
0000
0000
0000
0000
0000
0000
0000
0000
0000
;

//---------------dance-double - ----------------
#NOTES:
     dance-double:
     :
     Easy:
     3:
     0.154,0.193,0.010,0.000,0.000:
00000000
00000000
00000000
00000000
,
10000000
00000000
00000000
00000000
,
00010000
00000000
00000000
00000000
,
10000000
00000000
00000000
00000000
,
00010000
00000000
00000000
00000000
,
01000000
00000000
00000000
00000000
,
00001000
00000000
00000000
00000000
,
00010000
00000000
00000000
00000000
,
00000010
00000100
00000001
00000000
,
00001000
00000000
00001000
00000000
,
00000001
00000100
00000000
00000000
,
00000010
00000000
00000010
00001000
,
00000100
00000000
00000000
00000000
,
00010000
00000000
00010000
00000000
,
00001000
00100000
00000000
00000000
,
00010000
00000000
01000000
00000000
,
00100000
00000000
00000000
00000000
,
10000000
00000000
00000000
00000000
,
00010000
01000000
00000000
00000000
,
00001000
00000000
00000000
00000000
,
00100000
00010000
00000000
00000000
,
10000000
00000000
00000000
00000000
,
00100000
01000000
00000000
00000000
,
00001000
00000000
00000000
00000000
,
00010000
00000010
00001000
00000000
,
00000001
00000000
00000000
00000000
,
00000010
00000100
00000010
00000000
,
00000001
00000000
00000001
00000000
,
00000001
00000000
00000000
00000000
,
00000100
00000000
00000000
00000000
,
00001000
00010000
00001000
00000000
,
00100000
00000000
00100000
00000000
,
00100000
00000000
00000000
00000000
,
00010000
00000000
00000000
00000000
,
10000000
01000000
10000000
00000000
,
00010000
00000000
00010000
00000000
,
00010000
00000000
00000000
00000000
,
01000000
00000000
00000000
00000000
,
00001000
00010000
00001000
00000000
,
00000010
00000000
00000010
00000000
,
00000010
00000000
00000000
00000000
,
00000001
00000000
00000000
00000000
,
00001000
00000000
00000000
00000000
,
00000001
00000000
00000000
00000000
,
00001000
00000000
00000000
00000000
,
00000100
00000000
00010000
00000000
,
00001000
00000000
00100000
00000000
,
00010000
00000000
10000000
00000000
,
00100000
00000000
00000000
00000000
,
01000000
00000000
00000000
00000000
,
00010000
00100000
01000000
00000000
,
10000000
00000000
00010000
00000000
,
01000000
00000000
00000000
00000000
,
00001000
00000000
00000000
00000000
,
00010000
00000010
00000100
00000000
,
00000001
00000000
00000010
00000000
,
00000100
00000000
00000000
00000000
,
00001000
00000000
00000001
00000000
,
00000100
00000000
00000010
00000000
,
00010000
00001000
00100000
00000000
,
00010000
00000000
01000000
00000000
,
00001000
00000000
00000000
00011000
00000000
00000000
00000000
00000000
;

//---------------dance-double - ----------------
#NOTES:
     dance-double:
     :
     Medium:
     4:
     0.238,0.353,0.000,0.021,0.026:
00000000
00000000
00000000
00000000
,
10000000
00000000
00000000
00000000
,
00000000
00000000
00000000
00000000
,
00010000
00000000
00000000
00000000
00000000
00000000
00000000
01000000
,
00001000
00000000
00000000
00000000
,
00100000
00000000
01000000
00000000
,
00010000
00000000
00001000
00000000
,
00000100
00000000
00000010
00000000
,
00001000
00000000
00000001
00000000
00000010
00000100
00001000
00000001
,
00000100
00000000
00000100
00000000
,
00000100
00000010
00000100
00000000
,
00000001
00000000
00001000
00000000
,
00000001
00000000
00000000
00000000
,
00000100
00000000
00000100
00000000
,
00001000
00010000
00001000
00000000
,
00100000
00000000
01000000
00000000
,
00100000
00000000
00000000
00000000
,
00010000
00010000
00010000
00000000
,
10000000
00000000
10000000
00000000
,
00100000
00100000
00100000
00000000
,
01000000
00000000
01000000
00000000
,
00001000
00001000
00001000
00000000
,
00010000
00000000
00010000
00000000
,
00001000
00000000
00000000
00000000
00000000
00000000
00000010
00000001
,
00000000
00000100
00000000
00000010
00000000
00001000
00000000
00000000
,
00000001
00000010
00000100
00001000
,
00000001
00000100
00001000
00000000
,
00010000
00000000
01000000
00000000
,
10000000
00000000
00000000
00000000
,
00010000
01000000
00100000
10000000
,
01000000
00010000
00001000
00000000
,
00000100
00000000
00000001
00000000
,
00000010
00000000
00000000
00000000
,
00000100
00010000
00001000
00100000
,
00010000
01000000
00001000
00000000
,
00010000
00000000
00000010
00000000
,
00000100
00000000
00000000
00000000
,
00000001
00000010
00000100
00001000
,
00000010
00010000
00001000
00000000
,
00100000
00000000
00010000
00000000
,
10000000
00000000
00000000
00000000
,
02000000
00000000
00000000
03000000
,
00200000
00000000
00000000
00000000
00300000
00000000
00000000
00010000
,
10000000
00000000
00000000
10000000
00010000
00000000
00000000
00010000
,
10000000
00010000
00000000
00000000
,
01000000
00000000
00000000
00001000
00000000
00000000
00010000
00000000
00000000
00000000
00000000
00000000
00000000
00000000
00000000
00000000
,
00000010
00000000
00000000
00010000
00000000
00000000
00001000
00000000
00000000
00000000
00000000
00000000
00000000
00000000
00000000
00000000
,
01000000
00000000
00000000
00001000
00000000
00000000
00010000
00000000
00000010
00000000
00001000
00000000
00000001
00000000
00000000
00000000
,
00000000
00000000
00000000
00000000
,
00000010
00000100
00001000
00000001
,
00000100
00001000
00010000
00000000
,
00100000
00000000
10000000
00000000
,
01000000
00000000
00000000
00000000
,
00100000
00010000
01000000
00100000
,
10000000
01000000
00010000
00000000
,
00001000
00000000
00000100
00000000
,
00000001
00000000
00000000
00000000
,
00000010
00000100
00001000
00000100
,
00000010
00000001
00000100
00000001
00001000
00000001
00000100
00000000
,
00001000
00010000
01000000
00000000
,
10000000
00000000
00000000
00010000
00000000
00000000
01000000
00000000
00000000
00000000
00100000
00000000
10000000
00000000
01000000
00000000
,
00010000
00000000
00000000
00001000
00000000
00000000
00000100
00000000
00000000
00000000
00000000
00000000
00000000
00000000
00000000
00000000
;

//---------------dance-double - ----------------
#NOTES:
     dance-double:
     :
     Hard:
     7:
     0.490,0.546,0.000,0.000,0.194:
00000000
00000000
00000000
00000000
,
10000000
00000000
00000000
00000000
00000000
00000000
00000000
00010000
,
01000000
00000000
00000000
00000000
00000000
00000000
00000000
00001000
,
00000000
00000000
00010000
00000000
00000000
00000000
00000000
00000010
,
00001000
00000000
00000000
00000000
00000000
00000000
00000000
00000000
00000000
00000000
00000000
00000000
00000000
00000000
00000001
00000010
,
00000001
00000000
00000000
00000000
00000100
00000000
00000000
00000000
00000010
00000000
00000000
00001000
00000100
00000000
00001000
00000000
,
00000010
00000000
00000000
00000000
00000100
00000000
00000000
00000000
00000001
00000000
00000000
00000010
00000100
00000000
00000010
00000000
,
00000001
00000000
00000000
00000000
00001000
00000000
00000000
00000000
00000010
00000000
00000000
00010000
00001000
00000000
00010000
00000000
,
00000100
00000000
00000000
00000000
00000010
00000000
00000000
00000001
00000100
00000000
00000001
00000000
00001000
00000000
00000100
00000000
,
00010000
00001000
00100000
00010000
,
01000000
00001000
00010000
00000010
,
00001000
00000100
00010000
00001000
,
00100000
00010000
10000000
01000000
,
00010000
00000000
00000000
00000000
01000000
00000000
00000000
00000000
00100000
00000000
00000000
10000000
01000000
00000000
00000000
00000000
,
00100000
00000000
00000000
00000000
00010000
00000000
00000000
00000000
01000000
00000000
00000000
00001000
00010000
00000000
00000000
00000000
,
00000010
00000000
00000000
00000000
00000100
00000000
00000000
00000000
00000001
00000000
00000000
00000010
00000100
00000000
00000000
00000000
,
00001000
00000000
00000000
00000000
00000010
00000000
00000000
00010000
00001000
00000000
00000000
00001000
00010000
00000000
00100000
00000000
,
10000000
00000000
01000000
00100000
00000000
00010000
01000000
00100000
,
00000000
10000000
01000000
00000000
00100000
00010000
01000000
00001000
,
00010000
00000000
00000010
00001000
00000000
00000100
00000010
00000001
,
00000000
00001000
00000010
00000000
00000100
00001000
00010000
00100000
,
10000000
00000000
01000000
00100000
00000000
00100000
01000000
00100000
,
00000000
00100000
01000000
00000000
10000000
00100000
01000000
00010000
,
10000000
00000000
00000000
00000000
01000000
00000000
00000000
00010000
00001000
00000000
00010000
00000000
00001000
00000000
00000010
00000000
,
00000000
00000001
00000000
00001000
00000000
00000100
00000000
00000000
,
00000010
00000000
00000000
00000000
00000001
00000000
00000000
00000000
00000100
00000000
00000000
00000010
00001000
00000000
00000100
00000000
,
00000010
00000000
00000000
00000000
00000001
00000000
00000000
00000000
00001000
00000000
00000000
00000010
00000100
00000000
00000000
00000000
,
00001000
00000000
00000000
00000000
00010000
00000000
00000000
00000000
01000000
00000000
00000000
10000000
00100000
00000000
00000000
00000000
,
01000000
00000000
00000000
00000000
00001000
00000000
00000000
00000000
00010000
00000000
00000000
00000010
00001000
00000000
00000100
00000000
,
00000010
00000000
00000000
00000000
00000001
00000000
00000000
00000000
00001000
00000000
00000000
00000010
00000100
00000000
00000001
00000000
,
00001000
00000000
00000000
00000000
00000100
00000000
00000000
00000000
00010000
00000000
00000000
00001000
00100000
00000000
00010000
00000000
,
10000000
00000000
00000000
00000000
00100000
00000000
00000000
00000000
01000000
00000000
00000000
00010000
10000000
00000000
00000000
00000000
,
01000000
00000000
00000000
00000000
00010000
00000000
00000000
00000000
00001000
00000000
00000000
00000100
00000001
00000000
00000010
00000000
,
00000100
00000000
00000000
00000000
00001000
00000000
00000000
00000000
00000001
00000000
00000000
00000100
00000010
00000000
00001000
00000000
,
00000001
00000000
00000000
00000000
00000010
00000000
00000000
00000000
00000100
00000000
00000000
00010000
00001000
00000000
00100000
00000000
,
00010000
00000000
00000000
00000000
01000000
00000000
00000000
00000000
00100000
00000000
00000000
10000000
00010000
00000000
00100000
00000000
,
01000000
00000000
00000000
00000000
00010000
00000000
00000000
00000000
00001000
00000000
00000000
00000100
00000001
00000000
00000010
00000000
,
00000100
00000000
00000000
00000000
00010000
00000000
00000000
00000000
00001000
00000000
00000000
00100000
00010000
00000000
01000000
00000000
,
00100000
00000000
00000000
00000000
10000000
00000000
00000000
00000000
00010000
00000000
00000000
00100000
01000000
00000000
10000000
00000000
,
00010000
00000000
00000000
00000000
01000000
00000000
00000000
00000000
00001000
00000000
00000000
00010000
00000010
00000000
00000000
00000000
,
00000100
00000000
00000001
00000000
00001000
00000100
00000001
00000100
,
00001000
00000000
00000000
00000000
00000000
00000000
00000000
00000001
,
00000100
00000000
00000000
00000000
00000000
00000000
00000000
00000010
,
00001000
00000000
00000000
00000001
00000100
00000000
00000000
00000010
,
00001000
00000100
00000000
00010000
,
00001000
00000000
00000000
00000010
00000000
00000000
00000001
00000000
00000100
00000000
00000000
00000000
00000000
00000000
00000000
00000000
,
00000010
00000000
00000000
00001000
00000000
00000000
00000100
00000000
00000010
00000000
00000000
00000000
00000000
00000000
00000000
00000000
,
00000001
00000000
00000000
00000100
00000000
00000000
00001000
00000000
00010000
00000000
01000000
00000000
10000000
00000000
00100000
00000000
,
01000000
00000000
00010000
00000000
,
10000000
01000000
00100000
00010000
01000000
00100000
10000000
01000000
,
00010000
01000000
10000000
00100000
00010000
00001000
00000010
00001000
,
00010000
00100000
10000000
01000000
00010000
00001000
00000100
00000001
,
00000010
00000100
00001000
00000010
00000100
00000001
00000010
00000100
,
00001000
00000001
00000100
00001000
00010000
01000000
00010000
00001000
,
00000100
00001000
00010000
01000000
10000000
00010000
01000000
00100000
,
10000000
01000000
00100000
00010000
01000000
00001000
00010000
00000010
,
00001000
00000000
00000001
00000000
00000010
00000000
00000000
00000100
00001000
00000000
00000000
00000010
00000100
00000000
00000001
00000000
,
00000010
00000000
00000000
00000000
00000100
00000000
00000000
00000000
00001000
00000000
00000000
00000001
00000100
00000000
00000000
00000000
,
00001000
00000000
00000000
00000000
00010000
00000000
00000000
00000000
01000000
00000000
00000000
10000000
00100000
00000000
00000000
00000000
,
01000000
00000000
00000000
00000000
00010000
00000000
00000000
00000000
10000000
00000000
00000000
01000000
00100000
00000000
00010000
00000000
,
01000000
00000000
00000000
00100000
00000000
00000000
10000000
00000000
00000000
01000000
00100000
00000000
01000000
00000000
10000000
00000000
,
00100000
00000000
00000000
00010000
00000000
00000000
00001000
00000000
00000000
00000000
00000000
00000000
00000000
00000000
00000000
00000000
;

//---------------dance-single - ----------------
#NOTES:
     dance-single:
     :
     Beginner:
     1:
     0.123,0.160,0.073,0.000,0.000:
0000
0000
0000
0000
,
1000
0000
0000
0000
,
0000
0000
0000
0000
,
0001
0000
0000
0000
,
0000
0000
0000
0000
,
0100
0000
0000
0000
,
0100
0000
0000
0000
,
0010
0000
0000
0000
,
0010
0000
0010
0000
,
1000
0000
1000
0000
,
0000
0000
0000
0000
,
0001
0000
0001
0000
,
0000
0000
0000
0000
,
1000
0000
1000
0000
,
0000
0000
0000
0000
,
0001
0000
0001
0000
,
1001
0000
0000
0000
,
1000
0000
0000
0000
,
0001
0000
0000
0000
,
0100
0000
0000
0000
,
0010
0000
0000
0000
,
1000
0000
0000
0000
,
0001
0000
0000
0000
,
0010
0000
0000
0000
,
0100
0000
0010
0000
,
1001
0000
0000
0000
,
0100
0000
0100
0000
,
0010
0000
0000
0000
,
0100
0000
0100
0000
,
1001
0000
0000
0000
,
0100
0000
0100
0000
,
0010
0000
0000
0000
,
0100
0000
0100
0000
,
1001
0000
0000
0000
,
0010
0000
0100
0000
,
0010
0000
0000
0000
,
0100
0000
0100
0000
,
1001
0000
0000
0000
,
0010
0000
0100
0000
,
0010
0000
0000
0000
,
0100
0000
0010
0000
,
1000
0000
0000
0000
,
0000
0000
0000
0000
,
1000
0000
0000
0000
,
0000
0000
0000
0000
,
0001
0000
0000
0000
,
1000
0000
0000
0000
,
0001
0000
0000
0000
,
0000
0000
0000
0000
,
1001
0000
0000
0000
,
0100
0000
0010
0000
,
0010
0000
0000
0000
,
0001
0000
1000
0000
,
0110
0000
0000
0000
,
1000
0000
0001
0000
,
0001
0000
0000
0000
,
0010
0000
0100
0000
,
1000
0000
1000
0000
,
0100
0000
0100
0000
,
1000
0000
0100
0000
,
0010
0000
1000
0000
,
0001
0000
0000
0000
,
0000
0000
0000
0000
;

//---------------dance-single - ----------------
#NOTES:
     dance-single:
     :
     Challenge:
     9:
     0.695,0.769,0.595,0.303,0.230:
0000
0000
0000
0000
,
0000
0000
1010
0000
0000
1010
0000
1010
0000
0000
0011
0000
0000
0011
0000
0011
,
0000
0000
1001
0000
0000
1001
0000
1001
0000
0000
0110
0000
0000
0110
0000
0110
,
0000
0000
0101
0000
0000
0101
0000
0101
0000
0000
1010
0000
0000
1010
0000
1010
,
0000
0000
1100
0000
0000
1100
0000
1100
0000
0000
1001
0000
0000
0110
0000
0100
,
0001
1000
0100
1000
,
0001
0010
0100
1000
,
0001
0100
0010
1000
,
0001
0000
0000
0000
0110
0000
0000
1000
0001
1000
0001
1000
0001
1000
0001
1000
,
0001
0010
0100
1000
0000
1000
0000
1000
,
0100
0010
0001
0100
0000
0100
0000
0100
,
0010
1000
0001
0010
0000
0010
0000
0010
,
0100
1000
0010
0001
0000
0001
0000
0001
,
0010
1000
0100
0001
0000
0001
0000
0001
,
0100
1000
0001
0010
0000
0010
0000
0010
,
0100
1000
0010
0100
0000
0100
0000
0100
,
0010
0100
0001
1000
0100
0000
1001
0000
,
0010
0001
0010
0001
0010
0001
0010
0001
,
1000
0100
1000
0100
1000
0100
1000
0100
,
0001
1000
0001
1000
0001
1000
0001
1000
,
0100
0010
0100
0010
0100
0010
0100
0010
,
1000
0100
0010
0001
0100
0010
0100
0001
,
1000
0100
1000
0001
0010
0100
1000
0010
,
0100
0001
1000
0100
0010
0001
0100
1000
,
0000
1100
0000
0101
0000
1001
0000
0000
,
1000
0100
0001
0100
1000
0010
0100
0001
,
0100
1000
0001
1000
0100
0001
0010
0100
,
1000
0001
0010
0001
0100
0010
0100
1000
,
0001
0000
1000
0000
0100
0000
0001
0000
0010
0000
0100
1000
0001
0000
0100
0000
,
0010
1000
0001
0100
1000
0001
0010
1000
,
0100
0001
0100
1000
0010
0100
0001
1000
,
0100
0010
0001
0011
0000
0101
0000
0110
,
0000
1000
1000
1000
,
0100
0001
1000
0010
0100
1000
0001
0001
,
0100
0010
1000
0001
0100
0010
1000
1000
,
0001
0010
0100
0001
0100
1000
0010
0010
,
1000
0000
0001
0000
0100
0000
0010
0000
1000
0000
0001
0010
0100
0000
0100
0000
,
1000
0001
1000
0010
0100
1000
0001
0001
,
0010
1000
0001
0010
1000
0001
1000
1000
,
0010
0001
0100
0010
0000
1010
0000
1001
,
0000
0000
0010
0000
0100
0000
0010
0000
0001
0000
0010
1000
0001
1000
0001
1000
,
0001
0000
0000
0000
0000
0000
1000
0100
0010
0000
0000
0000
0000
0000
0011
0000
,
0101
0000
0000
0000
0110
0000
0000
1010
,
1100
0000
0000
0000
0000
0000
0110
0000
0101
0000
0000
0000
0000
0000
0001
0100
,
1000
0110
0000
0000
,
0101
0000
0000
1001
0000
0000
1100
0000
0000
0000
0001
0000
0000
0000
0001
0000
,
1100
0000
0000
0110
0000
0000
0011
0000
0000
0000
1000
0000
0000
0000
1000
0000
,
0110
0000
0000
0110
0000
0000
0010
0000
0100
0000
0010
0000
1000
0001
1000
0001
,
1000
0000
0110
0000
,
2000
3002
0023
0230
,
2300
3020
0230
0302
,
0203
2300
3020
0230
,
0302
2003
3200
0320
,
2030
3002
0203
0320
,
2030
0100
3200
0302
,
0023
2030
3200
0320
,
2030
3002
0100
0103
,
1000
0000
0100
1000
0100
0000
0010
0001
0010
0000
0001
0100
0001
0000
1000
0010
,
1000
0000
0100
0010
0100
0000
1000
0001
1000
0000
0010
1000
0010
0000
0100
0000
,
0000
0000
0000
0001
0000
1000
0000
0000
0000
0000
0000
0000
,
0011
0000
0000
1100
0000
0000
1001
0000
0000
1000
0010
0000
0101
0000
0010
0000
,
1100
0000
0000
0101
0000
0000
1001
0000
0000
0000
0000
0000
0000
0000
0000
0000
;

//---------------dance-double - ----------------
#NOTES:
     dance-double:
     :
     Beginner:
     1:
     0.136,0.159,0.042,0.042,0.000:
00000000
00000000
00000000
00000000
,
00010000
00000000
00000000
00000000
,
00001000
00000000
00000000
00000000
,
00010000
00000000
00000000
00000000
,
00001000
00000000
00000000
00000000
,
00000100
00000000
00000001
00000000
,
00000100
00000000
00000000
00000000
,
00001000
00000000
00000000
00000000
,
00010000
00000000
00000000
00000000
,
01000000
00000000
10000000
00000000
,
01000000
00000000
00000000
00000000
,
10000000
00000000
01000000
00000000
,
00100000
00000000
00000000
00000000
,
00010000
00000000
00001000
00000000
,
00010000
00000000
00000000
00000000
,
00010000
00000000
00001000
00000000
,
00010000
00000000
00000000
00000000
,
00000200
00000000
00000000
00000300
,
00000000
00000000
00000001
00000000
,
00000200
00000000
00000000
00000300
,
00000000
00000000
00001000
00000000
,
00020000
00000000
00000000
00030000
,
00000000
00000000
01000000
00000000
,
00200000
00000000
00000000
00300000
,
00100000
00000000
00000000
00000000
,
10000000
00000000
01000000
00000000
,
00100000
00000000
00000000
00000000
,
10000000
00000000
01000000
00000000
,
00100000
00000000
00000000
00000000
,
00010000
00000000
00001000
00000000
,
00010000
00000000
00000000
00000000
,
00010000
00000000
00001000
00000000
,
00010000
00000000
00000000
00000000
,
00000100
00000000
00000010
00000000
,
00000001
00000000
00000100
00000000
,
00001000
00000000
00000000
00000000
,
00011000
00000000
00000000
00000000
,
01000000
00000000
00100000
00000000
,
10000000
00000000
01000000
00000000
,
00010000
00000000
00000000
00000000
,
00011000
00000000
00000000
00000000
,
00001000
00001000
00000000
00000000
,
00000100
00000000
00000000
00000000
,
00001000
00001000
00000000
00000000
,
00010000
00000000
00000000
00000000
,
01000000
00000000
01000000
00000000
,
10000000
00000000
00000000
00000000
,
00100000
00000000
00000000
00000000
,
01000000
00000000
00000000
00000000
,
00001000
00000000
00010000
00000000
,
00001000
00000000
00000100
00000000
,
00000001
00000000
00000100
00000000
,
00001000
00000000
00000000
00000000
,
00010000
00000000
00001000
00000000
,
00010000
00000000
01000000
00000000
,
10000000
00000000
01000000
00000000
,
00010000
00000000
00000000
00000000
,
00011000
00000000
00000000
00000000
,
00001000
00000000
00000000
00000000
,
00000100
00000000
00000000
00000000
,
00000001
00000000
00000000
00000000
,
00001001
00000000
00000000
00000000
;
