#TITLE:MY BABY MAMA;
#SUBTITLE:;
#ARTIST:ANQUETTE;
#TITLETRANSLIT:;
#SUBTITLETRANSLIT:;
#ARTISTTRANSLIT:;
#CREDIT:;
#BANNER:MY BABY MAMA.png;
#BACKGROUND:MY BABY MAMA-bg.png;
#LYRICSPATH:;
#CDTITLE:./CDTITLES/DANCEMANIA BASS#3.PNG;
#MUSIC:MY BABY MAMA.ogg;
#SAMPLESTART:1.74;
#SAMPLELENGTH:15.000;
#SELECTABLE:YES;
#DISPLAYBPM:138.000;
#BPMS:0=137.906;
#STOPS:;
#BGCHANGES:;

//---------------dance-single - ----------------
#NOTES:
     dance-single:
     :
     Easy:
     3:
     :
0000
0000
0000
0000
,
0000
0000
0000
0000
,
0000
0000
0000
0000
,
0000
0000
0000
0000
,
0000
0000
0000
0000
,
1000
0000
1000
0000
,
0001
0000
0001
0000
,
1000
0000
1000
0000
,
0001
0000
0001
0000
,
1000
0000
1000
0000
,
1001
0000
1001
0000
,
0010
1000
0001
1000
,
0000
0000
0001
0001
,
0000
0000
1000
1000
,
0001
0001
1000
1000
,
0001
0010
1000
0010
,
1000
0001
1000
0100
,
0010
0001
0010
1000
,
1000
0001
0001
1000
,
0001
0000
0000
1000
0000
0000
0001
0000
,
0000
0000
0000
0010
0010
0000
0000
0000
,
0001
0000
0001
0000
,
1000
0000
1000
0000
,
0001
0000
0001
0000
,
1000
0000
1000
0000
,
1000
0000
0001
0000
,
1000
0000
0001
0000
,
0001
0000
0100
0000
,
1000
0000
0100
0000
,
1000
0001
0001
0000
,
0001
1000
1001
0000
,
0001
1000
1000
0000
,
1000
0000
0001
0001
,
1000
0100
0100
0000
,
0001
1000
0100
0000
,
1000
0001
0001
0000
,
0001
0000
1000
1000
,
0010
0000
0000
1000
0000
0000
0001
0000
,
0000
0000
0000
0000
,
1000
0000
0000
0001
0000
0000
1000
0000
,
0000
0000
0000
0010
0010
0000
0000
0000
,
1000
0010
0001
0010
,
1000
0100
0001
0100
,
1000
0010
0001
0010
,
1000
0010
0001
0010
,
1000
0100
0001
0100
,
1000
0010
0001
0010
,
1000
0010
0001
0010
,
1000
0100
0001
0000
,
1000
0000
0000
0001
0000
0000
1000
0000
,
0000
0000
0000
0010
0001
0000
0000
0000
;

//---------------dance-single - ----------------
#NOTES:
     dance-single:
     :
     Medium:
     4:
     :
0000
0000
0000
0000
,
0000
0000
0000
0000
,
0000
0000
0000
0000
,
0000
0000
0000
0000
,
0000
0000
0000
0000
,
0000
0000
0010
1001
,
0000
0000
0100
1001
,
0000
0000
0001
1100
,
0000
0000
1000
0101
,
0000
0000
0100
1001
,
0000
0000
1000
0100
,
0001
0000
1000
0000
,
0000
0000
0001
0001
,
0000
0000
1000
1000
,
0010
1000
0001
0000
1000
0001
0100
0000
,
0001
0010
1000
0010
,
0100
0100
0001
0001
,
1000
1000
0100
0100
,
0001
0000
0001
0000
1000
0001
1000
0000
,
0001
0000
0000
1000
0000
0000
0001
0000
,
0000
0000
0000
1000
0001
0000
0000
0000
,
1000
0110
0000
0000
,
0001
0110
0000
0000
,
1000
0101
0000
0000
,
0010
1100
0000
0000
,
0001
0110
0000
0000
,
1000
1100
0000
0000
,
0010
1001
0000
0000
,
0100
1001
0000
0000
,
0001
1000
0001
0000
1000
0000
0100
0000
,
1000
0000
0001
1000
,
0100
0000
0010
0000
,
0001
0000
1100
0001
,
1000
0000
0001
0000
,
1000
0000
0001
0001
,
1000
0000
0010
0000
,
0100
0000
1100
0001
,
0001
0010
0000
0001
1000
0000
0001
0100
,
0000
0000
0000
0000
,
1000
0100
0000
1000
0001
0000
1000
0010
,
0000
0000
0000
0001
1000
0000
0000
0000
,
0000
0000
0010
0101
,
0000
0000
0010
1100
,
0000
0000
0001
0101
,
0000
0000
1000
1100
,
0000
0000
0000
0000
0100
1000
0001
0000
,
0000
0000
0000
0000
0010
0001
1000
0000
,
0000
0000
1000
0001
,
0000
0000
0000
0000
0010
0100
1000
0000
,
0010
1000
0000
0001
0100
0000
1000
0100
,
0000
0000
0000
0001
1000
0000
0000
0000
;

//---------------dance-single - ----------------
#NOTES:
     dance-single:
     :
     Hard:
     6:
     :
0000
0000
0000
0000
,
0000
0000
0000
0000
,
0000
0000
0000
0000
,
0000
0000
0000
0000
,
0000
0000
0000
0000
,
0001
0010
0001
0000
1000
0010
1000
0000
,
0001
0010
0001
0000
1000
0000
0001
0000
,
0010
0001
1000
0000
0001
0000
0010
0000
,
0001
0010
0001
1000
0010
0000
0100
0000
,
0001
0010
0001
0000
1000
0000
0010
0000
,
1000
0010
1000
0000
0001
0000
1000
0000
,
0100
0010
0100
0000
1010
0000
0101
0000
,
0001
0010
1000
0010
0001
0010
1000
0000
,
1000
0010
0001
0000
0001
1000
0100
0000
,
1010
0101
1100
0011
,
0100
0001
0010
0000
0001
0010
0001
0000
,
1000
0010
0100
0000
1010
0000
0101
0000
,
1000
0010
1000
0000
0001
0000
0010
0001
,
0010
1000
0010
0001
0101
0000
0101
0000
,
1000
0001
0000
0000
0000
0000
0010
0001
0000
0000
0000
0000
1000
0100
0000
0000
,
0000
0000
0000
1000
0010
0001
0010
0001
,
0010
1000
0001
0000
1000
0010
1000
0000
,
0010
1000
0001
1000
0001
0000
1000
0000
,
0010
1000
0010
0000
0001
0000
0010
0001
,
0010
0001
0010
0000
1000
0000
0001
0000
,
0010
0001
1000
0000
1000
0010
1000
0000
,
0001
0010
0001
0000
1000
0000
0001
0000
,
0010
0001
0010
0000
0001
0010
1000
0000
,
0010
0001
0010
0000
1000
0001
1000
0000
,
0100
0010
0001
0000
1000
0010
0001
0000
,
1000
0010
0001
0000
1000
0001
1000
0000
,
0100
0010
0001
0010
1000
0010
0001
0000
,
1000
0010
0001
0000
1100
0000
0011
0000
,
1000
0010
0001
0000
1000
0100
0001
0000
,
0001
0100
1000
0000
1000
0100
0001
0000
,
1000
0010
0100
0000
0001
0000
0001
0000
,
1000
0010
0001
0000
1100
0000
0011
0000
,
1000
0001
0000
0000
0000
0000
0100
0010
0000
0000
0000
0000
1000
0001
0000
0000
,
1000
0010
0001
0010
,
1000
0001
0000
0000
0000
0000
0010
0001
0000
0000
0000
0000
1000
0100
0000
0000
,
0000
0000
0000
0001
1000
0000
0000
0000
,
0001
0010
0001
0000
1000
0010
1000
0000
,
0001
0010
0001
0000
1000
0000
0001
0000
,
0100
0010
1000
0000
0010
1000
0010
0000
,
0001
0010
0001
0000
1000
0000
0010
0000
,
0001
0010
0001
0000
1000
0000
0010
0000
,
0001
0010
0001
0010
1000
0000
0001
0000
,
0010
0001
0010
0000
1000
0010
1000
0000
,
0001
0010
0001
0000
1000
0000
0001
0000
,
1000
0001
0000
0000
0000
0000
0010
0001
0000
0000
0000
0000
0100
0010
0000
0000
,
0000
0000
0000
0000
0000
0000
1000
0001
1000
0001
0000
0000
0000
0000
0000
0000
;

//---------------dance-solo - ----------------
#NOTES:
     dance-solo:
     :
     Easy:
     3:
     :
000000
000000
000000
000000
,
000000
000000
000000
000000
,
000000
000000
000000
000000
,
000000
000000
000000
000000
,
000000
000000
000000
000000
,
010000
000100
000000
000000
,
000010
000100
000000
000000
,
010000
000100
000000
000000
,
000010
000100
000000
000000
,
100000
001000
000000
000000
,
000001
100001
000000
000000
,
000010
010000
000001
100000
,
000000
000000
000001
000001
,
000000
000000
100000
100000
,
000001
000001
000001
000000
100000
100000
100000
000000
,
000010
000010
010000
010000
,
100000
000001
100000
001000
,
000100
000001
010000
100000
,
100000
000001
000001
100000
,
000001
000000
000000
100000
000000
000000
000001
000000
,
000000
000000
000000
000100
000100
000000
000000
000000
,
000010
000100
000000
000000
,
010000
000100
000000
000000
,
000010
000100
000000
000000
,
010000
000100
000000
000000
,
100000
000001
000000
000000
,
100000
100000
000000
000000
,
000001
000001
000000
000000
,
010000
010000
000000
000000
,
100000
000001
000001
000000
,
000001
100000
100001
000000
,
000001
100000
100000
000000
,
100000
000000
000001
000001
,
100000
001000
001000
000000
,
000001
100000
001000
000000
,
100000
000001
000001
000000
,
000001
000000
100000
100000
,
000100
000000
000000
100000
000000
000000
000001
000000
,
000000
000000
000000
000000
,
100000
000000
000000
000001
000000
000000
100000
000000
,
000000
000000
000000
000100
000100
000000
000000
000000
,
010000
000100
000010
000100
,
100000
001000
000001
001000
,
010000
000100
000010
000100
,
100000
000100
000001
000100
,
010000
001000
000010
001000
,
010000
000100
000010
000100
,
100000
010000
000001
000010
,
100000
001000
000001
000000
,
100000
000000
000000
000001
000000
000000
100000
000000
,
000000
000000
000000
010000
000010
000000
000000
000000
;

//---------------dance-solo - ----------------
#NOTES:
     dance-solo:
     :
     Medium:
     4:
     :
000000
000000
000000
000000
,
000000
000000
000000
000000
,
000000
000000
000000
000000
,
000000
000000
000000
000000
,
000000
000000
000000
000000
,
000000
000000
000100
000100
,
000000
000000
001000
001000
,
000000
000000
000001
000001
,
000000
000000
100000
100000
,
000000
000000
001000
000001
,
000000
000000
100000
001000
,
000010
000000
010000
000000
,
000000
000000
000001
000001
,
000000
000000
100000
100000
,
000100
100000
000001
000000
100000
000001
001000
000000
,
000010
000010
010000
010000
,
001000
001000
000001
000001
,
100000
100000
001000
001000
,
000001
000000
000001
000000
100000
000001
010000
000000
,
000010
000000
000000
100000
000000
000000
000001
000000
,
000000
000000
000000
100000
000001
000000
000000
000000
,
100000
100000
000000
000000
,
000001
000001
000000
000000
,
001000
001000
000000
000000
,
000001
000001
000000
000000
,
000010
000010
000000
000000
,
100000
100000
000000
000000
,
000001
000010
000000
000000
,
010000
100000
000000
000000
,
000010
010000
000001
000000
100000
000000
001000
000000
,
100000
000000
000011
100000
,
001000
000000
000100
000000
,
000001
000000
101000
000001
,
100000
000000
000001
000000
,
100000
000000
000001
000001
,
100000
000000
000100
000000
,
001000
000000
100100
000001
,
000001
000100
000000
000001
100000
000000
000001
001000
,
000000
000000
000000
000000
,
100000
001000
000000
100000
000001
000000
100000
000100
,
000000
000000
000000
000001
100000
000000
000000
000000
,
000000
000000
000100
000100
,
000000
000000
001000
001000
,
000000
000000
100000
100000
,
000000
000000
000001
000001
,
000000
000000
000000
000000
001000
100000
000001
000000
,
000000
000000
000000
000000
000100
000001
100000
000000
,
000000
000000
100000
000001
,
000000
000000
000000
000000
000100
001000
000001
000000
,
000010
000001
000000
100000
001000
000000
000001
001000
,
000000
000000
000000
100000
000001
000000
000000
000000
;

//---------------dance-solo - ----------------
#NOTES:
     dance-solo:
     :
     Hard:
     7:
     :
000000
000000
000000
000000
,
000000
000000
000000
000000
,
000000
000000
000000
000000
,
000000
000000
000000
000000
,
000000
000000
000000
000000
,
000010
000010
000010
000000
010000
010000
010000
000000
,
000010
000010
000010
000000
010000
000000
000010
000000
,
000010
100000
000010
000000
010000
000000
010000
000000
,
000010
000010
000010
010000
010000
000000
000010
000000
,
000001
000010
000001
000000
010000
000000
010000
000000
,
000010
000010
000010
000000
010000
000000
000010
000000
,
000010
000100
010000
000000
100100
000000
001001
000000
,
000010
000100
010000
000100
000001
000100
100000
000000
,
000010
000100
010000
000000
000001
100000
001000
000000
,
100100
001001
101000
000101
,
000010
000010
000010
000000
010000
010000
010000
000000
,
000010
000100
010000
000000
100100
000000
001001
000000
,
010000
010000
010000
000000
000010
000000
000010
000010
,
000100
010000
000100
000001
100100
000000
001001
000000
,
100000
000010
000000
000000
000000
000000
000100
000001
000000
000000
000000
000000
100000
001000
000000
000000
,
000000
000000
000000
010000
010000
000010
000010
000010
,
000010
010000
000010
000000
010000
010000
010000
000000
,
000010
000001
100000
000010
010000
000000
000010
000000
,
000010
000010
000010
000000
010000
000000
010000
000010
,
000010
000010
000010
000000
010000
000000
000010
000000
,
000010
010000
000010
000000
010000
010000
010000
000000
,
000010
000100
000010
000000
010000
000000
000010
000000
,
000010
000010
000010
000000
100000
010000
000001
000000
,
000010
000010
000010
000000
010000
000001
010000
000000
,
010000
000100
000010
000000
100000
000100
000001
000000
,
010000
000100
000010
000000
100000
000001
100000
000000
,
010000
000100
000010
000100
100000
000100
000001
000000
,
010000
000100
000010
000000
101000
000000
000101
000000
,
010000
000100
000010
000000
100000
001000
000001
000000
,
000001
001000
100000
000000
100000
001000
000001
000000
,
010000
000100
000010
000000
000001
000000
000001
000000
,
010000
000100
000010
000000
101000
000000
000101
000000
,
100000
000001
000000
000000
000000
000000
001000
000100
000000
000000
000000
000000
100000
000001
000000
000000
,
010000
000100
000010
000100
,
100000
000010
000000
000000
000000
000000
000100
000001
000000
000000
000000
000000
100000
001000
000000
000000
,
000000
000000
000000
000001
100000
000000
000000
000000
,
000010
000010
000010
000000
010000
010000
010000
000000
,
000010
000010
000010
000000
010000
000000
000010
000000
,
000010
000100
010000
000000
010000
010000
010000
000000
,
000010
000010
000010
000000
010000
000000
000010
000000
,
000001
000010
000001
000000
010000
000000
010000
000000
,
000010
000010
000010
000010
010000
000000
000010
000000
,
000010
000010
000010
000000
010000
000100
010000
000000
,
000010
000010
000010
000000
010000
000000
000010
000000
,
100000
000001
000000
000000
000000
000000
000100
000001
000000
000000
000000
000000
001000
000100
000000
000000
,
000000
000000
000000
000000
000000
000000
100000
000001
100000
000001
000000
000000
000000
000000
000000
000000
;

//---------------dance-single - Edit by silenttype01----------------
#NOTES:
     dance-single:
     Edit by silenttype01:
     Challenge:
     9:
     0.628,0.587,0.442,0.000,0.309:
0000
0000
0000
0000
,
0000
0000
0000
0000
,
0000
0000
0000
0000
,
0001
0010
0100
1000
0001
0100
0101
0000
,
0010
0000
0000
1000
0000
0000
0100
0000
0001
0000
0000
0000
0110
0000
0000
0000
,
1000
0100
0010
0001
1000
0100
1100
0000
,
0010
0000
0000
0001
0000
0000
0100
0000
1000
0000
0000
0000
0110
0000
0000
0000
,
0010
0100
1000
0001
0100
0010
0110
0000
,
0100
0000
0000
1000
0000
0000
0010
0000
0001
0000
0000
0000
1001
0000
0000
0000
,
0100
0010
0001
1000
0010
0100
0110
0000
,
0010
0000
0000
0001
0000
0000
0100
0000
1000
0000
0000
0000
1001
0000
0000
0000
,
0001
0100
0001
0100
0010
1000
0100
0010
,
0000
0000
0001
1000
0001
1000
0001
1000
0001
0000
0001
0100
0000
0100
0010
0000
,
0000
0000
0100
1000
0100
0000
1000
0000
0100
0000
0010
0000
0001
0000
0100
0000
,
0100
0100
0010
0010
1001
0100
0001
1000
,
0001
0000
0000
0001
0000
0000
0001
0000
1000
0000
0000
1000
0000
0000
0000
1000
,
0001
0100
1000
0100
0010
1000
0100
0001
,
0100
0010
0001
0010
0001
0100
0010
1000
,
0010
0000
1000
0000
0100
0000
0010
0000
0001
0000
1000
0001
0000
0000
0000
0000
,
0001
1000
0010
0000
0010
0000
1000
0001
0010
0000
0010
0000
0001
1000
0000
0000
,
0000
0000
0010
0000
0010
0000
1000
0001
1000
0001
0100
0000
0010
0000
1000
0100
,
1000
0100
0010
0001
0100
0101
0101
0100
,
0010
0000
0000
1000
0000
1000
0100
0000
0001
0000
0000
0000
0101
0000
0000
0000
,
0001
0100
1000
0010
0100
0110
0110
0100
,
0001
0000
0000
0010
0000
0010
1000
0000
0010
0000
0000
0000
1010
0000
0000
0000
,
0010
1000
0001
0100
1000
1100
1100
0100
,
0010
0000
0000
0001
0000
0001
0100
0000
0010
0000
0000
0000
1001
0000
0000
0000
,
1000
0100
0010
0001
0100
0101
0101
0100
,
0010
0000
0000
1000
0000
1000
0100
0000
0010
0000
0000
0000
1001
0000
0000
0000
,
1000
0100
1000
0100
0010
1000
0010
0001
,
0100
0000
0001
0000
0100
0000
0010
0000
0110
0000
1000
0001
0000
0000
0000
1000
,
0010
0000
0100
0000
0001
0000
0100
0000
1000
0000
1000
0001
0000
0000
1000
0000
,
0100
0000
0000
0010
0000
0000
0100
0000
0000
0001
0000
0000
0100
0000
1000
0000
0100
0000
0010
0000
0000
0000
0000
0000
,
0001
0100
0001
1000
0001
0010
1000
0100
,
1000
0001
1000
0010
0001
0100
1000
0100
,
0010
0100
0001
0010
0100
0010
0001
0010
,
0001
0000
0001
0000
0001
1000
0001
0000
0010
0000
0010
0001
0000
0000
0000
0000
,
1000
0001
0010
0000
0010
0000
0001
1000
0010
0000
0010
0000
1000
0001
0000
0000
,
0000
0000
0000
0000
,
0001
1000
0010
0000
0010
0000
1000
0001
0010
0000
0010
0000
0001
1000
0000
0000
,
0000
0000
0000
0000
0110
0000
1000
0001
1000
0001
0000
0000
0110
0000
0000
0000
,
1000
0010
0001
0010
1000
1001
1001
1000
,
0100
0000
0001
0100
0000
0100
1000
0000
1100
0000
0001
0000
1100
0000
0000
0000
,
0001
0010
1000
0010
0001
1001
1001
0001
,
0100
0000
1000
0100
0000
0100
0001
0000
0101
0000
1000
0000
0101
0000
0000
0000
,
1000
0100
0010
0001
0100
0101
1100
0100
,
0010
0000
1000
0001
0000
0001
0100
0000
1001
0000
0010
0000
1100
0000
0000
0000
,
0001
0010
0100
1000
0010
0011
1010
0010
,
0100
0000
0001
1000
0000
0001
1000
0000
1100
0000
0010
0000
0101
0000
0000
0000
,
0001
1000
0010
0000
0010
0000
1000
0001
0010
0000
0010
0000
0001
1000
0000
0000
,
0000
0000
0010
0000
0010
0000
1000
0001
1000
0001
0000
0000
0000
0000
0000
0000
;

//---------------dance-double - Edit by silenttype01----------------
#NOTES:
     dance-double:
     Edit by silenttype01:
     Easy:
     3:
     0.177,0.223,0.055,0.022,0.000: // measure 1
00000000
00000000
00000000
00000000
,  // measure 2
00000000
00000000
00000000
00000000
,  // measure 3
00000000
00000000
00000000
00000000
,  // measure 4
00000000
00000000
00000000
00000000
,  // measure 5
00000000
00000000
00000000
00000000
,  // measure 6
00000000
00000000
00000000
00000000
,  // measure 7
00000000
00000000
00000000
00000000
,  // measure 8
00000001
00000000
00000001
00000000
,  // measure 9
00001000
00000000
00001000
00000000
,  // measure 10
00010000
00000000
00010000
00000000
,  // measure 11
00011000
00000000
00011000
00000000
,  // measure 12
01000000
00010000
10000000
00010000
,  // measure 13
00000000
10000000
00000000
10000000
,  // measure 14
00000000
00100000
00000000
00100000
,  // measure 15
00000000
01000000
00000000
01000000
,  // measure 16
00020000
00030000
20000000
30000000
,  // measure 17
01000000
00000000
00010000
00000000
,  // measure 18
00001000
00000000
00000100
00000000
,  // measure 19
00000001
00000000
00001000
00000000
,  // measure 20
00000010
00000000
00000000
00000010
00000000
00000000
00000010
00000000
,  // measure 21
00000000
00000000
00000110
00000000
,  // measure 22
00001000
00000000
00001000
00000000
,  // measure 23
00000001
00000000
00000001
00000000
,  // measure 24
00001000
00000000
00001000
00000000
,  // measure 25
00000001
00000000
00000001
00000000
,  // measure 26
00000001
00000000
00001000
00000000
,  // measure 27
00010000
00000000
10000000
00000000
,  // measure 28
10000000
00000000
00100000
00000000
,  // measure 29
00010000
00000000
00001000
00000000
,  // measure 30
00010000
00001000
00010000
00000000
,  // measure 31
00001000
00010000
00001000
00000000
,  // measure 32
00001000
00000100
00001000
00000000
,  // measure 33
00000100
00000001
00000100
00000000
,  // measure 34
00000001
00000010
00000001
00000000
,  // measure 35
00000010
00001000
00000010
00000000
,  // measure 36
00001000
00010000
00001000
00000000
,  // measure 37
00010000
00001000
00010000
00000000
,  // measure 38
00100000
00000000
00000000
00100000
00000000
00000000
00100000
00000000
,  // measure 39
00000000
00000000
00000000
00000000
,  // measure 40
10000000
00000000
00000000
10000000
00000000
00000000
10000000
00000000
,  // measure 41
00000000
00000000
10010000
00000000
,  // measure 42
00010000
01000000
10000000
00000000
,  // measure 43
01000000
00010000
00100000
00000000
,  // measure 44
00010000
00100000
00001000
00000000
,  // measure 45
00100000
00001000
00010000
00000000
,  // measure 46
00001000
00010000
00000010
00000000
,  // measure 47
00010000
00000010
00001000
00000000
,  // measure 48
00000010
00001000
00000100
00000000
,  // measure 49
00001000
00000100
00000001
00000000
,  // measure 50
00000010
00000000
00000000
00000010
00000000
00000000
00000010
00000000
,  // measure 51
00000000
00000000
00000110
00000000
;

//---------------dance-double - Edit by silenttype01----------------
#NOTES:
     dance-double:
     Edit by silenttype01:
     Medium:
     5:
     0.237,0.251,0.000,0.000,0.000: // measure 1
00000000
00000000
00000000
00000000
,  // measure 2
00000000
00000000
00000000
00000000
,  // measure 3
00000000
00000000
00000000
00000000
,  // measure 4
00000000
00000000
00000000
00000000
,  // measure 5
00000000
00000000
00000000
00000000
,  // measure 6
00000000
00000000
00000000
00000000
,  // measure 7
00000000
00000000
00000000
00000000
,  // measure 8
00100000
00000000
00010000
00000000
,  // measure 9
10000000
00000000
01000000
01000000
,  // measure 10
00010000
00000000
00001000
00000000
,  // measure 11
00000100
00000000
00000001
00000001
,  // measure 12
00000010
00000001
00000100
00000100
,  // measure 13
00001000
00010000
00001000
00001000
,  // measure 14
00000100
00000001
00000010
00000010
,  // measure 15
00001000
00010000
01000000
01000000
,  // measure 16
00100000
00010000
01000000
01000000
,  // measure 17
00100000
00010000
00001000
00001000
,  // measure 18
01000000
00010000
00100000
00100000
,  // measure 19
01000000
10000000
00010000
00010000
,  // measure 20
10000000
00000000
00000000
10000000
00000000
00000000
10000000
00000000
,  // measure 21
00000000
00000000
00000000
10000000
10000000
00000000
00000000
00000000
,  // measure 22
10000000
00000000
01000000
00000000
,  // measure 23
00010000
00000000
00001000
00001000
,  // measure 24
00000100
00000000
00001000
00000000
,  // measure 25
00010000
00000000
00001000
00001000
,  // measure 26
00100000
00000000
00010000
00000000
,  // measure 27
10000000
00000000
01000000
01000000
,  // measure 28
00010000
00000000
00001000
00000000
,  // measure 29
00000100
00000000
00000001
00000001
,  // measure 30
00000010
00000010
00000001
00000100
,  // measure 31
00001000
00001000
00010000
00100000
,  // measure 32
01000000
01000000
00010000
00001000
,  // measure 33
00010000
00010000
00000100
00000010
,  // measure 34
00001000
00001000
00000001
00000100
,  // measure 35
00010000
00010000
01000000
00010000
,  // measure 36
00100000
00100000
01000000
10000000
,  // measure 37
00010000
00010000
01000000
10000000
,  // measure 38
01000000
00010000
00000000
01000000
00010000
00000000
01000000
00000000
,  // measure 39
00000000
00000000
00000000
00000000
,  // measure 40
00000100
00001000
00000000
00000100
00001000
00000000
00000100
00000000
,  // measure 41
00000000
00000000
00000000
00000100
00001000
00000000
00000000
00000000
,  // measure 42
00000001
00000100
00000010
00000100
,  // measure 43
00000100
00001000
00010000
01000000
,  // measure 44
01000000
00010000
00001000
00010000
,  // measure 45
00010000
00100000
10000000
01000000
,  // measure 46
01000000
00010000
00001000
00000010
,  // measure 47
00000010
00001000
00010000
00001000
,  // measure 48
00001000
00000100
00000001
00000010
,  // measure 49
00000010
00001000
00010000
01000000
,  // measure 50
01000000
10000000
00000000
00010000
00100000
00000000
01000000
00000000
,  // measure 51
00000000
00000000
00000000
10000000
00010000
00000000
00000000
00000000
;

//---------------dance-double - Edit by silenttype01----------------
#NOTES:
     dance-double:
     Edit by silenttype01:
     Hard:
     7:
     0.404,0.419,0.155,0.000,0.077: // measure 1
00000000
00000000
00000000
00000000
,  // measure 2
00000000
00000000
00000000
00000000
,  // measure 3
00000000
00000000
00000000
00000000
,  // measure 4
00000000
00000000
00000000
00000000
,  // measure 5
00000000
00000000
00000000
00000000
,  // measure 6
00000000
00000000
00000000
00000000
,  // measure 7
00000000
00000000
00000000
00000000
,  // measure 8
00010000
00001000
01000000
00000000
00001000
00010000
00000100
00000000
,  // measure 9
00010000
00100000
10000000
00010000
01000000
00000000
01000000
00000000
,  // measure 10
00010000
01000000
00010000
00000000
10000000
01000000
10000000
00000000
,  // measure 11
00010000
01000000
00010000
00000000
00100000
00000000
00100000
00000000
,  // measure 12
01000000
00100000
01000000
00000000
10100000
00000000
01010000
00000000
,  // measure 13
10000000
01000000
00010000
01000000
10000000
01000000
00010000
00000000
,  // measure 14
00010000
00000100
00001000
00000000
00001000
00000001
00000010
00000000
,  // measure 15
00000101
00001010
00000011
00001100
,  // measure 16
00000010
00001000
00000100
00000000
00010000
00000100
00001000
00000000
,  // measure 17
00000001
00000100
00000010
00000000
00000101
00000000
00001010
00000000
,  // measure 18
00000001
00000100
00001000
00000000
00010000
00000000
00001000
00010000
,  // measure 19
00100000
00010000
00001000
00010000
00101000
00000000
00101000
00000000
,  // measure 20
00010000
00100000
00000000
00000000
00000000
00000000
01000000
10000000
00000000
00000000
00000000
00000000
00010000
00100000
00000000
00000000
,  // measure 21
00000000
00000000
00000000
00001000
00010000
00100000
10000000
00100000
,  // measure 22
10000000
00010000
10000000
00000000
00010000
00100000
00010000
00000000
,  // measure 23
10000000
00100000
00010000
00100000
00010000
00000000
00010000
00000000
,  // measure 24
00000100
00010000
00001000
00000000
00010000
00000000
00001000
00000010
,  // measure 25
00000001
00000010
00000001
00000000
00000100
00000000
00000100
00000000
,  // measure 26
00000010
00010000
00001000
00000000
00010000
00000100
00000010
00000000
,  // measure 27
00001000
00010000
00001000
00000000
00010000
00000000
00010000
00000000
,  // measure 28
01000000
10000000
01000000
00000000
10000000
01000000
00010000
00000000
,  // measure 29
01000000
10000000
01000000
00000000
00010000
00001000
00010000
00000000
,  // measure 30
00000010
00000100
00001000
00000000
00000001
00000100
00001000
00000000
,  // measure 31
00000001
00000100
00001000
00000000
00010000
00100000
10000000
00000000
,  // measure 32
00100000
01000000
10000000
01000000
00010000
01000000
10000000
00000000
,  // measure 33
00010000
01000000
10000000
00000000
00110000
00000000
11000000
00000000
,  // measure 34
00010000
00100000
10000000
00000000
00010000
01000000
10000000
00000000
,  // measure 35
10000000
00100000
00010000
00000000
00000010
00001000
00000010
00000000
,  // measure 36
00000001
00000100
00001000
00000000
00000001
00000010
00001000
00000000
,  // measure 37
00000001
00000100
00001000
00000000
00000011
00000000
00001100
00000000
,  // measure 38
00000001
00001000
00000000
00000000
00000000
00000000
00000010
00000100
00000000
00000000
00000000
00000000
00001000
00010000
00000000
00000000
,  // measure 39
00000000
00000000
00000000
00000000
,  // measure 40
00010000
00001000
00000000
00000000
00000000
00000000
00000100
00000001
00000000
00000000
00000000
00000000
00001000
00000010
00000000
00000000
,  // measure 41
00000000
00000000
00000000
00001000
00000001
00000000
00000000
00000000
,  // measure 42
00001000
00000100
00001000
00000000
00000001
00000100
00000001
00000000
,  // measure 43
00001000
00000100
00001000
00000000
00000010
00000000
00000010
00000000
,  // measure 44
00010000
00001000
01000000
00000000
00001000
00010000
00000100
00000000
,  // measure 45
00010000
00100000
10000000
00010000
01000000
00000000
01000000
00000000
,  // measure 46
00010000
01000000
00010000
00000000
10000000
01000000
10000000
00000000
,  // measure 47
00010000
01000000
00010000
00000000
00100000
00000000
00100000
00000000
,  // measure 48
00001000
00010000
00001000
00000000
00000010
00000001
00000010
00000000
,  // measure 49
00000001
00000100
00001000
00010000
00001000
00000000
00001000
00000000
,  // measure 50
00000100
00000001
00000000
00000000
00000000
00000000
00001000
00000010
00000000
00000000
00000000
00000000
01000000
00100000
00000000
00000000
,  // measure 51
00000000
00000000
00000000
00000000
00000000
00000000
10000000
00010000
10000000
00010000
00000000
00000000
00000000
00000000
00000000
00000000
;

//---------------dance-double - Edit by silenttype01----------------
#NOTES:
     dance-double:
     Edit by silenttype01:
     Challenge:
     9:
     0.625,0.587,0.442,0.000,0.298: // measure 1
00000000
00000000
00000000
00000000
,  // measure 2
00000000
00000000
00000000
00000000
,  // measure 3
00000000
00000000
00000000
00000000
,  // measure 4
00001000
00000100
00000010
00000001
00001000
00000010
00001010
00000000
,  // measure 5
00000100
00000000
00000000
00000001
00000000
00000000
00000010
00000000
00001000
00000000
00000000
00000000
00011000
00000000
00000000
00000000
,  // measure 6
00010000
00100000
01000000
10000000
00010000
00100000
00110000
00000000
,  // measure 7
01000000
00000000
00000000
10000000
00000000
00000000
00100000
00000000
00010000
00000000
00000000
00000000
00011000
00000000
00000000
00000000
,  // measure 8
00000100
00000010
00000001
00001000
00000010
00000100
00000110
00000000
,  // measure 9
00000100
00000000
00000000
00000001
00000000
00000000
00000100
00000000
00001000
00000000
00000000
00000000
00011000
00000000
00000000
00000000
,  // measure 10
00100000
01000000
10000000
00010000
01000000
00100000
01100000
00000000
,  // measure 11
01000000
00000000
00000000
10000000
00000000
00000000
01000000
00000000
00010000
00000000
00000000
00000000
00011000
00000000
00000000
00000000
,  // measure 12
00001000
00000100
00001000
00000100
00000001
00000010
00000100
00001000
,  // measure 13
00000000
00000000
00001000
00000010
00001000
00000000
00001000
00000000
00000001
00000000
00000001
00000010
00000000
00000010
00000001
00000000
,  // measure 14
00000000
00000000
00000010
00000001
00000010
00000000
00000001
00000000
00000010
00000000
00001000
00000000
00010000
00000000
00001000
00000000
,  // measure 15
00001000
00001000
00010000
00010000
00011000
00001000
00010000
00100000
,  // measure 16
10000000
00000000
00000000
10000000
00000000
00000000
10000000
00000000
01000000
00000000
00000000
01000000
00000000
00000000
00000000
01000000
,  // measure 17
10000000
00100000
10000000
00100000
01000000
00001000
00100000
00010000
,  // measure 18
10000000
00100000
10000000
00100000
00010000
00001000
00010000
00001000
,  // measure 19
00000100
00000000
00000010
00000000
00010000
00000000
00001000
00000000
00000100
00000000
00000010
00000100
00000000
00000000
00000000
00000000
,  // measure 20
00000001
00001000
00000100
00000000
00000100
00000000
00001000
00000001
00000100
00000000
00000100
00000000
00000001
00001000
00000000
00000000
,  // measure 21
00000000
00000000
00000100
00000000
00000100
00000000
00001000
00000001
00001000
00000001
00000010
00000000
00000100
00000000
00001000
00000010
,  // measure 22
00001000
00000010
00000100
00000001
00001000
00001010
00001010
00000010
,  // measure 23
00000100
00000000
00000000
00000001
00000000
00000001
00000010
00000000
00001000
00000000
00000000
00000000
00011000
00000000
00000000
00000000
,  // measure 24
00010000
01000000
00100000
00001000
00100000
00101000
00101000
00100000
,  // measure 25
00010000
00000000
00000000
10000000
00000000
10000000
00100000
00000000
00010000
00000000
00000000
00000000
00011000
00000000
00000000
00000000
,  // measure 26
00001000
00010000
00100000
00010000
00001000
00011000
00011000
00001000
,  // measure 27
00000100
00000000
00000000
00000001
00000000
00000001
00000100
00000000
00001000
00000000
00000000
00000000
00011000
00000000
00000000
00000000
,  // measure 28
00010000
00001000
00000010
00001000
00010000
00011000
00011000
00010000
,  // measure 29
01000000
00000000
00000000
10000000
00000000
10000000
01000000
00000000
00010000
00000000
00000000
00000000
00011000
00000000
00000000
00000000
,  // measure 30
00010000
01000000
10000000
01000000
00010000
00001000
00000010
00000001
,  // measure 31
00000010
00000000
00000100
00000000
00000010
00000000
00000001
00000000
00000011
00000000
00001000
00000100
00000000
00000000
00000000
00010000
,  // measure 32
00001000
00000000
00000100
00000000
00000001
00000000
00000100
00000000
00001000
00000000
00010000
00100000
00000000
00000000
00010000
00000000
,  // measure 33
00100000
00000000
00000000
10000000
00000000
00000000
00100000
00000000
00000000
01000000
00000000
00000000
00010000
00000000
01000000
00000000
00010000
00000000
01000000
00000000
00000000
00000000
00000000
00000000
,  // measure 34
00001000
00000100
00000010
00001000
00000100
00000010
00001000
00010000
,  // measure 35
01000000
00100000
00010000
01000000
00100000
00010000
00001000
00000010
,  // measure 36
00000100
00001000
00000010
00000100
00001000
00010000
00100000
01000000
,  // measure 37
00010000
00000000
00010000
00000000
00010000
00100000
00010000
00000000
00100000
00000000
00100000
01000000
00000000
00000000
00000000
00000000
,  // measure 38
10000000
00010000
00100000
00000000
00100000
00000000
10000000
00010000
00100000
00000000
00100000
00000000
10000000
00010000
00000000
00000000
,  // measure 39
00000000
00000000
00000000
00000000
,  // measure 40
10000000
00010000
00100000
00000000
00100000
00000000
10000000
00010000
00100000
00000000
00100000
00000000
10000000
00010000
00000000
00000000
,  // measure 41
00000000
00000000
00000000
00000000
01100000
00000000
00010000
10000000
00010000
10000000
00000000
00000000
01100000
00000000
00000000
00000000
,  // measure 42
10000000
01000000
00100000
00001000
00010000
00011000
00011000
00001000
,  // measure 43
00010000
00000000
01000000
00100000
00000000
00100000
00010000
00000000
00110000
00000000
10000000
00000000
00110000
00000000
00000000
00000000
,  // measure 44
10000000
00100000
00010000
00001000
00000100
00001100
00001100
00000100
,  // measure 45
00001000
00000000
00010000
00000010
00000000
00000010
00010000
00000000
00010010
00000000
00001000
00000000
00010010
00000000
00000000
00000000
,  // measure 46
00000001
00000100
00000010
00010000
00001000
00011000
00011000
00010000
,  // measure 47
00001000
00000000
00000100
00000010
00000000
00000010
00001000
00000000
00001010
00000000
00000001
00000000
00001010
00000000
00000000
00000000
,  // measure 48
00000001
00000010
00001000
00010000
01000000
01010000
01010000
01000000
,  // measure 49
00010000
00000000
00001000
00100000
00000000
00100000
00001000
00000000
00101000
00000000
00010000
00000000
00101000
00000000
00000000
00000000
,  // measure 50
00001000
00100000
01000000
00000000
01000000
00000000
00001000
00100000
01000000
00000000
01000000
00000000
00001000
00100000
00000000
00000000
,  // measure 51
00000000
00000000
01000000
00000000
01000000
00000000
00100000
00001000
00100000
00001000
00000000
00000000
00000000
00000000
00000000
00000000
;
