#TITLE:MAKE IT BETTER;
#SUBTITLE:;
#ARTIST:mitsu-o!;
#TITLETRANSLIT:;
#SUBTITLETRANSLIT:;
#ARTISTTRANSLIT:;
#CREDIT:;
#BANNER:MAKE IT BETTER.png;
#BACKGROUND:MAKE IT BETTER-bg.png;
#LYRICSPATH:;
#CDTITLE:Dance Dance Revolution.png;
#MUSIC:MAKE IT BETTER.ogg;
#OFFSET:0.000;
#SAMPLESTART:10.067;
#SAMPLELENGTH:15.000;
#SELECTABLE:YES;
#DISPLAYBPM:119.000;
#BPMS:0.000=119.000,4.000=119.200,112.000=120.000,114.000=118.500,116.000=119.200,152.000=117.500,154.000=121.500,156.000=119.000,176.000=117.500;
#STOPS:;
#BGCHANGES:3.200=MAKE IT BETTER.avi=1.000=0=0=0,
179.500=MAKE IT BETTER-bg.png=1.000=0=0=1,
99999=-nosongbg-=1.000=0=0=0 // don't automatically add -songbackground-
;

//---------------dance-single - ----------------
#NOTES:
     dance-single:
     :
     Beginner:
     1:
     0.116,0.145,0.086,0.000,0.000:
0000
0000
0000
0000
,
0000
0000
0000
0000
,
0000
0000
0000
0000
,
0000
0000
0000
0000
,
0000
0000
0000
0000
,
0000
0000
0000
0000
,
0000
0000
0000
0000
,
0000
0000
0000
0000
,
1000
1000
1000
0000
,
1000
0000
0000
0000
,
0100
0000
0000
0000
,
0001
0001
0000
0000
,
0001
0001
0001
0000
,
0001
0000
0000
0000
,
0100
0000
0000
0000
,
1000
1000
0000
0000
,
1000
1000
1000
0000
,
1000
0000
0000
0000
,
0100
0000
0000
0000
,
0001
0001
0000
0000
,
0001
0001
0001
0000
,
1001
0000
0000
0000
,
0001
0000
1000
0000
,
1001
0000
0000
0000
,
0001
0001
0001
0000
,
1001
0000
0000
0000
,
0001
0000
1000
0000
,
1001
0000
0000
0000
,
1000
1000
1000
0000
,
1000
0000
0000
0000
,
0100
0000
0000
0000
,
0001
0001
0000
0000
,
0001
0001
0001
0000
,
0001
0000
0000
0000
,
0100
0000
0000
0000
,
1000
1000
0000
0000
,
1000
1000
1000
0000
,
1001
0000
0000
0000
,
0001
0000
1000
0000
,
1001
0000
0000
0000
,
0001
0001
0001
0000
,
1001
0000
0000
0000
,
0001
0000
1000
0000
,
1001
0000
0000
0000
,
1000
1000
1000
1000
;

//---------------dance-single - ----------------
#NOTES:
     dance-single:
     :
     Easy:
     4:
     0.282,0.291,0.432,0.000,0.000:
0000
0000
0000
0000
,
0000
0000
0000
0000
,
0000
0000
0000
0000
,
0000
0000
0000
0000
,
0000
0000
0000
0000
,
0000
0000
0000
0000
,
0000
0000
0000
0000
,
0000
0000
0000
0000
,
1000
1000
1000
0000
,
1100
1000
1000
1000
,
1000
1000
0000
1100
,
0000
1010
1001
1100
,
1000
1000
1000
0000
,
0101
0001
0001
0001
,
0001
0001
0010
0100
,
0000
0011
1001
0101
,
0001
0000
0001
0001
0001
0000
0000
0000
,
1100
1000
1000
1000
,
1000
1000
0000
1100
,
0000
1010
1001
1100
,
1000
0000
1000
0000
1000
1000
0100
0000
,
0000
1001
1100
1000
,
0000
1000
0001
1000
,
0010
1001
0101
0001
,
0100
0000
0100
0000
0100
0000
0100
0001
,
0100
1001
0101
0001
,
0000
0001
1000
0001
,
0010
1001
1100
1000
,
0000
0000
0000
0000
,
0101
0001
0001
0000
0001
0001
0001
0000
,
0001
0001
0010
0100
,
0000
0011
1001
0101
,
0001
0000
0001
0001
0001
0000
0000
0000
,
1100
1000
1000
0000
1000
1000
1000
0000
,
1000
0000
1000
0000
0010
1000
0100
0000
,
0000
1010
1001
1100
,
1000
0000
1000
1000
1000
1000
0100
0000
,
0000
0000
1001
0000
1100
1000
1000
0000
,
0000
1000
0001
1000
,
0010
0000
1001
0000
0101
0001
0001
0000
,
0100
0000
0100
0000
0100
0000
0001
0100
,
0100
1001
0101
1100
,
0000
0001
1000
0001
,
0010
1001
1100
0101
,
0100
0000
0100
0000
0100
0100
0100
0100
;

//---------------dance-single - ----------------
#NOTES:
     dance-single:
     :
     Medium:
     5:
     0.327,0.388,0.259,0.000,0.000:
0000
0000
0000
0000
,
0000
0000
0000
0000
,
0000
0000
0000
0000
,
0000
0000
0000
0000
,
0000
0000
0000
0000
,
0000
0000
0000
0000
,
0000
0000
0000
0000
,
0000
0000
0000
0000
,
1000
0000
1000
1000
1000
0000
0000
0000
,
0100
1000
1000
0000
1000
1000
1000
0000
,
1000
0000
1000
0000
0010
1000
0100
0000
,
0000
1010
1001
1100
,
0100
0000
1000
1000
1000
0100
1000
0100
,
0100
0001
0001
0000
0001
0001
0001
0000
,
0001
0001
0010
0100
,
0000
0011
1001
0101
,
0001
0001
0001
0001
0001
0000
0000
0000
,
0100
1000
1000
0000
1000
1000
1000
0000
,
1000
0000
1000
0000
0010
1000
0100
0000
,
0000
1010
1001
1100
,
0100
0000
1000
1000
1000
0100
1000
0100
,
0000
0000
1001
0000
0100
1000
0100
0001
,
0000
1000
0001
1000
,
0100
0000
1001
0000
0100
0001
0100
1000
,
0100
0000
0100
0000
0100
0000
0001
0100
,
0100
0100
1001
0000
0100
1000
0100
0001
,
0000
0001
1000
0001
,
0100
0000
1001
0000
0100
0001
0100
1000
,
0000
0000
0000
0000
,
0100
0001
0001
0000
0001
0001
0001
0000
,
0001
0001
0001
0000
0010
0000
0100
0000
,
0000
0011
1001
0101
,
0001
0001
0001
0001
0001
0000
0000
0000
,
0100
1000
1000
0000
1000
1000
1000
0000
,
1000
1000
1000
0000
0010
1000
0100
0000
,
0000
1010
1001
1100
,
0100
0000
1000
1000
1000
0100
1000
0100
,
0000
0000
1001
0000
0100
1000
1000
0100
,
0000
0000
1000
0000
0001
1000
0001
0000
,
0100
0000
1001
0000
0010
0001
0001
0010
,
0001
0100
1000
0100
0001
0100
1000
0001
,
0100
0100
1001
0000
0010
0001
1000
0100
,
0000
0000
0001
0000
1000
0001
1000
0000
,
0100
0000
1001
0000
0100
1000
0001
0010
,
1000
0100
1000
0010
0001
0010
0001
0101
;

//---------------dance-single - ----------------
#NOTES:
     dance-single:
     :
     Hard:
     7:
     0.398,0.557,0.497,0.000,0.000:
0000
0000
0000
0000
,
0000
0000
0000
0000
,
0000
0000
0000
0000
,
0000
0000
0000
0000
,
0000
0000
0000
0000
,
0000
0000
0000
0000
,
0000
0000
0000
0000
,
0000
0000
0000
0000
,
1000
1000
1000
1000
1000
0000
0000
0000
,
0100
1000
1000
0000
1000
1000
1000
0000
,
1000
1000
1000
0000
0010
1000
0100
0000
,
0000
1010
1001
1100
,
1000
0100
1000
1000
1000
0100
1000
1100
,
0010
0001
0001
0000
0001
0001
0001
0000
,
0001
0001
0001
0000
0010
0000
0100
0000
,
0000
0011
1001
0101
,
0001
0010
0001
0001
0101
0000
0000
0000
,
0010
1000
1000
0000
1000
1000
1000
0000
,
1000
1000
1000
0000
0010
1000
0100
0000
,
0000
1010
1001
1100
,
0100
0100
1000
0001
1000
0010
1000
1100
,
0000
1000
1001
0000
0100
0001
0010
1000
,
0000
0000
1000
0000
0001
1000
0001
0000
,
0100
0000
1001
0000
0010
1000
0100
0001
,
1000
1000
0100
0100
0001
0001
0010
1000
,
0100
0100
1001
0000
0100
0001
1000
0010
,
0000
0000
0001
0000
1000
0001
1000
0000
,
0100
0000
1001
0000
0100
1000
0010
0100
,
1000
0100
1000
0100
1000
0100
0001
0100
,
0100
0001
0001
0000
0001
0001
0101
0000
,
0001
0001
0001
0000
0010
0000
0100
0000
,
0000
0011
1001
0101
,
0001
0100
0001
1000
0101
0000
0000
0000
,
0100
1000
1000
0000
1000
1000
1100
0000
,
1000
1000
1100
0000
0010
1000
0100
0000
,
0000
1010
1001
1100
,
0100
0100
0100
1000
1000
0001
0001
0101
,
0000
0100
1001
0000
1000
0100
0001
0100
,
0000
0000
1000
1000
0001
0001
1000
0000
,
0100
0000
1001
0000
0010
1000
0010
0001
,
1000
1100
0100
0101
0001
0011
1010
1100
,
0100
0100
1001
0000
0010
1100
0001
1010
,
0000
0000
0001
0001
1000
1000
0001
0000
,
0100
0000
1001
0000
1010
0011
0101
1100
,
1010
1000
1000
1001
1100
1000
1000
1001
;

//---------------dance-double - ----------------
#NOTES:
     dance-double:
     :
     Easy:
     5:
     0.281,0.314,0.561,0.000,0.000:
00000000
00000000
00000000
00000000
,
00000000
00000000
00000000
00000000
,
00000000
00000000
00000000
00000000
,
00000000
00000000
00000000
00000000
,
00000000
00000000
00000000
00000000
,
00000000
00000000
00000000
00000000
,
00000000
00000000
00000000
00000000
,
00000000
00000000
00000000
00000000
,
00100000
00100000
00100000
00000000
,
00101000
00100000
00100000
00110000
,
00100000
00000000
00100000
00000000
00100000
10000000
01000000
00000000
,
00000000
10010000
00011000
00001001
,
00000010
00000100
00011000
00000000
,
00010010
00000010
00000010
00001010
,
00000010
00000010
00000100
00000010
,
00000000
00000011
00001001
00000101
,
00001000
00000001
00011000
00000000
,
00101000
00100000
00100000
00110000
,
00100000
00000000
00100000
00000000
00100000
10000000
01000000
00000000
,
00000000
10010000
00011000
00001001
,
00000010
00000000
00000100
00000000
00001000
00000000
00001000
00001000
,
00000000
00011000
00000000
00101000
,
00000000
10000000
00010000
10000000
,
00000000
00011000
00000000
00010010
,
00001000
00000100
00000001
00000010
,
00000100
00011000
00000000
00101000
,
00000000
00010000
10000000
00010000
,
00000000
10010000
01010000
00011000
,
00000000
00000000
00000000
00000000
,
00010010
00000010
00001010
00000010
,
00000101
00000001
00000100
00000010
,
00000000
00000011
00001001
00000101
,
00001000
00000001
00011000
00000000
,
00101000
00100000
00110000
00100000
,
11000000
00000000
10000000
00000000
00100000
10000000
01000000
00000000
,
00000000
10010000
00011000
00001001
,
00000001
00000000
00000001
00000001
00000001
00000001
00000100
00000000
,
00000000
00011000
00101000
00010010
,
00000000
00001000
00000001
00001000
,
00000000
00011000
00010010
00101000
,
00010000
01000000
10000000
00100000
,
01000000
00011000
00101000
00010010
,
00000000
00001000
00000001
00001000
,
00000000
00001001
00000101
00001100
,
00001000
00001000
00001000
00001000
00001000
00000000
00011000
00000000
;

//---------------dance-double - ----------------
#NOTES:
     dance-double:
     :
     Medium:
     7:
     0.319,0.363,0.281,0.000,0.000:
00000000
00000000
00000000
00000000
,
00000000
00000000
00000000
00000000
,
00000000
00000000
00000000
00000000
,
00000000
00000000
00000000
00000000
,
00000000
00000000
00000000
00000000
,
00000000
00000000
00000000
00000000
,
00000000
00000000
00000000
00000000
,
00000000
00000000
00000000
00000000
,
00100000
00000000
00100000
00100000
00100000
00000000
00000000
00000000
,
00001000
00100000
00100000
00000000
00010000
00100000
00100000
00000000
,
00100000
00000000
00100000
00000000
10000000
00100000
01000000
00000000
,
00000000
10010000
00011000
00001001
,
00000010
00000000
00000100
00000100
00001000
00000000
00011000
00000000
,
00010000
00000010
00000010
00000000
00001000
00000010
00000010
00000000
,
00000010
00000010
00000100
00000010
,
00000000
00001001
00011000
10010000
,
01000000
00000000
00010000
00001000
00011000
00000000
00000000
00000000
,
00001000
00100000
00100000
00000000
00010000
00100000
00100000
00000000
,
00100000
00000000
00100000
00000000
10000000
00100000
01000000
00000000
,
00000000
10010000
00011000
00001001
,
00000100
00000000
00001000
00001000
00001000
00000100
00001000
00000100
,
00000000
00000000
00011000
00000000
00010000
00001000
00010000
00000010
,
00000000
00001000
00000001
00001000
,
00000000
00000000
00011000
00000000
00001000
00010000
00001000
00100000
,
00010000
00000000
00100000
00000000
10000000
00000000
01000000
01000000
,
01000000
00000000
00011000
00000000
00010000
00001000
00010000
00000010
,
00000000
00001000
00000001
00001000
,
00000000
00000000
00011000
00000000
00001000
00010000
00001000
00100000
,
00000000
00000000
00000000
00000000
,
00010000
00000010
00000010
00000000
00001000
00000010
00000010
00000000
,
00000100
00000001
00000001
00000000
00000100
00000000
00000010
00000000
,
00000000
00001001
00011000
10010000
,
00100000
00010000
00010000
00001000
00011000
00000000
00000000
00000000
,
00001000
00100000
00100000
00000000
00010000
00100000
00100000
00000000
,
01000000
10000000
10000000
00000000
10000000
00100000
01000000
00000000
,
00000000
10010000
00011000
00001001
,
00000100
00000000
00001000
00001000
00001000
00000100
00001000
00000100
,
00000000
00000000
00011000
00000000
00010000
00000010
00001000
00100000
,
00000000
00000000
00010000
00000000
10000000
00010000
10000000
00000000
,
01000000
00000000
00011000
00000000
00001000
00100000
00010000
00000010
,
00001000
00001000
00000100
00000100
00000001
00000001
00000010
00001000
,
00000100
00000000
00011000
00000000
00010000
00000010
00001000
00100000
,
00000000
00000000
00010000
00000000
10000000
00010000
10000000
00000000
,
01000000
00000000
00011000
00000000
00001000
00100000
00010000
00000010
,
00001000
00001000
00000100
00000100
00000001
00000010
00001000
00000100
;

//---------------dance-double - ----------------
#NOTES:
     dance-double:
     :
     Hard:
     7:
     0.376,0.411,0.259,0.000,0.200:
00000000
00000000
00000000
00000000
,
00000000
00000000
00000000
00000000
,
00000000
00000000
00000000
00000000
,
00000000
00000000
00000000
00000000
,
00000000
00000000
00000000
00000000
,
00000000
00000000
00000000
00000000
,
00000000
00000000
00000000
00000000
,
00000000
00000000
00000000
00000000
,
00000001
00000010
00000100
00010000
00001000
00000000
00000000
00000000
,
00100000
00000000
00010000
00000000
01000000
00010000
00000000
00000000
10000000
00000000
00100000
00000000
01000000
00100000
00000000
00000000
,
10000000
01000000
00100000
00001000
00010000
00000000
00000000
00000000
,
00001010
00000000
00000101
00000000
00001000
00000100
00000010
00000000
,
00000000
00010000
00001000
01000000
00100000
10000000
01000000
00000000
,
00100000
00000000
00010000
00000000
01000000
00010000
00000000
00000000
00100000
00000000
00001000
00000000
00010000
00001000
00000000
00000000
,
00100000
00010000
01000000
00001000
00010000
00000000
00000000
00000000
,
00001100
00000000
00000011
00000000
00001000
00000100
00010000
00000000
,
00000000
00001000
00100000
00010000
10000000
10000000
10000000
00000000
,
00100000
00000000
01000000
00000000
00001000
00010000
00000000
00000000
00000100
00000000
00000010
00000000
00000001
00000100
00000000
00000000
,
00000010
00001000
00000100
00010000
00001000
00000000
00000000
00000000
,
00110000
00000000
11000000
00000000
00100000
00010000
01000000
00000000
,
00000000
00000000
00001000
00000000
00010000
00000000
00001000
00000000
00010000
00000100
00001000
00000100
00010000
00000100
00000000
00000000
,
00000000
00000000
00001001
00000000
00000100
00000010
00010000
00000000
,
00001000
00001000
00100000
00100000
01000000
01000000
10000000
00000000
,
00000000
00000000
01010000
00000000
00100000
00001000
00010000
00000000
,
00000100
00001000
00000000
00000100
00000000
00000010
00000000
00000001
00000000
00000000
00001000
00000000
00000100
00000000
00010000
00000000
,
00000000
00000000
00101000
00000000
00010000
10000000
01000000
00000000
,
00100000
00100000
00001000
00001000
00010000
00010000
00000100
00000000
,
00000000
00000000
00001001
00000000
00000100
00000010
00010000
00000000
,
00001000
00100000
01000000
10000000
00010000
01000000
00001000
00010000
,
00000100
00000000
00000010
00000000
00000001
00000100
00000010
00000000
,
00010000
00010000
00001000
00100000
00010000
10000000
01000000
00000000
,
00000000
00000000
00000000
00000000
00000000
00000000
00100000
00000000
00000000
00000000
00100000
00000000
00000000
00100000
00000000
00000000
,
00001000
00000000
01000000
00000000
00010000
00100000
00010000
00000000
,
00100000
00001000
00010000
00000000
00000100
00001000
00000100
00000000
,
00000010
00000000
00000010
00000000
00000001
00000100
00000010
00000000
,
00000000
00001100
00011000
00110000
,
10000000
01000000
00100000
00010000
01000000
00001000
00010000
00000000
,
00000100
00000000
00000100
00000000
00000100
00000000
00000000
00000000
00000010
00000001
00000010
00000001
00000010
00000001
00000000
00000000
,
00000000
00001100
00000000
00010010
00000000
01001000
00000000
00110000
,
00000000
00000000
00000000
00000000
10100000
00000000
00000000
00000000
00010000
00100000
00010000
00100000
00010000
00100000
00000000
00000000
,
00001000
00010000
00000000
00000100
00000000
00000010
00000000
00000001
00000000
00000000
00001000
00000000
00000100
00000000
00010000
00000000
,
00000000
00000000
00000000
00000000
00101000
00000000
00000000
00000000
00010000
01000000
00010000
01000000
00010000
01000000
00000000
00000000
,
00000000
10100000
00000000
01001000
00000000
00010010
00000000
00000101
,
00000000
00000000
00000000
00000000
00001010
00000000
00000000
00000000
00000100
00010000
00000100
00010000
00000100
00010000
00000000
00000000
,
00000000
00001000
00000000
00100000
00000000
00010000
00000000
01000000
00000000
00100000
00000000
10000000
00000000
00010000
00000000
00000000
;

//---------------dance-couple - ----------------
#NOTES:
     dance-couple:
     :
     Easy:
     4:
     0.558,0.581,1.000,0.000,0.000:
00000000
00000000
00000000
00000000
,
00000000
00000000
00000000
00000000
,
00000000
00000000
00000000
00000000
,
00000000
00000000
00000000
00000000
,
00000000
00000000
00000000
00000000
,
00000000
00000000
00000000
00000000
,
00000000
00000000
00000000
00000000
,
00000000
00000000
00000000
00000000
,
10000001
10000001
10000001
00000000
,
11000101
10000001
10000001
10000001
,
10000001
10000001
00000101
11000000
,
00000000
10100101
10011001
11000011
,
10000001
10000001
10000001
00000000
,
01011100
00011000
00011000
00011000
,
00011000
00011000
00000100
00000010
,
00000000
00111100
10011001
01011010
,
00011000
00000000
00011000
00011000
00011000
00000000
00000000
00000000
,
11000101
10000001
10000001
10000001
,
10000001
10000001
00000101
11000000
,
00000000
10100101
10011001
11000011
,
10000001
00000000
10000001
00000000
10000001
10000001
01000100
00000000
,
00000000
10011001
11000101
10000001
,
00000000
10000001
00011000
10000001
,
00100010
10011001
01011100
00011000
,
01000010
00000000
01000010
00000000
01000010
00000000
01000010
00011000
,
01000010
10011001
01011100
00011000
,
00000000
00011000
10000001
00011000
,
00100010
10011001
11000101
10000001
,
00000000
00000000
00000000
00000000
,
01011100
00011000
00011000
00000000
00011000
00011000
00011000
00000000
,
00011000
00011000
00100000
01000000
,
00000000
00111100
10011001
01011010
,
00011000
00000000
00011000
00011000
00011000
00000000
00000000
00000000
,
11000101
10000001
10000001
00000000
10000001
10000001
10000001
00000000
,
10000001
00000000
10000001
00000000
00100100
10000001
01000010
00000000
,
00000000
10100101
10011001
11000011
,
10000001
00000000
10000001
10000001
10000001
10000001
01000100
00000000
,
00000000
00000000
10011001
00000000
11000101
10000001
10000001
00000000
,
00000000
10000001
00011000
10000001
,
00100010
00000000
10011001
00000000
01011100
00011000
00011000
00000000
,
01000010
00000000
01000010
00000000
01000010
00000000
00011000
01000010
,
01000010
10011001
01011100
11000101
,
00000000
00011000
10000001
00011000
,
00100010
10011001
11000101
01011100
,
01000100
00000000
01000100
00000000
01000100
01000100
01000100
01000100
;

//---------------dance-couple - ----------------
#NOTES:
     dance-couple:
     :
     Medium:
     5:
     0.654,0.775,1.000,0.000,0.000:
00000000
00000000
00000000
00000000
,
00000000
00000000
00000000
00000000
,
00000000
00000000
00000000
00000000
,
00000000
00000000
00000000
00000000
,
00000000
00000000
00000000
00000000
,
00000000
00000000
00000000
00000000
,
00000000
00000000
00000000
00000000
,
00000000
00000000
00000000
00000000
,
10000001
00000000
10000001
10000001
10000001
00000000
00000000
00000000
,
01000100
10000001
10000001
00000000
10000001
10000001
10000001
00000000
,
10000001
00000000
10000001
00000000
00100100
10000001
01000010
00000000
,
00000000
10100101
10011001
11000011
,
01000100
00000000
10000001
10000001
10000001
01000100
10000001
01000100
,
01000100
00011000
00011000
00000000
00011000
00011000
00011000
00000000
,
00011000
00011000
00100100
01000010
,
00000000
00111100
10011001
01011010
,
00011000
00011000
00011000
00011000
00011000
00000000
00000000
00000000
,
01000100
10000001
10000001
00000000
10000001
10000001
10000001
00000000
,
10000001
00000000
10000001
00000000
00100100
10000001
01000010
00000000
,
00000000
10100101
10011001
11000011
,
01000100
00000000
10000001
10000001
10000001
01000100
10000001
01000100
,
00000000
00000000
10011001
00000000
01000100
10000001
01000100
00011000
,
00000000
10000001
00011000
10000001
,
01000100
00000000
10011001
00000000
01000100
00011000
01000100
10000001
,
01000100
00000000
01000100
00000000
01000100
00000000
00011000
01000100
,
01000100
01000100
10011001
00000000
01000100
10000001
01000100
00011000
,
00000000
00011000
10000001
00011000
,
01000100
00000000
10011001
00000000
01000100
00011000
01000100
10000001
,
00000000
00000000
00000000
00000000
,
01000100
00011000
00011000
00000000
00011000
00011000
00011000
00000000
,
00011000
00011000
00011000
00000000
00100100
00000000
01000010
00000000
,
00000000
00111100
10011001
01011010
,
00011000
00011000
00011000
00011000
00011000
00000000
00000000
00000000
,
01000100
10000001
10000001
00000000
10000001
10000001
10000001
00000000
,
10000001
10000001
10000001
00000000
00100100
10000001
01000010
00000000
,
00000000
10100101
10011001
11000011
,
01000100
00000000
10000001
10000001
10000001
01000100
10000001
01000100
,
00000000
00000000
10011001
00000000
01000100
10000001
10000001
01000100
,
00000000
00000000
10000001
00000000
00011000
10000001
00011000
00000000
,
01000100
00000000
10011001
00000000
00100010
00011000
00011000
00100010
,
00011000
01000100
10000001
01000100
00011000
01000100
10000001
00011000
,
01000100
01000100
10011001
00000000
00100010
00011000
10000001
01000100
,
00000000
00000000
00011000
00000000
10000001
00011000
10000001
00000000
,
01000100
00000000
10011001
00000000
01000100
10000001
00011000
00100010
,
10000001
01000100
10000001
00100010
00011000
00100010
00011000
01011100
;

//---------------dance-couple - ----------------
#NOTES:
     dance-couple:
     :
     Hard:
     7:
     0.796,1.000,1.000,0.000,0.000:
00000000
00000000
00000000
00000000
,
00000000
00000000
00000000
00000000
,
00000000
00000000
00000000
00000000
,
00000000
00000000
00000000
00000000
,
00000000
00000000
00000000
00000000
,
00000000
00000000
00000000
00000000
,
00000000
00000000
00000000
00000000
,
00000000
00000000
00000000
00000000
,
10000001
10000001
10000001
10000001
10000001
00000000
00000000
00000000
,
01000100
10000001
10000001
00000000
10000001
10000001
10000001
00000000
,
10000001
10000001
10000001
00000000
00100100
10000001
01000010
00000000
,
00000000
10100101
10011001
11000011
,
10000001
01000100
10000001
10000001
10000001
01000100
10000001
11000101
,
00100010
00011000
00011000
00000000
00011000
00011000
00011000
00000000
,
00011000
00011000
00011000
00000000
00100100
00000000
01000010
00000000
,
00000000
00111100
10011001
01011010
,
00011000
00100010
00011000
00011000
01011100
00000000
00000000
00000000
,
01000010
10000001
10000001
00000000
10000001
10000001
10000001
00000000
,
10000001
10000001
10000001
00000000
00100100
10000001
01000010
00000000
,
00000000
10100101
10011001
11000011
,
01000100
01000100
10000001
00011000
10000001
00100010
10000001
11000101
,
00000000
10000001
10011001
00000000
01000100
00011000
00100010
10000001
,
00000000
00000000
10000001
00000000
00011000
10000001
00011000
00000000
,
01000100
00000000
10011001
00000000
00100010
10000001
01000100
00011000
,
10000001
10000001
01000100
01000100
00011000
00011000
00100010
10000001
,
01000100
01000100
10011001
00000000
01000100
00011000
10000001
00100010
,
00000000
00000000
00011000
00000000
10000001
00011000
10000001
00000000
,
01000100
00000000
10011001
00000000
01000100
10000001
00100010
01000100
,
10000001
01000100
10000001
01000100
10000001
01000100
00011000
01000100
,
01000100
00011000
00011000
00000000
00011000
00011000
01011100
00000000
,
00011000
00011000
00011000
00000000
00100100
00000000
01000010
00000000
,
00000000
00111100
10011001
01011010
,
00011000
01000100
00011000
10000001
01011100
00000000
00000000
00000000
,
01000100
10000001
10000001
00000000
10000001
10000001
11000101
00000000
,
10000001
10000001
11000101
00000000
00100100
10000001
01000010
00000000
,
00000000
10100101
10011001
11000011
,
01000100
01000100
01000100
10000001
10000001
00011000
00011000
01011100
,
00000000
01000100
10011001
00000000
10000001
01000100
00011000
01000100
,
00000000
00000000
10000001
10000001
00011000
00011000
10000001
00000000
,
01000100
00000000
10011001
00000000
00100010
10000001
00100010
00011000
,
10000001
11000101
01000100
01011100
00011000
00111010
10100011
11000101
,
01000100
01000100
10011001
00000000
00100010
11000101
00011000
10100011
,
00000000
00000000
00011000
00011000
10000001
10000001
00011000
00000000
,
01000100
00000000
10011001
00000000
10100011
00111010
01011100
11000101
,
10100011
10000001
10000001
10011001
11000101
10000001
10000001
10011001
;

//---------------dance-couple - ----------------
#NOTES:
     dance-couple:
     :
     Challenge:
     4:
     0.521,0.606,1.000,0.000,0.000:
00000000
00000000
00000000
00000000
,
00000000
00000000
00000000
00000000
,
00000000
00000000
00000000
00000000
,
00000000
00000000
00000000
00000000
,
00000000
00000000
00000000
00000000
,
00000000
00000000
00000000
00000000
,
00000000
00000000
00000000
00000000
,
00000000
00000000
00000000
00000000
,
00011000
00000000
00011000
00011000
00011000
00000000
00000000
00000000
,
00000100
00001000
10001000
00000000
00001000
00001000
10001000
00000000
,
00001000
00001000
10001000
00000000
00000010
00001000
10000100
00000000
,
00000000
10001010
00001001
10001100
,
00001000
00000100
10001000
00001000
00001000
00000100
10001000
00000000
,
01000000
00010000
00010001
00000000
00010000
00010000
00010001
00000000
,
00010000
00010000
00010001
00000000
00100000
00010000
01000001
00000000
,
00000000
00110001
10010000
01010001
,
00010000
01000000
00010001
00010000
00010000
01000000
00010001
00000000
,
01000100
10001000
10001000
00000000
10001000
10001000
10001000
00000000
,
10001000
00000000
10001000
00000000
00100010
10001000
01000100
00000000
,
00000000
10101010
10011001
11001100
,
01000100
00000000
10001000
10001000
10001000
01000100
10001000
01000100
,
00000000
00000000
10001001
00000000
00000100
00001000
10000100
00000001
,
00000000
00001000
00000001
00001000
,
00000000
00000000
10010001
00000000
01000000
10000000
01000001
00010000
,
00000000
10000000
00010000
10000000
,
01000100
01000100
10011001
00000000
01000100
00010001
10001000
00100010
,
00000000
00000000
00010001
00000000
10001000
00010001
10001000
00000000
,
01000100
00000000
10011001
00000000
01000100
10001000
00100010
01000100
,
10001000
01000100
10001000
01000100
10001000
01000100
00010001
00000000
,
01010001
00010000
00010000
00000000
00010001
00010000
00010000
00000000
,
00010001
00010000
00100001
01000000
,
00000000
00110011
10011001
01010101
,
00010001
00000000
00010001
00010001
00010001
00000000
00000000
00000000
,
10000101
00000001
00000001
00000000
10000001
00000001
00000001
00000000
,
10000001
00000001
10000010
00000100
,
00000000
10101010
10011001
11001100
,
01000100
01000100
01000100
10001000
10001000
00010001
00010001
00000000
,
01000000
00000000
10010000
00000000
10000000
01000000
00010000
01000000
,
00000000
00000000
10000000
10000000
00010000
00010000
10000000
00000000
,
00000100
00000000
00001001
00000000
00001000
00000100
00000001
00000100
,
00000000
00000000
00001000
00001000
00000001
00000001
00001000
00000000
,
01000000
01000000
10010000
00000000
00100000
00010000
10000000
01000000
,
00000000
00000000
00010001
00000000
10001000
00010001
10001000
00000000
,
00000100
00000100
00001001
00000000
00000010
00000001
00001000
00000100
,
10001000
01000100
10001000
00100010
00010001
00100010
00010001
01010101
;

//---------------dance-solo - ----------------
#NOTES:
     dance-solo:
     :
     Easy:
     4:
     0.282,0.291,0.432,0.000,0.000:
000000
000000
000000
000000
,
000000
000000
000000
000000
,
000000
000000
000000
000000
,
000000
000000
000000
000000
,
000000
000000
000000
000000
,
000000
000000
000000
000000
,
000000
000000
000000
000000
,
000000
000000
000000
000000
,
010000
010000
010000
000000
,
101000
010000
010000
010000
,
010000
010000
000000
101000
,
000000
100100
100001
101000
,
010000
010000
010000
000000
,
001001
000010
000010
000010
,
000010
000010
000100
001000
,
000000
000101
100001
001001
,
000010
000000
000010
000010
000010
000000
000000
000000
,
101000
010000
010000
010000
,
010000
010000
000000
101000
,
000000
100100
100001
101000
,
010000
000000
010000
000000
010000
010000
001000
000000
,
000000
100001
101000
010000
,
000000
010000
000010
010000
,
000100
100001
001001
000010
,
001000
000000
001000
000000
001000
000000
001000
000010
,
001000
100001
001001
000010
,
000000
000010
010000
000010
,
000100
100001
101000
010000
,
000000
000000
000000
000000
,
001001
000010
000010
000000
000010
000010
000010
000000
,
000010
000010
000100
001000
,
000000
000101
100001
001001
,
000010
000000
000010
000010
000010
000000
000000
000000
,
101000
010000
010000
000000
010000
010000
010000
000000
,
010000
000000
010000
000000
000100
010000
001000
000000
,
000000
100100
100001
101000
,
010000
000000
010000
010000
010000
010000
001000
000000
,
000000
000000
100001
000000
101000
010000
010000
000000
,
000000
010000
000010
010000
,
000100
000000
100001
000000
001001
000010
000010
000000
,
001000
000000
001000
000000
001000
000000
000010
001000
,
001000
100001
001001
101000
,
000000
000010
010000
000010
,
000100
100001
101000
001001
,
001000
000000
001000
000000
001000
001000
001000
001000
;

//---------------dance-solo - ----------------
#NOTES:
     dance-solo:
     :
     Medium:
     5:
     0.327,0.388,0.259,0.000,0.000:
000000
000000
000000
000000
,
000000
000000
000000
000000
,
000000
000000
000000
000000
,
000000
000000
000000
000000
,
000000
000000
000000
000000
,
000000
000000
000000
000000
,
000000
000000
000000
000000
,
000000
000000
000000
000000
,
000010
000000
100000
100000
100000
000000
000000
000000
,
001000
010000
010000
000000
100000
100000
100000
000000
,
010000
000000
010000
000000
000100
100000
001000
000000
,
000000
010100
100001
101000
,
001000
000000
100000
100000
100000
001000
010000
001000
,
001000
000001
000001
000000
000010
000010
000010
000000
,
000001
000001
000100
001000
,
000000
010001
100010
001001
,
000001
000001
000001
000001
000001
000000
000000
000000
,
001000
010000
010000
000000
100000
100000
100000
000000
,
010000
000000
010000
000000
000100
100000
001000
000000
,
000000
010010
100001
101000
,
001000
000000
100000
100000
100000
001000
010000
001000
,
000000
000000
100001
000000
001000
010000
001000
000010
,
000000
100000
000001
100000
,
001000
000000
100001
000000
001000
000010
001000
010000
,
001000
000000
001000
000000
001000
000000
000001
001000
,
001000
001000
100001
000000
001000
100000
001000
000010
,
000000
000001
010000
000010
,
001000
000000
100001
000000
001000
000001
001000
010000
,
000000
000000
000000
000000
,
001000
000001
000001
000000
000010
000010
000010
000000
,
000001
000001
000001
000000
000100
000000
001000
000000
,
000000
010001
100010
001001
,
000001
000001
000001
000001
000001
000000
000000
000000
,
001000
010000
010000
000000
100000
100000
100000
000000
,
100000
100000
100000
000000
000100
010000
001000
000000
,
000000
100100
100010
001001
,
001000
000000
100000
100000
100000
001000
010000
001000
,
000000
000000
100001
000000
001000
010000
010000
001000
,
000000
000000
100000
000000
000010
100000
000010
000000
,
001000
000000
100001
000000
000100
000001
000001
000100
,
000010
001000
100000
001000
000001
001000
100000
000001
,
001000
001000
100001
000000
000100
000001
100000
001000
,
000000
000000
000010
000000
010000
000001
100000
000000
,
001000
000000
100001
000000
001000
100000
000001
000100
,
100000
001000
010000
000100
000001
000100
000010
001001
;

//---------------dance-solo - ----------------
#NOTES:
     dance-solo:
     :
     Hard:
     7:
     0.398,0.557,0.497,0.000,0.000:
000000
000000
000000
000000
,
000000
000000
000000
000000
,
000000
000000
000000
000000
,
000000
000000
000000
000000
,
000000
000000
000000
000000
,
000000
000000
000000
000000
,
000000
000000
000000
000000
,
000000
000000
000000
000000
,
100000
100000
100000
100000
100000
000000
000000
000000
,
001000
100000
100000
000000
100000
100000
100000
000000
,
100000
100000
100000
000000
000100
100000
001000
000000
,
000000
010100
001010
011000
,
100000
001000
100000
100000
100000
001000
100000
101000
,
000100
000001
000001
000000
000001
000001
000001
000000
,
000010
000010
000010
000000
000100
000000
001000
000000
,
000000
010001
100010
010100
,
000010
000100
000001
000001
001001
000000
000000
000000
,
000100
100000
100000
000000
100000
100000
100000
000000
,
100000
100000
100000
000000
000100
010000
001000
000000
,
000000
100010
010100
001010
,
001000
001000
100000
000001
100000
000100
010000
101000
,
000000
100000
100001
000000
001000
000001
000100
100000
,
000000
000000
100000
000000
000010
100000
000001
000000
,
001000
000000
100001
000000
000100
100000
001000
000010
,
100000
100000
001000
001000
000001
000001
000100
010000
,
001000
001000
100001
000000
001000
000001
100000
000100
,
000000
000000
000010
000000
100000
000001
100000
000000
,
001000
000000
100001
000000
001000
100000
000010
001000
,
100000
001000
100000
001000
100000
001000
000001
001000
,
001000
000010
000010
000000
000001
000001
001001
000000
,
000001
000001
000001
000000
000100
000000
001000
000000
,
000000
010001
100010
001100
,
000010
001000
000001
100000
011000
000000
000000
000000
,
001000
100000
100000
000000
100000
100000
101000
000000
,
100000
100000
101000
000000
000100
010000
001000
000000
,
000000
100010
011000
001001
,
001000
001000
001000
000010
000010
100000
100000
101000
,
000000
001000
100001
000000
010000
001000
000010
001000
,
000000
000000
100000
100000
000001
000001
100000
000000
,
001000
000000
100001
000000
000100
100000
000100
000001
,
100000
101000
001000
001001
000001
000110
100100
101000
,
001000
001000
010001
000000
000100
101000
000001
100010
,
000000
000000
000001
000001
100000
100000
000001
000000
,
001000
000000
100001
000000
100100
000101
001001
100010
,
100100
100000
100000
100001
011000
100000
100000
100001
;

//---------------dance-single - Edit by silenttype01----------------
#NOTES:
     dance-single:
     Edit by silenttype01:
     Challenge:
     9:
     0.438,0.629,0.335,0.237,0.545:
0000
0000
0000
0000
,
0000
0000
0000
0000
,
0000
0000
0000
0000
,
0000
0000
0000
0000
,
0000
0000
0000
0000
,
0000
0000
0000
0000
,
0000
0000
0000
0000
,
0000
0000
0000
0000
,
0000
0000
0000
0000
,
0010
0000
0100
0000
0001
1000
0000
0100
1000
0000
0010
0000
0100
0000
0001
0000
,
2000
0000
0000
3001
0000
0000
0000
0000
0000
0000
0000
0000
0000
0000
0000
0000
,
0000
0000
0000
0000
0011
0000
0000
0000
0000
0000
1010
0000
0000
1001
0000
0000
,
0100
0010
0000
0010
0000
0010
0000
0010
1000
0000
0010
0000
0100
0000
0001
0000
,
0010
0000
0100
0000
1000
0001
0000
0100
0001
0000
1000
0000
0010
0000
0100
0000
,
0002
0000
0000
1003
0000
0000
0000
0000
0000
0000
0000
0000
0000
0000
0000
0000
,
0000
0000
0000
0000
0000
0000
1100
0000
0000
0000
0101
0000
0000
1010
0000
0000
,
0010
0001
0000
0100
0000
0020
0000
1030
0000
0000
0000
0000
0000
0000
0000
0000
,
1000
0000
0100
0000
1000
0010
0000
0100
0001
0000
0010
0000
0100
0000
1000
0000
,
0020
0000
0000
0130
0000
0000
0000
0000
0000
0000
0000
0000
0000
0000
0000
0000
,
0000
0000
0000
0000
0110
0000
0000
0000
0000
0000
1100
0000
0000
1001
0000
0000
,
0001
0010
0000
0010
0000
0010
0000
0110
0000
0010
0100
1000
0001
0100
0000
0000
,
0001
0000
1100
0000
0000
0000
0000
0000
0001
0100
0001
0100
1000
0010
0000
0000
,
0000
0020
0000
0032
0000
0203
0000
0300
,
0000
0000
0000
0000
0110
0000
0000
0000
1000
0100
1000
0100
0001
0010
0000
0000
,
0001
0100
0000
0100
0000
0100
0000
0100
0000
0010
0000
0001
0100
1000
0100
0001
,
0010
0000
0100
0000
1001
0000
0000
0000
0001
0010
0001
0010
0100
1000
0000
0000
,
0000
0020
0000
2030
0000
3200
0000
0300
,
0000
0000
0000
0000
1001
0000
0000
0000
1000
0001
1000
0001
1000
0001
0000
0000
,
0010
0100
1000
0100
0010
0100
1000
0100
0010
0100
1000
0100
0010
0100
1000
0001
,
0100
0000
0001
0000
1000
0100
0000
1000
0010
0000
0100
0000
0001
0000
1000
0000
,
0200
0000
0000
0310
0000
0000
0000
0000
0000
0000
0000
0000
0000
0000
0000
0000
,
0000
0000
0000
0000
0000
0000
1001
0000
0000
0000
1001
0000
0000
1001
0000
0000
,
0001
0010
0000
1000
0000
0200
0000
0301
0000
0000
0000
0000
0000
0000
0000
0000
,
1000
0000
0010
0000
0100
0001
0000
0010
0001
0000
1000
0000
0100
0000
0001
0000
,
0020
0000
0000
0130
0000
0000
0000
0000
0000
0000
0000
0000
0000
0000
0000
0000
,
0000
0000
0000
0000
1010
0000
0000
0000
0000
0000
1001
0000
0000
1001
0000
0000
,
0001
0100
0000
1000
0000
0100
0000
0110
0000
0010
1000
0001
0010
0100
0000
0000
,
0001
0000
1100
0000
0000
0000
0000
0000
0100
1000
0100
1000
0010
0001
0000
0000
,
0000
0020
0000
0032
0000
0203
0000
0300
,
0000
0000
0000
0000
0110
0000
0000
0000
0001
0100
0001
0100
1000
0010
0000
0000
,
1000
0001
0000
0010
0000
0001
0000
0100
0000
0001
0000
1000
0100
0010
0100
1000
,
0010
0000
0100
0000
1001
0000
0000
0000
0001
0010
0001
0010
1000
0100
0000
0000
,
0000
2200
3300
0202
0303
2002
0000
3003
,
0000
0000
0000
0000
0110
0000
0000
0000
1000
0100
1000
0100
0001
0010
0000
0000
,
1000
0001
0000
0110
0000
1100
0000
0101
0000
1000
0100
0010
0001
0010
0000
0000
;

//---------------dance-double - Edit by silenttype01----------------
#NOTES:
     dance-double:
     Edit by silenttype01:
     Challenge:
     9:
     0.535,0.629,0.097,0.248,0.534: // measure 1
00000000
00000000
00000000
00000000
,  // measure 2
00000000
00000000
00000000
00000000
,  // measure 3
00000000
00000000
00000000
00000000
,  // measure 4
00000000
00000000
00000000
00000000
,  // measure 5
00000000
00000000
00000000
00000000
,  // measure 6
00000010
00000000
00000000
00000000
00000100
00000000
00000000
00001000
00000000
00000001
00000100
00000000
00000010
00000000
00000000
00000000
,  // measure 7
00001000
00000100
00000000
00000000
00000010
00000000
00000000
00000001
00000000
00001000
00000010
00000000
00000100
00000000
00000000
00000000
,  // measure 8
00000010
00000000
00000000
00000000
00010000
00000000
00000000
00100000
00000000
01000000
00010000
00000000
00100000
00000000
00000000
00000000
,  // measure 9
01000000
00000000
00000000
00000000
10000000
00010000
00000000
00010000
00000000
00100000
01000000
00000000
00100000
00000000
01000000
00100000
,  // measure 10
01000000
00000000
00000000
00000000
00100000
00000000
00000000
00010000
00000000
10000000
00100000
00000000
01000000
00000000
00000000
00000000
,  // measure 11
00010000
00100000
00000000
00000000
01000000
00000000
00000000
10000000
00000000
00010000
01000000
00000000
00100000
00000000
00000000
00000000
,  // measure 12
01000000
00000000
00000000
00000000
00001000
00000000
00000000
00000100
00000000
00000010
00001000
00000000
00000100
00000000
00000000
00000000
,  // measure 13
00000010
00000000
00000001
00000000
00000000
00000000
00000001
00000000
00000000
00000000
00000000
00000000
00000000
00000000
00000010
00000100
00000010
00000000
00000000
00000000
00000001
00000000
00001000
00000000
00000001
00000000
00000000
00000000
00001000
00000000
00000000
00000000
,  // measure 14
00000010
00000000
00000100
00000000
00000001
00000000
00000000
00000001
00000000
00000010
00000100
00000000
00000010
00000000
00001000
00000000
,  // measure 15
00000010
00000001
00000000
00000000
00000010
00000000
00000000
00000010
00000000
00001000
00010000
00000000
00100000
00000000
10000000
00000000
,  // measure 16
00100000
00000000
01000000
00000000
00010000
00000000
00000000
00010000
00000000
00100000
01000000
00000000
10000000
00000000
01000000
00000000
,  // measure 17
00100000
00000000
00001000
00000000
00010000
00001000
00000000
00001000
00000000
00010000
00001000
00000000
00100000
00000000
00010000
01000000
,  // measure 18
00010000
00000000
00100000
00000000
01000000
00000000
00000000
01000000
00000000
10000000
01000000
00000000
00010000
00000000
01000000
00000000
,  // measure 19
00010000
00001000
00000000
00000000
00000010
00000000
00000000
00000010
00000000
00001000
00010000
00000000
00001000
00000000
00000010
00000000
,  // measure 20
00000001
00000000
00000100
00000000
00000010
00000000
00000000
00000010
00000000
00000100
00001000
00000000
00000100
00000000
00000001
00000000
,  // measure 21
00001001
00000000
00000000
00000000
00000000
00000000
00000000
00000000
00000000
00000000
00000000
00000000
00000000
00000000
00001000
00010000
00001000
00000000
00000000
00000000
00010000
00000000
10000000
00000000
00010000
00000000
00000000
00000000
00100000
00000000
00000000
00000000
,  // measure 22
10010000
00000000
00000000
00000000
00010000
00000000
00000000
10000000
00000000
00000000
01000000
00000000
01100000
00000000
00000000
00000000
,  // measure 23
00101000
00000000
00000000
00000000
00010000
00000000
00000000
01000000
00000000
10000000
00010000
00000000
01000000
00000000
00000000
00000000
,  // measure 24
00100000
10000000
00100000
10000000
00100000
00000000
00000000
01000000
00000000
00000000
00001000
00000000
00010000
00000000
00000000
00000000
,  // measure 25
00011000
00000000
00000000
00000000
00000100
00000010
00000000
00000010
00000000
00000010
00001000
00000000
00000001
00000000
00001000
00000100
,  // measure 26
00010000
00001000
00010000
00001000
00010000
00000000
00000000
00000100
00000000
00000000
00000001
00000000
00000101
00000000
00000000
00000000
,  // measure 27
00000001
00000100
00000000
00000000
00001100
00000000
00000000
00000010
00000000
00000001
00000100
00000000
00001000
00000000
00000000
00000000
,  // measure 28
00000100
00000000
00000000
00000000
00001000
00000000
00000000
01000000
00000000
00000000
10000000
00000000
01000000
00010000
00000000
00000000
,  // measure 29
00000000
00000000
00000000
MMMMMMMM
,  // measure 30
01000000
00000000
00100000
00000000
10000000
00000000
00010000
10000000
00000000
01000000
00100000
00000000
01000000
00000000
00010000
00000000
,  // measure 31
01000000
10000000
00000000
00000000
01000000
00000000
00000000
01000000
00000000
00010000
00001000
00000000
00000100
00000000
00000001
00000000
,  // measure 32
00000100
00000000
00000010
00000000
00001000
00000000
00000001
00001000
00000000
00000100
00000010
00000000
00000001
00000000
00000010
00000000
,  // measure 33
00000100
00000000
00010000
00000000
00001000
00010000
00000000
00010000
00000000
00001000
00010000
00000000
00000100
00000000
00001000
00000010
,  // measure 34
00001000
00000000
00000100
00000000
00000010
00000000
00000100
00000010
00000000
00000001
00000010
00000000
00001000
00000000
00000010
00000000
,  // measure 35
00001000
00010000
00000000
00000000
01000000
00000000
10000000
01000000
00000000
00010000
00001000
00000000
00010000
00000000
01000000
00000000
,  // measure 36
10000000
00000000
00100000
00000000
01000000
00000000
00001000
01000000
00000000
00100000
00010000
00000000
00100000
00000000
10000000
00000000
,  // measure 37
10010000
00000000
00000000
00000000
00000000
00000000
00000000
00000000
00000000
00000000
00000000
00000000
00000000
00000000
00010000
00001000
00010000
00000000
00000000
00000000
00001000
00000000
00000001
00000000
00001000
00000000
00000000
00000000
00000100
00000000
00000000
00000000
,  // measure 38
00001001
00002000
00003001
00000020
00000130
00020000
00030100
00002000
,  // measure 39
00003010
00000002
00001003
00000200
00000301
00000020
00000130
00002000
,  // measure 40
00003100
00000001
00000100
00000001
00000100
00000000
00000020
00000000
00000031
00000000
00000200
00000000
00001300
00000000
00020000
00000000
,  // measure 41
00031000
00000000
00020000
00000000
00130000
01000000
00000000
01000000
00000000
01000000
00020000
00000000
10030000
00000000
00010000
00100000
,  // measure 42
00001000
00010000
00001000
00010000
00001000
00000000
00200000
00000000
10300000
00000000
00020000
00000000
01030000
00000000
20000000
00000000
,  // measure 43
31000000
00020000
00031000
00000200
00000301
00002000
00003100
00020000
,  // measure 44
00031000
00000000
00000200
00000000
00000301
00000000
00000020
00000000
00000130
00000000
00002000
00000000
00003010
00001000
00000000
00000000
,  // measure 45
00000001
00000100
00000000
00000001
00000000
00000100
00000000
00000001
00000000
00000100
00001000
00010000
00001000
00000100
00000000
00000000
;
