#TITLE:MAXX UNLIMITED;
#SUBTITLE:;
#ARTIST:Z;
#TITLETRANSLIT:;
#SUBTITLETRANSLIT:;
#ARTISTTRANSLIT:;
#CREDIT:;
#BANNER:MAXX UNLIMITED.png;
#BACKGROUND:MAXX UNLIMITED-bg.png;
#LYRICSPATH:;
#CDTITLE:./CDTITLES/DDRMAX2 -Dance Dance Revolution 7thMIX-.PNG;
#MUSIC:MAXX UNLIMITED.mp3;
#OFFSET:-0.064;
#SAMPLESTART:12.820;
#SAMPLELENGTH:15.000;
#SELECTABLE:YES;
#DISPLAYBPM:140.000:320.000;
#BPMS:0.000=300.000,160.000=279.880,192.000=300.000,224.000=150.000,240.000=300.000,272.000=140.080,280.000=125.000,281.000=48.390,282.000=320.020;
#STOPS:282.000=1.500
;
#BGCHANGES:;

//---------------dance-single - ----------------
#NOTES:
     dance-single:
     :
     Easy:
     6:
     0.579,1.000,1.000,0.764,0.000:
0000
0000
0000
0000
,
0000
0000
0000
0000
,
0000
0000
0000
0000
,
0000
0000
0000
0000
,
0000
0000
0000
0000
,
0000
0000
0000
0000
,
0000
0000
0000
0000
,
0000
0000
0000
0000
,
1000
0000
1000
0000
,
0001
0000
0001
0000
,
0010
0000
0010
0000
,
0100
0000
0100
0100
,
1000
0000
0001
0000
,
0010
0000
0100
0000
,
0100
0000
0010
0000
,
1000
0001
1000
0001
,
0010
0000
1001
0000
,
0010
0000
1001
0000
,
0010
0000
1000
0001
,
2002
0000
0000
3003
,
0100
0000
1001
0000
,
0100
0000
1001
0000
,
0100
0000
0001
1000
,
2002
0000
0000
3003
,
0010
0000
0011
0000
,
0010
0000
0011
0000
,
0010
0000
0011
0000
,
0010
0001
0010
0001
,
0100
0000
1100
0000
,
0100
0000
1100
0000
,
0100
0000
1100
0000
,
0100
1000
0100
1000
,
0010
0000
0011
0000
,
0100
0000
1100
0000
,
0010
0000
1001
0000
,
0010
0100
0010
0100
,
0010
0000
1100
0000
,
0100
0000
0011
0000
,
0100
0000
0110
0000
,
0010
1000
0001
0100
,
2002
0000
0000
0000
,
0000
0000
0000
3000
,
0200
0000
0300
0020
,
0000
0030
2000
3003
,
2002
0000
0000
0000
,
0000
0000
0000
0003
,
0200
0000
0300
0020
,
0000
0030
0002
3003
,
2200
0000
0000
3300
,
2002
0000
0000
3003
,
0202
0000
0300
2000
,
0000
3000
0020
0033
,
0022
0000
0000
0033
,
2002
0000
0000
3003
,
2200
0000
0300
0002
,
0000
0003
0020
3030
,
0202
0300
0020
0030
,
0200
0300
0020
0033
,
2200
0300
0020
0030
,
0200
0300
0020
3030
,
0202
0300
0020
0030
,
0200
0300
0020
0033
,
2200
0300
0020
0030
,
0200
0300
0020
3030
,
1100
0000
0101
0000
,
1100
0000
0101
0000
,
0010
1000
1010
0000
,
0001
0100
0101
0000
,
2200
3300
0202
0303
,
0022
0033
2020
3030
,
2002
0000
3003
0100
,
0000
1001
0000
0010
,
0000
1001
0000
0100
,
0000
1001
0000
0010
,
0010
1001
0000
0100
,
0000
0100
0000
0010
,
0000
0010
0000
0100
,
0000
0100
0000
0001
,
0001
1000
1000
0110
,
0000
1001
0000
0110
,
0000
1001
0000
0110
,
0000
1001
0000
0110
,
0110
1001
0000
1100
,
0000
0101
0000
1100
,
0000
0101
0000
1100
,
0000
0101
0000
1100
,
1001
0101
1001
0010
,
0000
1100
0000
0000
0000
0000
1000
0000
,
0000
0101
0000
0000
0000
0000
0010
0000
,
0000
1100
0000
0000
0000
0000
2002
0000
,
0000
0000
3003
0010
,
0000
1100
0000
0000
0000
0000
1000
0000
,
0000
0101
0000
0000
0000
0000
0010
0000
,
0000
1100
0000
0000
0000
0000
0220
0000
,
0330
2002
3003
1100
,
0000
1100
0000
0000
0000
0000
0011
0000
,
0000
0011
0000
0000
0000
0000
1001
0000
,
0000
1001
0000
0000
1001
0000
0110
0000
,
2002
0000
3003
1010
,
0000
1010
0000
0000
0000
0000
0101
0000
,
0000
0101
0000
0000
0000
0000
0110
0000
,
0000
0110
0000
0000
0110
0000
1001
0000
,
0220
0000
0330
1100
,
0000
1100
0000
0010
,
0001
0010
0000
0011
,
0000
0011
0000
0100
,
1000
0100
1000
0110
,
0000
1001
0000
1000
,
0001
1000
0001
0010
,
0000
2002
0000
0000
3003
0000
0100
0000
,
0000
2002
0000
0000
3003
0000
0110
0000
,
0000
1001
0000
0110
,
0000
1001
1001
2002
,
0000
0000
0000
0000
,
0000
0000
3003
0000
;

//---------------dance-single - ----------------
#NOTES:
     dance-single:
     :
     Medium:
     8:
     0.731,0.921,1.000,0.754,0.060:
0000
0000
0000
0000
,
0000
0000
0000
0000
,
0000
0000
0000
0000
,
0000
0000
0000
0000
,
0000
0000
0000
0000
,
0000
0000
0000
0000
,
0000
0000
0000
0000
,
0000
0000
0000
0000
,
0010
0000
0000
0202
0000
0000
0303
0000
,
0010
0000
0000
2200
0000
0000
3300
0000
,
0100
0000
0000
0022
0000
0000
0033
0000
,
0100
0000
0000
2200
0000
0000
3300
0000
,
0010
0000
0000
2002
0000
0000
3003
0000
,
0100
0000
0000
1001
0000
0000
0100
0000
,
0110
0000
0000
2002
0000
0000
3003
0000
,
0110
0000
0000
1001
0000
0000
0110
0000
,
0010
1000
0010
0001
,
0010
1000
0010
0001
,
0010
1000
0100
0010
,
2002
0000
0000
3003
,
0100
0001
0000
1000
,
0100
0001
0100
1000
,
0100
0010
1000
0001
,
2002
0000
0000
3003
,
0010
1000
0200
0000
,
0310
0001
0200
0000
,
0310
1000
0200
0300
,
2100
3100
0102
0103
,
0010
1000
0010
0000
,
0100
0001
0100
0000
,
0010
1000
0010
0000
,
0120
0130
2001
3001
,
0010
0001
1000
0000
,
0010
1000
0001
0000
,
0100
0001
1000
0000
,
1200
1300
0021
0031
,
0011
2100
0200
3300
,
1100
0012
0020
0033
,
1001
0120
0200
0330
,
1001
1100
1001
0101
,
0020
0000
0000
0000
0000
2000
0000
0000
,
0000
0000
0000
3000
0200
0000
0330
0000
,
0200
0000
0000
0000
0000
0002
0000
0000
,
0000
0000
0000
0003
0020
0000
0330
0000
,
2000
0000
0000
3200
,
0000
0000
0302
0000
,
0023
0000
0000
2030
,
0000
0000
0002
3003
,
0010
0001
0010
0001
,
1000
0100
1000
0100
,
0010
0001
1000
0100
,
0010
0002
2000
3003
,
0010
1000
0010
1000
,
0001
0100
0001
0100
,
0010
1000
0001
0100
,
0010
2000
0002
3003
,
0000
0000
0210
0000
0000
0010
0000
0000
0010
0000
0000
0010
0000
0000
0302
0000
,
0000
0000
0100
0000
0000
0100
0000
0000
0100
0000
0003
0100
0000
0000
2000
0000
,
0000
0000
0001
0000
0000
0001
0000
0000
0001
0000
3000
0001
0000
0000
0020
0000
,
0000
0000
1000
0000
0000
1000
0000
0000
1000
0000
0030
1000
0000
0000
1000
0000
,
1000
0010
1010
0000
,
0001
0010
0011
0000
,
1000
0010
0101
0000
,
0001
0010
1100
0000
,
0100
1000
0011
0000
,
0100
0001
1010
0000
,
0100
0010
1001
0000
,
1100
1001
0101
1001
,
0000
0000
2010
0000
0000
0100
0000
0000
0010
0000
0000
0001
0000
0000
3100
0000
,
0000
0000
0012
0000
0000
0100
0000
0000
0010
0000
0000
1000
0000
0000
0103
0000
,
2002
0000
3003
0010
,
1000
0020
0000
0130
,
0001
0200
0000
0310
,
1000
0200
0000
0310
,
0001
1000
0100
0010
,
0001
0020
0000
0130
,
1000
0200
0000
0310
,
0001
0200
0000
0310
,
1000
0001
0100
0010
,
1000
0200
0000
0310
,
0001
0200
0000
0310
,
1000
0100
1000
0010
,
1000
0100
0010
0001
,
0100
0020
0000
1030
,
0100
0020
0000
0031
,
0100
0010
1000
0100
,
0010
0001
0100
1010
,
0000
0101
0000
0000
1001
0000
0011
0000
,
0000
1100
0000
0000
1001
0000
0110
0000
,
0000
1001
0000
0000
0110
0000
1100
0000
,
0202
0000
0303
1010
,
0000
1100
0000
0000
1001
0000
0011
0000
,
0000
0101
0000
0000
1001
0000
0110
0000
,
0000
1001
0000
0000
0110
0000
1100
0000
,
1001
0101
1001
1010
,
0000
0011
0000
0000
1001
0000
0101
0000
,
0000
1100
0000
0000
1001
0000
0011
0000
,
0000
1010
0000
0000
1001
0000
0110
0000
,
2002
0000
3003
0011
,
0000
0110
0000
0000
1100
0000
1010
0000
,
0000
0110
0000
0000
0101
0000
1010
0000
,
0000
0011
0000
0000
0110
0000
1100
0000
,
0202
0000
0303
0010
,
0001
0200
0000
0310
,
1000
0000
0100
0010
0001
0000
0100
0000
,
0010
2000
0000
3100
,
0010
0000
0001
0100
0001
0000
1000
0000
,
1000
0001
0001
0110
,
0110
0000
1000
0001
1000
0000
1100
0000
,
0000
0011
0000
0000
1001
0000
0101
0000
,
0000
1010
0000
0000
1001
0000
0110
0000
,
0000
0001
1000
0000
0000
1000
0001
0000
,
0000
0001
1000
0000
0000
1001
2002
0000
,
0000
0000
0000
0000
,
0000
0000
3003
0000
;

//---------------dance-single - ----------------
#NOTES:
     dance-single:
     :
     Hard:
     10:
     0.946,1.000,0.452,0.593,0.080:
0000
0000
0000
0000
,
0000
0000
0000
0000
,
0000
0000
0000
0000
,
0000
0000
0000
0000
,
0000
0000
0000
0000
,
0000
0000
0000
0000
,
0000
0000
0000
0000
,
0000
0000
0000
0000
,
1000
0010
1000
0010
,
1000
0000
0010
0000
0100
0001
0010
0000
,
0001
0010
0001
0010
,
0001
0000
0010
0000
0100
1000
0010
1000
,
0010
1000
0001
0100
,
0010
0000
1000
0000
0001
1000
0100
0000
,
0010
0001
1000
0100
,
0010
0001
0010
0001
1000
0100
1000
0100
,
0010
0000
0010
0002
0000
1003
0000
1000
,
0010
0000
0010
2000
0000
3001
0000
0001
,
0010
0000
0001
2000
0000
3100
0000
0100
,
0010
0001
0000
0100
0000
0010
0000
1000
,
0010
0000
0010
2000
0000
3001
0000
0001
,
0010
0000
0010
0002
0000
1003
0000
1000
,
0010
0000
1000
0002
0000
0103
0000
0100
,
0010
1000
0000
0100
0000
0010
0000
0001
,
0100
0000
0100
0002
0000
1003
0000
1000
,
0100
0000
0100
2000
0000
3001
0000
0001
,
1000
0000
1000
0002
0000
0103
0000
0100
,
0101
1001
1100
1001
,
0010
0000
0100
2000
0000
3001
0000
0001
,
0100
0000
0010
2000
0000
3001
0000
0001
,
0010
0000
0001
2000
0000
3100
0000
0100
,
1100
1001
0101
1001
,
1000
0010
1000
0020
0000
1030
0000
1000
,
0001
0010
0001
0020
0000
0031
0000
0001
,
1000
0001
1000
0002
0000
0103
0000
0100
,
0110
1100
0110
0101
,
0001
0100
0001
2000
0000
3001
0000
0001
,
1000
0100
1000
0002
0000
1003
0000
1000
,
0010
0100
0010
0200
0000
0301
0000
0001
,
1000
0010
0100
0001
1000
0010
0100
0001
,
2000
0001
3000
0002
0100
0003
0200
0010
,
0300
0020
1000
0000
1000
0000
1030
0000
,
0002
1000
0003
2000
0010
3000
0020
0100
,
0030
0200
0001
0000
0001
0000
0301
0000
,
0020
0001
0030
0002
0100
0003
0200
0010
,
0300
0020
2000
0030
0001
0000
3001
0000
,
2000
0010
3000
0020
0100
0030
0200
0001
,
0300
0001
1000
0000
0010
1000
0001
0100
,
0010
1000
0010
0000
0100
0001
0100
0000
,
0010
1000
0010
0000
0100
0001
0100
0000
,
0010
1000
0010
0000
0100
0001
0100
0000
,
0010
1000
0010
0000
0100
0001
0100
0000
,
0010
1000
0100
0000
0010
0001
0100
0000
,
0010
1000
0100
0000
0010
0001
0100
0000
,
0010
1000
0100
0000
0010
0001
0100
0010
,
1000
0100
0010
0001
1000
0010
0100
0001
,
0000
0000
0200
0000
0000
0002
0300
0000
0020
0003
0000
0200
0030
0000
2000
0300
,
0000
0000
3020
0000
0000
2000
0030
0000
0002
3000
0000
0200
0003
0000
0010
0300
,
0010
0000
2000
0000
0000
0200
3000
0000
0020
0300
0000
0002
0030
0000
0200
0003
,
0000
0000
0320
0000
0000
2000
0030
0000
0200
3000
0000
0010
0300
0000
0001
0000
,
0100
0000
0010
1000
0000
0010
0100
0000
,
0001
0100
0000
0001
0010
0000
0011
0000
,
0100
0000
0010
0001
0000
0010
0100
0000
,
1000
0100
0000
1000
0010
0000
1010
0000
,
0100
0000
0001
0100
0000
0010
1000
0000
,
0001
0100
0000
0010
1000
0000
1010
0000
,
0010
1000
0010
0000
0100
0001
0100
0000
,
0010
1000
0100
0010
0001
0100
0010
1000
,
0000
0000
0001
1000
0000
1000
0100
0000
0100
0010
0000
0010
0001
0000
1000
0000
,
0001
0000
0010
0001
0000
0001
0100
0000
0100
0010
0000
0010
1000
0000
0001
0000
,
2002
0000
0000
0000
0000
0000
0000
0000
0000
0000
0000
0000
0000
0000
0000
0000
0000
0000
0000
0000
0000
0000
0000
0000
0000
0000
0000
0000
0000
0000
0000
0000
0000
3003
0000
0000
0000
0000
0000
0000
0000
0000
0000
0000
0000
0000
0000
0000
1000
0000
0000
0000
0000
0000
0000
0000
0000
0000
0000
0000
0000
0000
0000
0000
,
0010
0100
0001
1000
,
0100
0010
0001
1000
,
0010
0100
0001
0010
,
0001
0000
0000
1000
0000
1000
0010
0000
,
0100
0000
0001
0100
0001
0000
0010
0000
,
0100
0000
1000
0100
1000
0000
0001
0000
,
1000
0000
0010
0100
0010
0000
0100
0000
,
0001
1000
0000
1000
0001
0000
0100
0000
,
0001
0000
1000
0100
1000
0000
0100
0000
,
1000
0000
0001
0100
0001
0000
0100
0000
,
0010
0000
1000
0001
1000
0000
0100
0000
,
0010
0000
0100
0000
0001
1000
0100
0000
,
0010
0000
0100
0000
1000
0001
0010
0000
,
1001
0000
0100
0000
1001
0000
0010
0001
,
0010
0000
0100
1000
0100
0000
0010
0001
,
0100
0010
1000
0100
0010
0001
0011
0000
,
0000
0101
0000
0000
1001
0000
1010
0000
,
0000
1100
0000
0000
1001
0000
0011
0000
,
0001
0100
0000
0000
0001
0100
0010
1000
,
2002
0000
3003
1010
,
1000
0100
0000
0000
1001
0000
0011
0000
,
0001
0100
0000
0000
1001
0000
0101
0000
,
0010
1000
0000
0000
1001
0000
1100
0000
,
1001
0000
0101
0000
1001
0000
0010
0001
,
0010
0001
0000
0000
1000
0000
0010
1000
,
0010
1000
0000
0000
0001
0000
0010
0001
,
0000
1000
0100
0000
1001
0000
0010
1000
,
0001
0000
0110
0000
0110
0000
0010
0001
,
1000
0100
0000
0000
1000
0000
0010
1000
,
0001
0100
0000
0000
0001
0000
1000
0100
,
0000
0010
0001
0000
1001
0000
0010
0001
,
1000
0000
0110
0000
0110
0000
0010
1000
,
0100
0000
0010
0001
0100
0000
0010
1000
,
0100
0010
0001
0100
0010
0000
0100
0001
,
0010
0000
0100
1000
0010
0000
0100
0001
,
1000
0000
1000
0100
0010
0001
0100
0010
,
1000
0000
0100
0010
0001
0000
0100
0010
,
1000
0100
0010
0001
0100
0000
0100
0000
,
0010
0100
0000
0000
1001
0000
0100
0000
,
0010
0100
0000
0000
1000
0001
0210
0000
,
0300
0002
1000
0003
0001
1000
0010
0100
,
0001
0010
0100
1000
0001
0100
2002
0000
,
0000
0000
0000
0000
,
0000
0000
3003
0000
;

//---------------dance-double - ----------------
#NOTES:
     dance-double:
     :
     Easy:
     6:
     0.392,0.575,0.382,0.854,0.000:
00000000
00000000
00000000
00000000
,
00000000
00000000
00000000
00000000
,
00000000
00000000
00000000
00000000
,
00000000
00000000
00000000
00000000
,
00000000
00000000
00000000
00000000
,
00000000
00000000
00000000
00000000
,
00000000
00000000
00000000
00000000
,
00000000
00000000
00000000
00000000
,
00000100
00000000
00000010
00000000
,
00001000
00000000
00000001
00000000
,
00000100
00000000
00001000
00000000
,
00010000
00000000
00100000
00000000
,
10000000
00000000
01000000
00000000
,
00010000
00000000
00001000
00000000
,
00000100
00000000
00000001
00000000
,
00000010
00000000
00000100
00000000
,
00002000
00000000
00003000
00000000
,
00000020
00000000
00000030
00000000
,
00020000
00000000
00030000
00000000
,
00000100
00000000
00000100
00000000
,
00020000
00000000
00030000
00000000
,
00002000
00000000
00003000
00000000
,
00200000
00000000
00300000
00000000
,
00010000
00000000
00010000
00000000
,
02000000
00000000
03000000
00000000
,
00200000
00000000
00300000
00000000
,
20000000
00000000
30000000
00000000
,
00010000
00000000
00010000
00000000
,
00200000
00000000
00300000
00000000
,
20000000
00000000
30000000
00000000
,
02000000
00000000
03000000
00000000
,
00010000
00000000
00010000
00000000
,
00002000
00000000
00003000
00000000
,
00000200
00000000
00000300
00000000
,
00000002
00000000
00000003
00000000
,
00001000
00000000
00001000
00000000
,
00000002
00000000
00000003
00000000
,
00000200
00000000
00000300
00000000
,
00002000
00000000
00003000
00000000
,
00010000
00000000
00010000
00000000
,
00020000
00000000
00000000
00000000
,
00000000
00000000
00000000
00000000
,
00002000
00000000
00003000
00000020
,
00000000
00000030
00000200
00030300
,
00002000
00000000
00000000
00000000
,
00000000
00000000
00000000
00000000
,
00020000
00000000
00030000
00200000
,
00000000
00300000
02000000
03003000
,
00200000
00000000
00000000
00000000
,
20300000
00000000
00000000
00000000
,
32000000
00000000
00000000
00000000
,
03020000
00000000
00000000
00000000
,
00032000
00000000
00000000
00000000
,
00003200
00000000
00000000
00000000
,
00000302
00000000
00000000
00000000
,
00001003
00000000
00001000
00000000
,
00001001
00000000
00000000
00000000
,
00011000
00000000
00000000
00000000
,
10010000
00000000
00000000
00000000
,
00011000
00000000
00000000
00000000
,
00001010
00000000
00000000
00000000
,
00011000
00000000
00000000
00000000
,
01010000
00000000
00000000
00000000
,
00011000
00000000
00000000
00000000
,
00001010
00000000
00011000
00000000
,
01010000
00000000
00011000
00000000
,
00001100
00000000
00011000
00000000
,
00110000
00000000
00011000
00000000
,
10010000
00000000
00000000
00000000
,
00001001
00000000
00000000
00000000
,
00022000
00000000
00033000
00000020
,
00000000
00000000
00000030
00000002
,
00000000
00000000
00000003
00000200
,
00000000
00000000
00000300
00000010
,
00000000
00000010
00000000
00000200
,
00000000
00000000
00000300
00002000
,
00000000
00000000
00003000
00020000
,
00000000
00000000
00030000
00001000
,
00000000
00001000
00000000
00020000
,
00030000
00200000
00300000
20000000
,
30000000
02000000
03000000
00020000
,
00030000
00002000
00003000
00000010
,
00000001
00000010
00000000
00000002
,
00000003
00000200
00000300
00000020
,
00000030
00020000
00030000
00002000
,
00003000
02000000
03000000
00100000
,
10000000
00100000
00000000
02020000
,
00000000
03030000
00000000
20020000
,
00000000
30030000
00000000
22000000
,
00000000
33000000
00000000
00100000
,
00001000
00000000
00000000
00002200
,
00000000
00003300
00000000
00002002
,
00000000
00003003
00000000
00000202
,
00000000
00000303
00000000
00000010
,
00010000
00001000
00000000
02200000
,
00000000
03300000
00000000
00022000
,
00000000
00033000
00000000
00000220
,
00000000
00000330
00000000
00010000
,
00001000
00000000
00000000
20020000
,
00000000
30030000
00000000
00022000
,
00000000
00033000
00000000
00002002
,
00000000
00003003
00000000
00020000
,
00002000
00033000
00000000
00000100
,
00000000
00000001
00000000
00000010
,
00000000
00001000
00000000
00010000
,
00000000
01000000
00000000
10000000
,
00000000
00100000
00000000
00010000
,
00000000
00001000
00000000
00000010
,
00000000
00000001
00000000
00002002
,
00000000
00003003
00000000
00000220
,
00000000
00000330
00000000
00001100
,
00000000
00011000
00000000
00110000
,
00000000
10010000
00000000
20020000
,
00000000
00000000
00000000
00000000
,
00000000
00000000
30030000
00000000
;

//---------------dance-double - ----------------
#NOTES:
     dance-double:
     :
     Medium:
     8:
     0.557,1.000,0.271,0.613,0.060:
00000000
00000000
00000000
00000000
,
00000000
00000000
00000000
00000000
,
00000000
00000000
00000000
00000000
,
00000000
00000000
00000000
00000000
,
00000000
00000000
00000000
00000000
,
00000000
00000000
00000000
00000000
,
00000000
00000000
00000000
00000000
,
00000000
00000000
00000000
00000000
,
00100000
10000000
01000000
00000000
,
01000000
00010000
00001000
00000000
,
00001000
00000010
00000001
00000000
,
00000001
00000100
00000010
00001000
,
00000010
00000001
00000100
00000000
,
00000100
00001000
00010000
00000000
,
00010000
01000000
10000000
00000000
,
10000000
01000000
00010000
00001000
,
00000010
00000002
00000003
00000000
,
00000100
00002000
00003000
00000000
,
00010000
00200000
00300000
00000000
,
10000000
00010000
00100000
01000000
,
20000000
00020000
30030000
00000000
,
00020000
00002000
00033000
00000000
,
00002000
00000002
00003003
00000000
,
00022000
00000000
00033000
00000000
,
00200000
02000000
03300000
00000000
,
00002000
00020000
00033000
00000000
,
00000020
00000200
00000330
00000000
,
00000001
00000100
00001000
00000100
,
00002000
00020000
00033000
00000000
,
00200000
20000000
30300000
00000000
,
02000000
00020000
03030000
00000000
,
00001000
00000100
00000001
00000010
,
00000001
00000000
00000100
00000000
00000000
00001000
00000000
00000000
,
00000100
00000000
00001000
00000000
00000000
00010000
00000000
00000000
,
00001000
00000000
00010000
00000000
00000000
01000000
00000000
00000000
,
10000000
00100000
01000000
00010000
,
10000000
00000000
01000000
00000000
00000000
00010000
00000000
00000000
,
00010000
00000000
00001000
00000000
00000000
00000100
00000000
00000000
,
00000100
00000000
00000001
00000000
00000000
00000010
00000000
00000000
,
00000100
00001000
00000100
00010000
,
00022000
00030000
00000000
00000200
,
00000300
00000000
00020000
00033000
,
00022000
00003000
00000000
02000000
,
03000000
00000000
00002000
00033000
,
00022000
00030000
00000000
00000020
,
00000030
00000000
00020000
00033000
,
00022000
00003000
00000000
00200000
,
00300000
00000000
00002000
00033000
,
00100000
10000000
01000000
00000000
,
00010000
00001000
00000010
00000000
,
00000001
00000100
00001000
00000000
,
00010000
00100000
10000000
01000000
,
00100000
01000000
10000000
00000000
,
01000000
00010000
00001000
00000000
,
00000010
00000100
00001000
00000000
,
00000001
00000100
00001000
00010000
,
00000000
00000000
00020000
00000000
00000000
00200000
00030000
00000000
00020000
00300000
00000000
00002000
00030000
00000000
00000020
00003000
,
00000000
00000000
00002030
00000000
00000000
00020000
00003000
00000000
02000000
00030000
00000000
00020000
03000000
00000000
00002000
00030000
,
00000000
00000000
00003200
00000000
00000000
00002000
00000300
00000000
00020000
00003000
00000000
00200000
00030000
00000000
20000000
00300000
,
00000000
00000000
32000000
00000000
00000000
00020000
03000000
00000000
00002000
00030000
00000000
00000010
00003000
00000000
00000001
00000000
,
00000100
00000000
00000010
00000000
,
00010000
00000000
00001000
00000000
,
00100000
00000000
01000000
00000000
,
00010000
00000000
00001000
00000000
,
00000010
00000000
00000001
00000000
00000000
00000100
00000000
00000000
,
00001000
00000000
00010000
00000000
00000000
01000000
00000000
00000000
,
10000000
01000000
00010000
00000000
,
00001000
00000000
00001001
00000000
,
00000000
00000000
00000100
00000000
00000000
00000010
00000000
00000000
00001000
00000000
00000000
00000001
00000000
00000000
00000010
00000000
,
00000000
00000000
00000001
00000000
00000000
00000100
00000000
00000000
00001000
00000000
00000000
00000100
00000000
00000000
00001000
00000000
,
00022000
00000000
00033000
10000000
,
01000000
00100000
00000000
00100000
,
01000000
00010000
00000000
00010000
,
00001000
00000010
00000000
00000010
,
00000100
00001000
00000001
00000100
,
00000010
00001000
00000000
00000100
,
00000010
00000001
00000000
00000100
,
00001000
00010000
00000000
00100000
,
10000000
01000000
00100000
00001000
,
00010000
01000000
00000000
00010000
,
00001000
00000100
00000000
00001000
,
00010000
00100000
00000000
00010000
,
00001000
00000010
00000100
00001000
,
00010000
00100000
00000000
00010000
,
00001000
00000100
00000000
00001000
,
00010000
00100000
10000000
01000000
,
00010000
00001000
00010000
00000010
,
00000000
00000101
00000000
00000000
00000000
00000000
00001000
00000000
,
00000000
00000011
00000000
00000000
00000000
00000000
00000100
00000000
,
00000000
00011000
00000000
00000000
00000000
00000000
00100000
00000000
,
10000000
00000000
00000000
01000000
,
00000000
00110000
00000000
00000000
00000000
00000000
10000000
00000000
,
00000000
01010000
00000000
00000000
00000000
00000000
00100000
00000000
,
00000000
00011000
00000000
00000000
00000000
00000000
00000010
00000000
,
00000001
00000100
00000001
00000100
,
00000000
00011000
00000000
00000000
00000000
00000000
00100000
00000000
,
00000000
11000000
00000000
00000000
00000000
00000000
01100000
00000000
,
00000000
00011000
00000000
00000000
00000110
00000000
00001000
00000000
,
00000101
00000000
00000000
00000010
,
00000000
00001100
00000000
00000000
00000000
00000000
00010000
00000000
,
00000000
00001010
00000000
00000000
00000000
00000000
00001001
00000000
,
00000000
00011000
00000000
00000000
10010000
00000000
00100000
00000000
,
01010000
00000000
00000000
00100000
,
10000000
01000000
00000000
01000000
,
00010000
00001000
00000010
00000010
,
00000001
00000100
00000000
00000100
,
00001000
00010000
01000000
10000000
,
01000000
00010000
00000000
00001000
,
00000010
00000001
00001000
00000010
,
00000000
00001001
00000000
00000000
00000000
00000000
00000100
00000000
,
00000000
00011000
00000000
00000000
00000000
00000000
00100000
00000000
,
00000000
10000000
00010000
00000000
00000000
00100000
00001000
00000000
,
00000000
00010000
00000100
00000000
00000000
00000020
00000002
00000000
,
00000000
00000000
00000000
00000000
,
00000000
00000000
00000033
00000000
;

//---------------dance-double - ----------------
#NOTES:
     dance-double:
     :
     Hard:
     10:
     0.793,1.000,0.271,0.251,0.080:
00000000
00000000
00000000
00000000
,
00000000
00000000
00000000
00000000
,
00000000
00000000
00000000
00000000
,
00000000
00000000
00000000
00000000
,
00000000
00000000
00000000
00000000
,
00000000
00000000
00000000
00000000
,
00000000
00000000
00000000
00000000
,
00000000
00000000
00000000
00000000
,
00100000
01000000
00010000
10000000
,
01000000
00010000
00001000
00000010
,
00000001
00001000
00000010
00000100
,
00001000
00010000
00100000
10010000
,
00010000
01000000
00001000
00010000
,
00001000
00000100
00001000
00010000
,
01000000
10000000
00100000
00010000
,
00001000
00000010
00000001
00000100
00000010
00001000
00000001
00000100
,
00001000
00000000
00010000
00100000
00000000
01000000
00000000
01000000
,
00100000
00000000
10000000
01000000
00000000
00010000
00000000
00010000
,
00001000
00000000
00000001
00000100
00000000
00000010
00000000
00000010
,
00001000
00000100
00000000
00010000
00000000
00001000
00000000
00100000
,
00010000
00000000
10000000
01000000
00000000
00100000
00000000
00100000
,
01000000
00000000
10000000
01000000
00000000
00010000
00000000
00010000
,
00001000
00000000
00010000
00000010
00000000
00000100
00000000
00000100
,
00000010
00010000
00000000
00001000
00000000
01000000
00000000
00100000
,
10000000
00000000
01000000
00100000
00000000
01000000
00000000
00010000
,
00001000
00000000
00000010
00000001
00000000
00001000
00000000
00000100
,
00000010
00000000
00000001
00000100
00000000
00000010
00000000
00000100
,
00000010
00010000
00001000
01000000
,
00100000
00000000
10000000
00010000
00000000
10000000
00000000
01000000
,
00010000
00000000
00001000
00000010
00000000
00000001
00000000
00001000
,
00000100
00000000
00000010
00000001
00000000
00000100
00000000
00001000
,
00100000
00010000
01000000
00010000
,
00100000
00000000
10000000
00020000
00000000
01000000
00000000
10030000
,
01000000
00000000
00010000
00002000
00000000
00000010
00000000
00003100
,
00000010
00000000
00000001
00000200
00000000
00000010
00000000
00000301
,
00000100
00001000
00010000
00100000
,
00010000
00000000
10000000
01000000
00000000
00010000
00000000
00010000
,
00001000
00000000
00000010
00000001
00000000
00000100
00000000
00000100
,
00001000
00000000
00010000
00100000
00000000
10000000
00000000
10000000
,
01000000
00100000
00010000
10000000
00100000
01000000
00010000
10000000
,
00100000
10000000
00000000
10000000
01000000
00000000
01000000
00010000
,
00000000
00010000
00000010
00000000
00001000
00000000
00000001
00000000
,
00000010
00000001
00000000
00000001
00000100
00000000
00000100
00001000
,
00000000
00001000
00010000
00000000
00100000
00000000
00010000
00000000
,
10000000
01000000
00000000
00010000
00001000
00000000
00000010
00000001
,
00000000
00000100
00001000
00000000
00010000
00000000
00100000
00000000
,
00010000
10000000
00000000
00100000
01000000
00000000
00001000
00010000
,
00000000
00000010
00000100
00000000
00000001
00000000
00001001
00000000
,
00000010
00000001
00000010
00000000
00000001
00000100
00000001
00000000
,
00000100
00001000
00000100
00000000
00001000
00010000
00001000
00000000
,
00010000
00100000
00010000
00000000
00100000
10000000
00100000
00000000
,
10000000
01000000
10000000
00000000
00010000
00100000
00010000
00000000
,
00001000
00010000
00000100
00000000
00010000
00000010
00001000
00000000
,
00000001
00001000
00000100
00000000
00000010
00000001
00000000
00000100
,
00000010
00010000
00001000
00000000
00001000
00100000
01000000
00000000
,
10000000
00100000
01000000
00010000
00100000
01000000
00010000
00001000
,
00000000
00000000
00020000
00000000
00000000
00200000
00030000
00000000
00020000
00300000
00000000
00002000
00030000
00000000
00000020
00003000
,
00000000
00000000
00002030
00000000
00000000
00020000
00003000
00000000
02000000
00030000
00000000
00020000
03000000
00000000
00002000
00030000
,
00000000
00000000
00003200
00000000
00000000
00002000
00000300
00000000
00020000
00003000
00000000
00200000
00030000
00000000
20000000
00300000
,
00000000
00000000
32000000
00000000
00000000
00020000
03000000
00000000
00002000
00030000
00000000
00000010
00003000
00000000
00000001
00000000
,
00000100
00000000
00001000
00000000
00000000
00010000
00000000
00000000
,
01000000
00000000
00000000
10000000
00000000
00000000
00100000
00000000
,
00010000
00000000
00001000
00000000
00000000
00000100
00000000
00000000
,
00000001
00000000
00000000
00000010
00000000
00000000
00001000
00000000
,
00010000
00000000
00100000
00000000
00000000
10000000
00000000
00000000
,
01000000
00000000
00000000
00010000
00000000
00000000
00001000
00000000
,
00000010
00000001
00000010
00000000
00000100
00001000
00000100
00000000
,
00000010
00000001
00000100
00001000
00000100
00001000
00010000
00100000
,
00000000
00000000
00010000
01000000
00000000
00100000
10000000
00000000
01000000
00010000
00000000
00001000
00000100
00000000
00000010
00000000
,
00001000
00000000
00000001
00000100
00000000
00001000
00010000
00000000
01000000
00100000
00000000
00010000
01000000
00000000
00001000
00000000
,
00022000
00000000
00033000
10000000
,
01000000
00100000
00010000
01000000
,
00100000
10000000
01000000
00010000
,
00001000
00000010
00000001
00000100
,
00000010
00000000
00000000
00001000
00000000
00001000
00000010
00000000
,
00001000
00000100
00000010
00000001
,
00000100
00001000
00010000
01000000
,
10000000
00100000
00010000
00001000
,
00000010
00000001
00000000
00000100
00000010
00000000
00001000
00000000
,
00000100
00000010
00000001
00000100
,
00001000
00010000
00100000
10000000
,
00100000
01000000
00001000
00010010
,
00000100
00000000
00000001
00000000
00001000
00000100
00000010
00000000
,
00000001
00000100
00001000
00010000
,
01000000
00000000
10000000
00000000
00100000
00000000
01000000
00010000
,
01000000
00000000
00001000
00010000
00001000
00000000
00000010
00000001
,
00000100
00000010
00001000
00000100
00000010
00000001
00001000
00000000
,
00000000
00000011
00000000
00000000
00000001
00000000
00001000
00000000
,
00000000
00011000
00000000
00000000
00010000
00000000
00100000
00000000
,
00000000
10010000
00000000
00000000
00100000
00001000
00010000
00001000
,
00000100
00000000
00000000
00000001
,
00000000
00001010
00000000
00000000
00000100
00000000
00010000
00000000
,
00000000
00110000
00000000
00000000
00010000
00000000
10000000
00000000
,
00000000
00110000
00000000
00000000
00001000
00000000
00000010
00000000
,
00000001
00000100
00000010
00001000
,
00000000
00000011
00000000
00000000
00000001
00000000
00000100
00000000
,
00000000
00001100
00000000
00000000
00010000
00000000
00110000
00000000
,
00000000
10010000
00000000
00000000
01010000
00000000
00100000
00000000
,
10000000
01000000
00100000
10000000
,
00000000
00110000
00000000
00000000
00001000
00000000
00000100
00000000
,
00000000
00001100
00000000
00000000
00000001
00000000
00001001
00000000
,
00000000
00001100
00000000
00000000
00011000
00000000
00010000
00001000
,
01000000
00000000
01010000
00000000
10010000
00000000
00100000
10000000
,
00100000
00000000
10000000
01000000
10000000
00000000
00100000
10000000
,
01000000
00100000
00001000
00010000
00001000
00000000
00000010
00000001
,
00000010
00000000
00000001
00000100
00000001
00000000
00000010
00000001
,
00000100
00000010
00010000
00001000
00010000
00000000
00100000
10000000
,
00100000
00000000
01000000
00010000
01000000
00000000
00010000
10000000
,
01000000
00010000
01000000
00010000
00001000
00000000
00000010
00000000
,
00000000
00000011
00000000
00000000
00001100
00000000
00011000
00000000
,
00000000
00110000
00000000
00000000
00010000
01000000
00100000
00000000
,
00000000
10000000
01000000
00000000
00000000
00010000
00001000
00000000
,
00000000
00000010
00000001
00000100
00000010
00010000
00022000
00000000
,
00000000
00000000
00000000
00000000
,
00000000
00000000
00033000
00000000
;

//---------------dance-single - ----------------
#NOTES:
     dance-single:
     :
     Beginner:
     3:
     0.149,0.227,0.100,0.000,0.000:
0000
0000
0000
0000
,
0000
0000
0000
0000
,
0000
0000
0000
0000
,
0000
0000
0000
0000
,
0000
0000
0000
0000
,
0000
0000
0000
0000
,
0000
0000
0000
0000
,
0000
0000
0000
0000
,
1000
0000
0000
0000
,
0000
0000
0000
0000
,
0001
0000
0000
0000
,
0000
0000
0000
0000
,
0100
0000
0000
0000
,
0000
0000
0000
0000
,
0010
0000
0000
0000
,
0000
0000
0000
0000
,
0100
0000
0000
0000
,
0100
0000
0000
0000
,
0100
0000
0000
0000
,
0100
0000
0000
0000
,
0001
0000
0000
0000
,
0001
0000
0000
0000
,
0001
0000
0000
0000
,
0001
0000
0000
0000
,
1000
0000
0000
0000
,
1000
0000
0000
0000
,
1000
0000
0000
0000
,
1000
0000
0000
0000
,
0010
0000
0000
0000
,
0010
0000
0000
0000
,
0010
0000
0000
0000
,
0010
0000
0000
0000
,
1000
0000
0000
0000
,
0100
0000
0000
0000
,
0010
0000
0000
0000
,
0001
0000
0000
0000
,
0001
0000
0000
0000
,
0010
0000
0000
0000
,
0100
0000
0000
0000
,
1000
0000
0000
0000
,
1001
0000
0000
0000
,
0000
0000
0000
0000
,
0000
0000
0000
0000
,
0000
0000
0000
0000
,
1001
0000
0000
0000
,
0000
0000
0000
0000
,
0010
0000
0000
0000
,
0000
0000
0000
0000
,
1000
0000
0000
0000
,
1000
0000
0000
0000
,
1000
0000
0000
0000
,
1000
0000
0000
0000
,
0001
0000
0000
0000
,
0001
0000
0000
0000
,
0001
0000
0000
0000
,
0001
0000
0000
0000
,
0100
0000
0000
0000
,
0100
0000
0000
0000
,
0100
0000
0000
0000
,
0100
0000
0000
0000
,
1000
0000
0000
0000
,
1000
0000
0000
0000
,
1000
0000
0000
0000
,
1000
0000
0000
0000
,
0001
0000
0000
0000
,
0001
0000
0000
0000
,
0001
0000
0000
0000
,
0001
0000
0000
0000
,
0001
0000
0000
0000
,
0000
0000
0000
0000
,
1001
0000
0000
0100
,
0000
0000
0000
0100
,
0000
0000
0000
0100
,
0000
0000
0000
0110
,
0000
0000
0000
1000
,
0000
0000
0000
1000
,
0000
0000
0000
1000
,
0000
0000
0000
1001
,
0000
0000
0000
0010
,
0000
0000
0000
0010
,
0000
0000
0000
0010
,
0000
0000
0000
0110
,
0000
0000
0000
0001
,
0000
0000
0000
0001
,
0000
0000
0000
0001
,
0000
0000
0000
1001
,
0000
0000
0000
1000
,
0000
0000
0000
0100
,
0000
0000
0000
1000
,
0000
0000
0000
0000
,
0000
0000
0000
0001
,
0000
0000
0000
0100
,
0000
0000
0000
0001
,
0000
0000
0000
0000
,
0000
0000
0000
1000
,
0000
0000
0000
0100
,
0000
0000
0000
1000
,
0000
0000
0000
0100
,
0000
0000
0000
0001
,
0000
0000
0000
0100
,
0000
0000
0000
0001
,
0000
0000
0000
0100
,
0000
0000
0000
1000
,
0000
0000
0000
1000
,
0000
0000
0000
1000
,
0000
0000
0000
1000
,
0000
0000
0000
0001
,
0000
0000
0000
0001
,
0000
0000
0000
0001
,
0000
0000
0000
0001
,
0000
0000
0000
1001
,
0000
0000
0000
1001
,
0000
0000
0000
1001
;

//---------------dance-single - ----------------
#NOTES:
     dance-single:
     :
     Challenge:
     10:
     0.946,1.000,0.864,0.392,0.075: // measure 1
0000
0000
0000
0000
,  // measure 2
0000
0000
0000
0000
,  // measure 3
0000
0000
0000
0000
,  // measure 4
0000
0000
0000
0000
,  // measure 5
1000
0000
0000
0100
0000
0000
0000
0000
,  // measure 6
0000
0000
0000
0010
,  // measure 7
0010
0000
0000
0001
0000
0000
0000
1000
,  // measure 8
0100
1000
0100
1000
0001
0000
0000
0000
,  // measure 9
0001
0101
0100
0110
,  // measure 10
0010
1010
1000
1001
,  // measure 11
0001
0101
0100
0110
,  // measure 12
0010
1010
1000
1100
,  // measure 13
0100
0101
0001
0101
,  // measure 14
0100
0110
0010
0011
,  // measure 15
1001
0000
0000
1001
0000
0000
0010
0100
,  // measure 16
0001
0100
0010
0100
0001
0100
0010
0100
,  // measure 17
0001
1000
0100
1000
0100
1000
0100
1000
,  // measure 18
0001
0100
0001
0100
0001
0100
0001
0100
,  // measure 19
0001
1000
0001
1000
0001
1000
0001
1000
,  // measure 20
0100
0000
0000
0000
,  // measure 21
1000
0001
0100
0001
0100
0001
0100
0001
,  // measure 22
1000
0010
1000
0010
1000
0010
1000
0010
,  // measure 23
0100
0001
0100
0001
1000
0100
1000
0100
,  // measure 24
0010
0001
0000
0100
0000
0110
0000
0010
,  // measure 25
1000
0000
1000
0002
0000
0010
0000
0013
,  // measure 26
0100
0000
0100
2000
0000
0010
0000
3010
,  // measure 27
0100
0000
0100
0002
0000
0100
0000
0103
,  // measure 28
0101
1001
1100
0110
,  // measure 29
0100
0000
1000
0020
0000
0100
0000
0130
,  // measure 30
0001
0000
0010
0200
0000
1000
0000
1300
,  // measure 31
0001
0000
0100
0020
0000
1000
0000
1030
,  // measure 32
0001
0100
0010
1000
0100
0010
0001
0010
,  // measure 33
0001
0101
0001
1001
,  // measure 34
1000
1100
1000
1010
,  // measure 35
0010
0110
0010
1010
,  // measure 36
1000
1100
0001
0101
,  // measure 37
1000
1010
0001
0011
,  // measure 38
0100
1100
0010
0011
,  // measure 39
0100
0000
1001
0000
0000
0100
0010
0100
,  // measure 40
0001
1000
0100
0010
0001
0100
0001
1000
,  // measure 41
0200
0000
0000
0320
,  // measure 42
0000
0000
0000
0000
,  // measure 43
0230
0000
0000
2300
,  // measure 44
0000
0000
3010
0101
,  // measure 45
0000
0000
0101
0101
,  // measure 46
0000
0000
0101
0101
,  // measure 47
0000
0000
0101
0101
,  // measure 48
0000
0100
1000
0100
0001
1000
0100
0010
,  // measure 49
1000
1010
0010
0011
,  // measure 50
0001
0101
0100
1100
,  // measure 51
1000
1001
0001
0101
,  // measure 52
0100
1100
1000
1010
,  // measure 53
0010
0110
0100
0101
,  // measure 54
0001
1001
1000
1100
,  // measure 55
0010
0000
1001
0000
0100
1000
0001
0100
,  // measure 56
0010
1000
0001
0010
0100
1000
0001
0100
,  // measure 57
0000
0000
0002
0000
0000
2003
0000
0000
3020
0000
0000
0230
0000
0000
0301
0000
,  // measure 58
0000
0000
0200
0000
0000
0302
0000
0000
2003
0000
0000
3200
0000
0000
0310
0001
,  // measure 59
0010
0000
0100
0000
1000
0000
0002
0000
0100
0000
0000
0100
0000
0000
0103
0000
,  // measure 60
0000
0000
0010
0000
1000
0000
0200
0000
0001
0000
0000
0001
0000
0000
0301
0000
,  // measure 61
2000
0000
3002
0000
,  // measure 62
0203
0000
2300
0000
,  // measure 63
3020
0000
0230
0000
,  // measure 64
0301
1000
0100
0000
1000
0000
0010
0001
,  // measure 65
0020
0000
2030
0000
,  // measure 66
3002
0000
2003
0000
,  // measure 67
3100
0200
0310
0020
,  // measure 68
0031
0100
0001
0100
0010
1000
0100
0010
,  // measure 69
0000
0000
0100
1000
0000
1000
0001
0000
0001
0100
0000
0100
0010
0000
2000
0000
,  // measure 70
0000
0000
3001
0010
0000
0100
1000
0000
0010
1000
0000
0001
0100
0000
0010
0000
,  // measure 71
2002
3000
1003
0100
,  // measure 72
0001
0100
0001
0000
0100
0010
0100
0000
,  // measure 73
0010
1000
0010
0000
1000
0100
1000
0000
,  // measure 74
0100
0001
0100
0000
0001
0100
1000
0000
,  // measure 75
0001
0100
0001
0000
1000
0010
1000
0000
,  // measure 76
0001
0010
0001
0000
1000
0100
1000
0000
,  // measure 77
0010
0100
0001
0000
0010
0100
1000
0000
,  // measure 78
0001
0100
0001
0000
1000
0010
1000
0000
,  // measure 79
0001
1000
0100
1000
0001
0000
0100
0000
,  // measure 80
0001
0100
0001
0000
0001
1000
0001
0000
,  // measure 81
0001
0010
0001
0000
1000
0100
1000
0000
,  // measure 82
1000
0010
1000
0000
1000
0001
1000
0000
,  // measure 83
0010
0100
0010
0000
0010
0001
0010
0000
,  // measure 84
0010
1000
0010
0000
0100
0010
0100
0000
,  // measure 85
0100
0001
0100
0000
0100
1000
0100
0010
,  // measure 86
1000
0000
0001
0100
0001
0000
1000
0100
,  // measure 87
1000
0001
0100
0010
1000
0001
0101
0000
,  // measure 88
0000
1001
0000
0000
0001
0000
1100
0000
,  // measure 89
0000
1001
0000
0000
0010
0000
0101
0000
,  // measure 90
0000
1001
0000
0000
0010
0100
0001
1000
,  // measure 91
2002
0000
3003
0110
,  // measure 92
0000
0011
0000
0000
1000
0000
0110
0000
,  // measure 93
0000
1100
0000
0000
0010
0000
1001
0000
,  // measure 94
0000
0101
0000
0000
1000
0000
0001
0100
,  // measure 95
0010
0000
1000
0010
0100
0001
1000
0000
,  // measure 96
0000
1001
0000
0000
0100
0000
1010
0000
,  // measure 97
0000
1001
0000
0000
0001
0000
0110
0000
,  // measure 98
0000
1100
0000
0000
1001
0000
0101
0000
,  // measure 99
1100
0100
0100
0011
,  // measure 100
0000
1001
0000
0000
0010
0000
1100
0000
,  // measure 101
0000
1001
0000
0000
0001
0000
0110
0000
,  // measure 102
0000
0110
0000
0000
0110
0000
1001
0000
,  // measure 103
1100
0000
0000
0001
1000
0100
0010
0001
,  // measure 104
0010
0001
1000
0100
1000
0100
1000
0001
,  // measure 105
1000
0001
0100
0001
0100
0001
1000
0010
,  // measure 106
1000
0010
1000
0100
1000
0100
0010
0001
,  // measure 107
1000
0100
1000
0001
0100
0010
1000
0001
,  // measure 108
0010
0100
1000
0100
0010
0001
0100
0010
,  // measure 109
1000
0100
0010
0001
0100
0001
1000
0000
,  // measure 110
0000
0101
0000
0000
0010
1000
0001
0000
,  // measure 111
0000
1100
0000
0000
0001
0010
0100
1000
,  // measure 112
0000
1000
0001
0100
0000
0100
0010
1000
,  // measure 113
0100
0001
0100
1000
0010
0100
2002
0000
,  // measure 114
0000
0000
0000
0000
,  // measure 115
0000
3003
0000
0000
;

//---------------dance-double - ----------------
#NOTES:
     dance-double:
     :
     Beginner:
     1:
     0.192,0.340,0.322,0.000,0.000:
00000000
00000000
00000000
00000000
,
00000000
00000000
00000000
00000000
,
00000000
00000000
00000000
00000000
,
00000000
00000000
00000000
00000000
,
00000000
00000000
00000000
00000000
,
00000000
00000000
00000000
00000000
,
00000000
00000000
00000000
00000000
,
00000000
00000000
00000000
00000000
,
00000100
00000000
00000000
00000000
,
00001000
00000000
00000000
00000000
,
00000100
00000000
00000000
00000000
,
00010000
00000000
00000000
00000000
,
10000000
00000000
00000000
00000000
,
00010000
00000000
00000000
00000000
,
00000100
00000000
00000000
00000000
,
00000010
00000000
00000000
00000000
,
00001000
00000000
00000000
00000000
,
00000010
00000000
00000000
00000000
,
00010000
00000000
00000000
00000000
,
00000100
00000000
00000000
00000000
,
00010000
00000000
00000000
00000000
,
00001000
00000000
00000000
00000000
,
00100000
00000000
00000000
00000000
,
00010000
00000000
00000000
00000000
,
01000000
00000000
00000000
00000000
,
00100000
00000000
00000000
00000000
,
10000000
00000000
00000000
00000000
,
00010000
00000000
00000000
00000000
,
00100000
00000000
00000000
00000000
,
10000000
00000000
00000000
00000000
,
01000000
00000000
00000000
00000000
,
00010000
00000000
00000000
00000000
,
00001000
00000000
00000000
00000000
,
00000100
00000000
00000000
00000000
,
00000001
00000000
00000000
00000000
,
00001000
00000000
00000000
00000000
,
00000001
00000000
00000000
00000000
,
00000100
00000000
00000000
00000000
,
00001000
00000000
00000000
00000000
,
00010000
00000000
00000000
00000000
,
00010000
00000000
00000000
00000000
,
00000000
00000000
00000000
00000000
,
00001000
00000000
00000000
00000000
,
00000000
00000000
00000100
00000000
,
00000000
00000000
00000000
00000000
,
00000000
00000000
00000000
00000000
,
00010000
00000000
00000000
00000000
,
00000000
00000000
01000000
00000000
,
00000000
00000000
00000000
00000000
,
10000000
00000000
00000000
00000000
,
01000000
00000000
00000000
00000000
,
00010000
00000000
00000000
00000000
,
00001000
00000000
00000000
00000000
,
00000100
00000000
00000000
00000000
,
00000001
00000000
00000000
00000000
,
00001000
00000000
00000000
00000000
,
00001001
00000000
00000000
00000000
,
00011000
00000000
00000000
00000000
,
10010000
00000000
00000000
00000000
,
00011000
00000000
00000000
00000000
,
00001001
00000000
00000000
00000000
,
00011000
00000000
00000000
00000000
,
01100000
00000000
00000000
00000000
,
00011000
00000000
00000000
00000000
,
00001001
00000000
00000000
00000000
,
01100000
00000000
00000000
00000000
,
00000110
00000000
00000000
00000000
,
10010000
00000000
00000000
00000000
,
10010000
00000000
00000000
00000000
,
00001001
00000000
00000000
00000000
,
00011000
00000000
00000000
00000010
,
00000000
00000000
00000000
00000001
,
00000000
00000000
00000000
00000100
,
00000000
00000000
00000000
00000010
,
00000000
00000000
00000000
00000100
,
00000000
00000000
00000000
00001000
,
00000000
00000000
00000000
00010000
,
00000000
00000000
00000000
00001000
,
00000000
00000000
00000000
00010000
,
00000000
00000000
00000000
10000000
,
00000000
00000000
00000000
00010000
,
00000000
00000000
00000000
00000010
,
00000000
00000000
00000000
00000001
,
00000000
00000000
00000000
00000010
,
00000000
00000000
00000000
00001000
,
00000000
00000000
00000000
00100000
,
00000000
00000000
00000000
01100000
,
00000000
00000000
00000000
10010000
,
00000000
00000000
00000000
01100000
,
00000000
00000000
00000000
00100000
,
00000000
00000000
00000000
00000110
,
00000000
00000000
00000000
00001001
,
00000000
00000000
00000000
00000110
,
00000000
00000000
00000000
00000010
,
00000000
00000000
00000000
01100000
,
00000000
00000000
00000000
00011000
,
00000000
00000000
00000000
00000110
,
00000000
00000000
00000000
00010000
,
00000000
00000000
00000000
10010000
,
00000000
00000000
00000000
00011000
,
00000000
00000000
00000000
00001001
,
00000000
00000000
00000000
00010000
,
00000000
00000000
00000000
00000100
,
00000000
00000000
00000000
00000010
,
00000000
00000000
00000000
00010000
,
00000000
00000000
00000000
10000000
,
00000000
00000000
00000000
00010000
,
00000000
00000000
00000000
00000010
,
00000000
00000000
00000000
00001001
,
00000000
00000000
00000000
00000110
,
00000000
00000000
00000000
00000110
,
00000000
00000000
00000000
10010000
,
00000000
00000000
00000000
10010000
;
