#TITLE:Luv To Me;
#SUBTITLE:(UCCHIE'S EDITION);
#ARTIST:tiger YAMATO;
#TITLETRANSLIT:;
#SUBTITLETRANSLIT:;
#ARTISTTRANSLIT:;
#CREDIT:;
#BANNER:Luv TO ME (UCCHIE'S EDITION).png;
#BACKGROUND:LUV TO ME (UCCHIE'S EDITION)-bg.png;
#LYRICSPATH:;
#CDTITLE:;
#MUSIC:LUV TO ME (UCCHIE'S EDITION).ogg;
#OFFSET:0.000;
#SAMPLESTART:50.980;
#SAMPLELENGTH:15.000;
#SELECTABLE:YES;
#DISPLAYBPM:160.000;
#BPMS:0.000=160.003,269.000=159.292;
#STOPS:;
#BGCHANGES:3.500=LUV TO ME (UCCHIE'S EDITION).avi=1.000=1=0=0,
258.750=LUV TO ME (UCCHIE'S EDITION)-bg.png=1.000=0=0=1,
99999=-nosongbg-=1.000=0=0=0 // don't automatically add -songbackground-
;

//---------------dance-single - ----------------
#NOTES:
     dance-single:
     :
     Beginner:
     1:
     0.187,0.226,0.030,0.010,0.000:
0000
0000
0000
0000
,
0000
0000
0000
0000
,
0000
0000
0000
0000
,
0000
0000
0000
0000
,
0000
0000
0000
0000
,
0001
0000
0000
0000
,
1000
0000
0000
0000
,
0001
0000
0000
0000
,
0020
0000
0000
0030
,
0010
0000
0010
0000
,
0001
0000
1000
0000
,
0100
0000
0100
0000
,
0001
0000
1000
0000
,
0010
0000
0010
0000
,
1000
0000
0001
0000
,
0100
0000
0100
0000
,
1000
0000
0000
0000
,
0000
0010
0000
0010
,
0000
0010
0000
0010
,
0000
1000
0000
1000
,
0000
1000
1000
1000
,
0000
0100
0000
0100
,
0000
0100
0000
0100
,
0000
0001
0000
0001
,
0000
0001
0001
0001
,
0000
1000
0000
0100
,
0000
0010
0010
0010
,
0000
0010
0000
0100
,
0000
0001
0001
0001
,
0000
1000
0000
0010
,
0000
0100
0100
0100
,
0100
0000
0010
0000
,
1000
0000
0100
0000
,
0001
0001
0001
0001
,
0001
0001
0001
0001
,
0000
1000
0000
0010
,
0000
1000
0000
0010
,
0000
0100
0000
0001
,
0000
0100
0000
0001
,
0000
1000
0000
0100
,
0000
1000
0000
0100
,
0000
0010
0000
0001
,
0000
0010
0000
0001
,
0000
0100
0000
0010
,
0000
0100
0000
0010
,
0000
1000
0000
0001
,
0000
1000
0000
0001
,
0000
0010
0000
0100
,
0000
0010
0000
0100
,
0000
0001
0000
1000
,
0000
0001
0000
1000
,
0000
0100
0100
0100
,
0000
0010
0010
0010
,
0000
1000
1000
1000
,
0000
0001
0001
0001
,
0000
1000
0000
0010
,
0000
0001
0000
0100
,
0000
0001
0000
0010
,
0000
1000
1000
1000
,
0000
0001
0000
0010
,
0000
1000
0000
0100
,
0000
1000
0000
0010
,
0000
0001
0000
1001
,
1001
0000
0000
0000
,
0000
0000
0000
0110
;

//---------------dance-single - ----------------
#NOTES:
     dance-single:
     :
     Easy:
     3:
     0.268,0.290,0.150,0.050,0.000:
0000
0000
0000
0000
,
0000
0000
0000
0000
,
0000
0000
0000
0000
,
0000
0000
0000
0000
,
0000
0000
0000
0000
,
0001
0001
0000
0000
,
1000
1000
0000
0000
,
0001
0001
0000
0000
,
2000
0000
0000
3000
,
0010
0000
0110
0000
,
0001
0000
1001
0000
,
0100
0000
0110
0000
,
0001
0001
1001
0000
,
0001
1000
0110
0000
,
0010
0100
1001
0000
,
0001
0001
0001
0001
,
1000
0000
0010
0100
,
0000
0001
0000
0001
,
0000
0001
0000
0001
,
0000
1000
0000
1000
,
0000
0001
1000
0001
,
1000
1000
0000
1000
,
0000
0010
0000
0010
,
0000
0100
0000
0100
,
0000
0100
0010
1000
,
1001
1001
0000
0100
,
0010
0100
0000
1000
,
0010
0010
0000
0100
,
0001
1000
0002
0000
,
1003
1000
0000
0010
,
0100
0100
0000
0001
,
0100
0100
0001
0001
,
0100
0100
0200
0000
,
0301
0000
0001
1001
,
1000
0000
1000
1001
,
1001
0000
0010
0100
,
1000
1000
0100
0010
,
0001
0001
1000
0001
,
1000
1000
0200
0000
,
1300
0000
1000
0001
,
0100
0010
1000
0000
,
0001
0100
0001
0000
,
0100
0100
1001
0001
,
1000
0010
0000
1000
,
0000
0100
0001
0000
,
1000
0001
0100
0100
,
0001
1000
0010
0000
,
0010
0010
0100
0000
,
0100
0100
0010
0000
,
0010
0010
0100
0001
,
1001
0010
0020
0000
,
0130
0000
0001
0000
,
0010
0000
0001
0000
,
0010
0000
0100
0000
,
0010
0000
1000
0001
,
1000
0100
0010
0000
,
0001
0010
0100
0000
,
1000
0100
0010
0000
,
0001
0010
1000
0100
,
1000
0001
0100
0000
,
0001
1000
0100
0000
,
1000
0010
0010
0000
,
1000
0001
1000
0001
,
1001
0000
0000
0000
,
0000
0000
0000
0110
;

//---------------dance-single - ----------------
#NOTES:
     dance-single:
     :
     Medium:
     6:
     0.403,0.452,0.349,0.140,0.000:
0000
0000
0000
0000
,
0000
0000
0000
0000
,
0000
0000
0000
0000
,
0000
0000
0000
0000
,
0000
0000
0000
0000
,
0010
0001
0100
0000
0010
1000
0100
0000
,
0100
1000
0001
0000
0100
0001
1000
0000
,
1000
0010
0100
0000
0001
0010
0100
0000
,
2002
0000
3003
0000
,
0001
0000
1000
0010
0000
0100
0000
0100
,
0000
1000
0001
0000
0000
0020
0000
0000
,
1030
0000
0100
0010
0000
0001
0000
0000
,
1000
0010
0100
0000
0001
0010
0100
0000
,
0010
0000
1000
0010
0000
0100
0000
1000
,
0000
0100
0001
0000
0000
0020
0000
0000
,
1030
0000
0001
0100
0010
0000
1001
0000
,
0000
1000
0001
0010
0000
0100
1000
0010
,
0000
1001
0000
0010
0000
1000
0000
0001
,
0000
1000
0000
0001
0000
0010
0000
0100
,
0000
1000
0000
0100
0000
0001
0000
0100
,
0000
0010
0000
1000
0000
0100
0000
0010
,
0000
1000
0000
0001
0000
0100
0000
0010
,
0000
1000
0000
0010
0000
0100
0000
0001
,
0000
0010
0000
1000
0000
0001
0000
0100
,
0010
0101
1001
1100
,
0000
0100
0000
0010
0000
0001
0000
0100
,
0000
0010
0000
0100
0000
1001
0000
0010
,
0100
0000
0010
0001
0100
0000
0100
0000
,
0001
1000
0020
0030
,
0100
0010
1000
0001
,
1000
0000
0010
0000
1000
0001
0000
0000
,
0100
0010
0010
1000
,
1000
0001
0001
0100
,
0100
0010
1000
0100
,
1000
0010
1000
0000
0001
0100
0001
0000
,
1001
0000
0100
0001
0000
1000
0000
0010
,
0000
0001
0000
1000
0000
0100
0000
1000
,
0000
0010
0000
0100
0000
0001
0000
1000
,
0000
0001
0000
0010
0000
1001
0000
1000
,
0010
0100
0000
0001
0000
1001
0000
0001
,
0010
0100
0000
1000
0000
1001
0000
0200
,
0000
0001
0000
0301
0000
0010
0000
0100
,
0000
1000
0000
0010
0000
0100
0000
0010
,
0000
0100
0001
0100
0000
1001
0000
0020
,
0000
0000
0000
0030
0000
0101
0000
0200
,
0000
0000
0000
0300
0000
0002
0000
0000
,
0003
0000
0011
0000
0000
0110
0000
1000
,
0010
1000
0000
0100
0000
1100
0000
0001
,
0010
0001
0000
0100
0000
0101
0000
0102
,
0000
1000
0000
0103
0000
0001
0000
0100
,
0000
1000
0100
0000
0100
0020
0000
0000
,
0000
0000
0030
0000
,
1000
0000
0100
0010
0000
0000
0100
0000
,
0020
0000
0000
0000
,
0001
0000
0100
0030
,
0110
1001
1010
0101
,
0001
1000
0001
0010
,
1000
0100
0010
0100
,
1010
0011
1100
0101
,
0010
0100
0001
1000
,
0010
0001
0010
1000
,
0110
1001
0101
1010
,
1001
0011
1100
1001
,
2002
0000
0000
0000
,
0000
0000
0000
3003
;

//---------------dance-single - ----------------
#NOTES:
     dance-single:
     :
     Hard:
     9:
     0.518,0.549,0.379,0.189,0.075:
0000
0000
0000
0000
,
0000
0000
0000
0000
,
0000
0000
0000
0000
,
0000
0000
0000
0000
,
0000
0000
0000
0000
,
1000
1100
0001
0101
,
1000
1010
0001
0011
,
1000
1001
0001
1001
,
0220
0000
0330
0000
,
0010
1000
0001
0010
0000
0100
0000
0000
,
0010
0100
0001
0100
1000
0010
0100
0000
,
0001
1000
0001
0100
0000
0110
0000
0000
,
1000
0010
0000
0010
0100
0000
0100
0001
0000
0001
0010
0000
0100
0000
1000
0000
,
1000
0010
1000
0010
0000
0101
0000
0000
,
0010
1000
0100
0001
0100
1000
0010
0000
,
0010
0100
0001
0100
0000
1001
0000
0000
,
0000
0000
1000
0000
0001
0000
1000
0000
0001
0010
0000
0001
0000
1000
0010
0000
,
0100
0001
1000
0000
1001
0000
0000
0100
,
0001
1000
0000
1001
0000
0010
1000
0100
,
2000
0000
0000
0002
0000
0000
3003
0001
,
0100
0000
0100
0001
0000
1010
0000
0000
,
0000
1000
0100
0001
0100
1000
0010
0100
,
0001
0100
1000
0100
0000
0001
0010
0200
,
0000
0000
0000
2000
0000
0000
3300
1000
,
0100
0000
0100
1000
0000
0011
0000
0000
,
1100
0000
0000
0000
0101
0000
0000
0000
1000
0001
0000
0000
0000
0000
0000
0000
,
1000
0010
0100
0020
0000
1030
0000
0010
,
0100
0001
1000
0100
0010
0000
0000
0100
,
1001
0000
0000
1100
0000
0000
0202
0000
0000
0000
0000
0000
0303
0000
0000
0000
,
1000
0100
1000
0100
0010
0000
0000
0000
,
1000
0010
0001
0200
0000
0310
0000
0000
,
1000
0100
1000
0001
0010
0001
0100
0010
,
1000
0000
0000
0001
0000
0000
1000
0000
2002
0000
0000
0000
3003
0000
0000
0000
,
0101
0011
1010
1100
,
1000
0000
0010
0000
1000
0000
0001
0000
0010
0100
0010
0000
1001
0000
0000
0000
,
1001
0000
0100
0001
0000
1000
0000
0010
,
0000
0100
0001
1000
0000
0100
0000
1000
,
0010
0100
0001
0010
0000
0100
0000
1000
,
0000
0001
0100
0001
0000
1001
0000
1000
,
0010
1000
0001
0100
0000
1001
0000
0001
,
0010
0001
1000
0100
0000
1001
0000
0200
,
0000
0001
0001
0301
0000
0010
0000
0100
,
0000
1000
0100
1000
0100
0010
0000
0000
,
0001
0100
0010
0100
0000
1001
0000
0000
,
1000
0100
0010
0001
0000
1001
0000
0000
,
0001
0010
0100
1000
0000
1001
0000
0000
,
0010
0100
0010
0100
0010
0100
0000
1000
,
0010
0100
0001
0100
0000
0101
0000
0001
,
0010
0100
1000
0100
0000
1100
0000
0002
,
0000
0000
1003
0001
0000
0100
0000
0001
,
0000
0010
0100
1000
0001
0200
0000
0000
,
0000
0000
0000
0000
0000
0300
0000
0001
,
1000
0100
0010
0100
,
0020
0000
0000
0000
,
0001
0000
0002
0033
,
1000
0001
0100
0001
1000
0010
0100
0001
,
0010
0100
1000
0000
0000
0101
0000
0000
,
0001
0010
0001
1000
0100
1000
0010
0100
,
0010
1000
0100
0001
0100
1000
0001
0100
,
1000
0100
0001
0010
0100
1000
0001
0010
,
0001
1000
0100
0000
0000
0011
0000
0000
,
0010
0001
0100
1000
0100
0001
0010
0000
,
0001
0100
0000
0001
0100
0000
0010
1000
0000
0010
1000
0000
0000
0000
0000
0000
,
2002
0000
0000
0000
,
0000
0000
3003
1001
;

//---------------dance-double - ----------------
#NOTES:
     dance-double:
     :
     Beginner:
     2:
     0.201,0.323,0.269,0.000,0.000:
00000000
00000000
00000000
00000000
,
00000000
00000000
00000000
00000000
,
00000000
00000000
00000000
00000000
,
00000000
00000000
00000000
00000000
,
00000000
00000000
00000000
00000000
,
00100000
00000000
10000000
00000000
,
01000000
00000000
00010000
00000000
,
01000000
00000000
01000000
00000000
,
00011000
00000000
00000000
00000000
,
00001001
00000000
00000100
00000000
,
00001000
00000000
00010000
00000000
,
10010000
00000000
01000000
00000000
,
00010000
00000000
00001000
00000000
,
00000010
00000000
00000100
00000000
,
00000001
00000000
00001000
00000000
,
00000010
00000000
00000100
00000000
,
00011000
00000000
00000000
00000000
,
00000000
00010000
00000000
00100000
,
00000000
10000000
00000000
00010000
,
00000000
10000000
00000000
00010000
,
00000000
00001000
00000000
00001000
,
00000000
00001000
00000000
00000010
,
00000000
00000001
00000000
00001000
,
00000000
00000001
00000000
00001000
,
00000000
00010000
00000000
00010000
,
00000000
00010000
00000000
10000000
,
00000000
00000000
00010000
00000000
,
00100000
00000000
10000000
00000000
,
01000000
00000000
00010000
00000000
,
00000000
00001000
00000000
00000001
,
00000000
00000000
00001000
00000000
,
00000110
00000000
00001001
00000000
,
00001001
00000000
00000110
00000000
,
00001001
00000000
00011000
00000000
,
10010000
00000000
00011000
00000000
,
00001000
00000000
00000001
00000000
,
00000001
00000000
00000001
00000000
,
00000010
00000000
00000010
00000000
,
00000010
00000000
00010000
00000000
,
00010000
00000000
10000000
00000000
,
00010000
00000000
00010000
00000000
,
00100000
00000000
00100000
00000000
,
00100000
00000000
00001000
00000000
,
00001001
00000000
00000001
00000000
,
00011000
00000000
01000000
00000000
,
10010000
00000000
00001000
00000000
,
00011000
00000000
00011000
00000000
,
01100000
00000000
10000000
00000000
,
00011000
00000000
00000010
00000000
,
00000110
00000000
00010000
00000000
,
00011000
00000000
00011000
00000000
,
00010000
00000000
10000000
00000000
,
00010000
00000000
00000100
00000000
,
00000100
00000000
00010000
00000000
,
00010000
00000000
00011000
00000000
,
00001001
00000000
00000100
00000000
,
00001000
00000000
00010000
00000000
,
10010000
00000000
01000000
00000000
,
00010000
00000000
00001000
00000000
,
00100000
00000000
00010000
00000000
,
00010000
00000000
00010000
00000000
,
00100000
00000000
00100000
00000000
,
00001000
00000000
00001000
00000000
,
00000110
00000000
00000000
00000000
,
00000000
00000000
00000000
00001001
;

//---------------dance-double - ----------------
#NOTES:
     dance-double:
     :
     Easy:
     4:
     0.328,0.581,0.319,0.140,0.000:
00000000
00000000
00000000
00000000
,
00000000
00000000
00000000
00000000
,
00000000
00000000
00000000
00000000
,
00000000
00000000
00000000
00000000
,
00000000
00000000
00000000
00000000
,
00100000
00100000
10000000
00010000
,
01000000
01000000
00010000
10000000
,
01000000
10000000
01000000
00010000
,
00022000
00000000
00033000
00000000
,
00001001
00000010
00000100
00000001
,
00001000
00000010
00010000
00000000
,
10010000
00100000
01000000
10000000
,
00010000
00100000
00001000
00000000
,
00000010
00001001
00000100
00000110
,
00000001
00000100
00001000
00000000
,
00000010
00001000
00000100
00010000
,
00022000
00000000
00000000
00033000
,
00000000
00010000
00000000
00100000
,
00000000
10000000
00000000
00010000
,
01000000
10000000
01000000
00010000
,
00100000
00001000
00010000
00001000
,
00000000
00001000
00000000
00000010
,
00000000
00000001
00000000
00001000
,
00000100
00000001
00000100
00001000
,
00000010
00010000
00001000
00010000
,
00000000
00010000
00100000
10000000
,
01000000
00000000
00010000
00000000
,
00100000
00000000
10000000
00000000
,
01000000
00000000
00010000
00000000
,
00000000
00001000
00000100
00000001
,
00000010
00000000
00001000
00000000
,
00000202
00000303
00000022
00000033
,
00002020
00003030
00002200
00003300
,
00001001
00001100
00011000
00110000
,
10010000
01010000
00011000
00000000
,
00001000
00000100
00000001
00000000
,
00000001
00001000
00000001
00000000
,
00000010
00001000
00000010
00000000
,
00000010
00001000
00010000
00001000
,
00010000
01000000
10000000
00000000
,
00010000
10000000
00010000
00000000
,
00100000
00010000
00100000
00000000
,
00100000
00010000
00001000
00010000
,
00001010
00000000
00000001
00000100
,
00011000
00000000
01000000
10000000
,
00110000
00000000
00001000
00010000
,
00011000
00000100
00011000
01000000
,
01010000
00000000
10000000
00100000
,
00011000
00000000
00000010
00000001
,
00001100
00000000
00010000
00001000
,
00011000
00000010
00011000
00100000
,
00010000
00100000
10000000
01000000
,
00010000
00001000
00000100
00000001
,
00000100
00001000
00010000
01000000
,
00010000
00001000
00011000
00000000
,
00001001
00000010
00000100
00000001
,
00001000
00000010
00010000
00000000
,
10010000
00100000
01000000
10000000
,
00010000
00100000
00001000
00000000
,
00100000
00001000
00010000
00000100
,
00010000
00001000
00010000
00000000
,
00100000
00010000
00100000
00000000
,
00001000
00000010
00001000
00000000
,
00000220
00000000
00000000
00000000
,
00000000
00000000
00000330
00001001
;

//---------------dance-double - ----------------
#NOTES:
     dance-double:
     :
     Medium:
     7:
     0.446,0.516,0.159,0.110,0.065:
00000000
00000000
00000000
00000000
,
00000000
00000000
00000000
00000000
,
00000000
00000000
00000000
00000000
,
00000000
00000000
00000000
00000000
,
00000000
00000000
00000000
00000000
,
00100000
00100000
10000000
10000000
,
01000000
01000000
00010000
00010000
,
00001000
00000100
00000001
00000100
,
00001001
00000000
00000000
00000000
,
00000001
00000001
00001000
00001000
,
00000001
00000100
00001000
00000000
00010000
01000000
10000000
00000000
,
00010000
00010000
10000000
10000000
,
00010000
00000000
00000000
10000000
00000000
00000000
00010000
00000000
00000000
10000000
00000000
00000000
00010000
00000000
00000000
00000000
,
10000000
10000000
00010000
00010000
,
10000000
00100000
00010000
00000000
00001000
00000010
00000001
00000000
,
00001000
00001000
00000001
00000001
,
00000001
00000000
00000000
00000010
00000000
00000000
00000100
00000000
00001000
00000000
00000000
00000010
00000000
00000000
00000100
00000000
,
00001000
00010000
00020000
00000000
00000100
00000000
00000000
00001000
,
00001000
00031000
00000000
00010000
00000000
00001000
00010000
01000000
,
20000000
00000000
00000000
02000000
00000000
00000000
33000000
10000000
,
00010000
00000000
10000000
00010000
00000000
10010000
00000000
00000000
,
00000000
10000000
01000000
10000000
01000000
00100000
00010000
00100000
,
00010000
01000000
00010000
01000000
00000000
00100000
10000000
00200000
,
00000000
00000000
00000000
10300000
00000000
00000000
00000000
00010000
,
10000000
00000000
00010000
10000000
00000000
00100000
00000000
00000000
,
01000000
00000000
00000000
00000000
00001000
00000000
00000000
00010000
00001000
00000000
00000000
00000000
00000000
00000000
00000000
00000000
,
00000100
00000100
00000001
00000002
00000000
00001003
00000000
00000010
,
00000100
00000010
00000100
00000010
00000100
00000000
00000000
00000001
,
00001000
00000000
00000000
00000001
00000000
00000000
00001000
00000000
00000000
00000000
00000000
00000000
00000000
00000000
00000000
00000000
,
00001000
00000100
00000010
00000001
00000100
00000000
00000000
00000000
,
00001000
00010000
00100000
10000000
00000000
00010000
00000000
00000000
,
10000000
01000000
10000000
00010000
00100000
00010000
01000000
00100000
,
10000000
00000000
00000000
00010000
00000000
00000000
10000000
00000000
20020000
00000000
00000000
00000000
30030000
00000000
00000000
00000000
,
11000000
01010000
10100000
00110000
,
10000000
01000000
10000000
01000000
00100000
00010000
00100000
00010000
,
01000000
00100000
10000000
01000000
00000000
00010000
00000000
00001000
,
00000000
00000100
00000001
00000100
00000000
00000001
00000000
00001000
,
00000001
00000010
00000001
00001000
00000000
00000100
00000000
00010000
,
00000000
00001000
00000000
00011000
00000000
00011000
00000000
00010000
,
00001000
00010000
00100000
01000000
00000000
00010000
00000000
10000000
,
01000000
10000000
00010000
01000000
00000000
00010000
00000000
10000000
,
00000000
00100000
01000000
00010000
00000000
10000000
00000000
01000000
,
00000000
00010000
00001000
00000100
00000001
00000100
00000000
00000010
,
00001000
00000001
00000100
00000001
00000000
00002000
00000000
00000000
,
00000001
00003001
00000100
00001000
00000000
00020000
00000000
00000000
,
01030000
01000000
00100000
00100000
00000000
00010000
00000000
00000000
,
10000000
00100000
10000000
01000000
10000000
00010000
00000000
00000000
,
10000000
01000000
10000000
01000000
,
00010000
00001000
00010000
00001000
,
00000100
00000001
00000100
00000001
,
00001000
00000000
00000000
00000001
00000000
00000000
00001000
00000000
00000000
00000001
00000000
00000000
00001000
00000000
00000000
00000000
,
00000110
00000000
00001000
00000001
00000000
00000001
00001000
00000100
,
00000010
00000000
00000100
00000010
00000000
00000010
00000100
00010000
,
00001000
00000000
00010000
00001000
00000000
01000000
00000000
00100000
,
10010000
10010000
10010000
10010000
,
10000000
10000000
00010000
00010000
,
10000000
00100000
00010000
00000000
00001000
00000010
00000001
00000000
,
00001000
00001000
00000001
00000001
,
00001000
00000000
00000000
00000001
00000000
00000000
00001000
00000000
00000000
00000001
00000000
00000000
00001000
00000000
00000000
00000000
,
00000001
00000001
00001000
00001000
,
00000001
00000100
00001000
00000000
00010000
01000000
10000000
00000000
,
00010000
00010000
10000000
10000000
,
10000000
00000000
00000000
01000000
00000000
00000000
00100000
00000000
00000000
00010000
00000000
00000000
01000000
00000000
00000000
00000000
,
20020000
00000000
00000000
00000000
,
00000000
00000000
30030000
10010000
;

//---------------dance-double - ----------------
#NOTES:
     dance-double:
     :
     Hard:
     9:
     0.568,0.678,0.229,0.140,0.204:
00000000
00000000
00000000
00000000
,
00000000
00000000
00000000
00000000
,
00000000
00000000
00000000
00000000
,
00000000
00000000
00000000
00000000
,
00000000
00000000
00000000
00000000
,
00100000
10000000
00010000
01000000
,
00001000
00100000
00001000
00010000
,
00000100
00001000
00000001
00000100
,
00001001
00000000
00000000
00000000
,
00000010
00000001
00000100
00001000
00000000
00010000
00000000
00010000
,
00000000
00001000
00010000
00000000
01000000
00000000
10000000
00000000
00100000
00000000
10000000
00000000
00010000
00000000
00100000
00000000
,
01000000
10000000
00010000
00010000
00000000
00010000
00000000
00000000
,
00100000
00010000
00000000
00010000
10000000
00000000
10000000
01000000
00000000
01000000
00100000
00000000
00010000
00000000
01000000
00000000
,
00001000
00010000
00000100
00001000
00000000
00000001
00000000
00001000
,
00000000
00000001
00000100
00000000
00000010
00000000
00000100
00000000
00000001
00000000
00000100
00000000
00001000
00000000
00010000
00000000
,
00001000
00000100
00000001
00000002
00000000
00001003
00000000
00000000
,
00000000
00000000
00010000
00000000
00001000
00000000
00010000
00001000
00010000
00000000
01000000
00000000
00000000
10000000
00010000
00000000
,
01000000
00100000
20000000
00000000
00010000
00000000
00000000
01000000
,
01000000
31000000
00000000
00100000
00000000
00010000
00001000
00000010
,
00000002
00000000
00000000
00000200
00000000
00000000
00000303
00000010
,
00010000
00000000
00001000
00010000
00000000
00011000
00000000
00000000
,
00001000
00010000
00100000
00010000
00001000
00000010
00001000
00010000
,
01000000
00010000
00001000
00010000
00000000
00001000
00001000
00020000
,
00000000
00000000
00000000
00031000
00000000
00000000
00000000
00000100
,
00000001
00000000
00001000
00000001
00000000
00000010
00000000
00000000
,
00001100
00000000
00000000
00000000
00001100
00000000
00000000
00000001
00000100
00000000
00000000
00000000
00000000
00000000
00000000
00000000
,
00000010
00001000
00000100
00020000
00000000
00031000
00000000
00010000
,
01000000
10000000
10000000
01000000
00010000
00000000
00000000
00001000
,
00011000
00000000
00000000
00010100
00000000
00000000
00001100
00000000
00000000
00000000
00000000
00000000
00000000
00000000
00000000
00000000
,
00001000
00000100
00000010
00000001
00000100
00000000
00000000
00000000
,
00001000
00010000
00100000
10000000
00000000
00010000
00000000
00000000
,
10000000
01000000
10000000
00010000
00100000
00010000
01000000
00100000
,
10000000
00000000
00000000
00010000
00000000
00000000
10000000
00000000
20020000
00000000
00000000
00000000
30030000
00000000
00000000
00000000
,
10000000
01000000
00000000
01000000
10000000
00000000
00010000
01000000
00000000
01000000
00010000
00000000
10000000
00010000
00000000
00000000
,
10000000
01000000
10000000
00000000
00010000
01000000
00010000
00000000
10000000
01000000
10000000
00000000
00010000
01000000
00010000
00000000
,
01000000
00100000
10000000
00010000
01000000
00010000
00100000
00001000
,
00010000
00000100
00010000
01000000
10000000
00100000
00010000
00001000
,
00000010
00000001
00000100
00000010
00001000
00000100
00010000
00002000
,
00010000
00000000
00000000
00010000
00000000
00000000
00010000
00000000
00000000
00010000
00000000
00000000
00013000
00000000
00000000
00000000
,
00010000
01000000
00010000
00001000
00000100
00000001
00000010
00000100
,
00001000
00000100
00000010
00001000
00000010
00000001
00000100
00001000
,
00010000
00100000
00010000
00001000
00000100
00001000
00010000
01000000
,
10000000
00010000
00100000
01000000
10000000
00100000
01000000
00010000
,
00100000
01000000
00010000
00001000
00000000
00020000
00000000
00000000
,
00001000
00031000
00010000
00001000
00000000
00000200
00000000
00000000
,
00000301
00000001
00000010
00000010
00000000
00000001
00000000
00000000
,
00001000
00000010
00001000
00000100
00010000
00001000
00000000
00000000
,
00011000
01010000
11000000
10100000
,
00110000
00011000
00001100
00000101
,
00000011
00001010
00011000
00011000
,
00010000
00001000
00000000
00010000
00001000
00000000
00010000
00001000
00000000
00010000
00001000
00000000
00010000
00001000
00000000
00000000
,
00011000
00000000
00010000
01000000
00000000
00010000
00001000
00000100
,
00001000
00000000
00010000
00001000
00000000
00001000
00000100
00000001
,
00000010
00000000
00000001
00001000
00000000
00000100
00000000
00001000
,
00000001
00000100
00000001
00000000
00001000
00000100
00001000
00000000
00000001
00000100
00000001
00000000
00001000
00000100
00001000
00000000
,
00000001
00000001
00001000
00001000
00000000
00000100
00000000
00010000
,
00000000
00001000
00010000
00000000
01000000
00000000
00010000
00000000
00001000
00000000
00000100
00000000
00000001
00000000
00000010
00000000
,
00000100
00001000
00000100
00020000
00000000
01030000
00000000
00000000
,
10000000
00010000
00000000
10000000
00010000
00000000
10000000
00010000
00000000
10000000
00010000
00000000
00100000
00000000
01000000
00000000
,
01000000
10000000
10000000
00010000
00000000
01000000
00000000
00010000
,
00000000
00100000
00010000
00000000
10000000
00000000
01000000
00000000
00010000
00000000
00001000
00000000
00000100
00000000
00000010
00000000
,
00001000
00000001
00001000
00001000
00000000
00000100
00000000
00000000
,
00010000
00001000
00000000
00001000
00010000
00000000
00010000
00001000
00000000
00001000
00010000
00000000
00000000
00000000
00000000
00000000
,
00022000
00000000
00000000
00000000
,
00000000
00000000
00033000
00011000
;

//---------------dance-double - ----------------
#NOTES:
     dance-double:
     :
     Challenge:
     9:
     0.614,0.807,0.239,0.169,0.274: // measure 1
00000000
00000000
00000000
00000000
,  // measure 2
00000000
00000000
00000000
00000000
,  // measure 3
00000000
00000000
00000000
00000000
,  // measure 4
00000000
00000000
00000000
00000000
,  // measure 5
00000000
00000000
00000000
00000000
,  // measure 6
10100000
10000000
00010000
01000000
,  // measure 7
00001000
00100000
00001000
00010000
,  // measure 8
00000100
00001000
00000001
00000100
,  // measure 9
00002002
00000000
00000000
00000000
00000000
00000000
00003003
00000100
,  // measure 10
00000010
00000001
00000100
00001000
00000000
00010000
00000000
00010000
,  // measure 11
00000000
00001000
00010000
00000000
01000000
00000000
10000000
00000000
00100000
00000000
10000000
00000000
00010000
00000000
00100000
00000000
,  // measure 12
01000000
10000000
00010000
00020000
00000000
10030000
00000000
00000000
,  // measure 13
00100000
00010000
00000000
00010000
10000000
00000000
10000000
01000000
00000000
01000000
00100000
00000000
00010000
01000000
00000000
00000000
,  // measure 14
00001000
00010000
00000100
00001000
00000000
00000001
00000000
00001000
,  // measure 15
00000000
00000001
00000100
00000000
00000010
00000000
00000100
00000000
00000001
00000000
00000100
00000000
00001000
00000000
00010000
00000000
,  // measure 16
00001000
00000100
00000001
00000002
00000000
00001003
00000000
00000000
,  // measure 17
00000000
00000000
00010000
00000000
00001000
00000000
00010000
00000000
00001000
00010000
00000000
01000000
00000000
10000000
00010000
00000000
,  // measure 18
01000000
00100000
20000000
00000000
00010000
00000000
00000000
01000000
,  // measure 19
01000000
31000000
00000000
00100000
00000000
00010000
00001000
00000010
,  // measure 20
00000002
00000000
00000000
00000200
00000000
00000000
00000303
00000010
,  // measure 21
00010000
00000000
00001000
00010000
00000000
00011000
00000000
00000000
,  // measure 22
00001000
00010000
00100000
00010000
00001000
00000010
00001000
00010000
,  // measure 23
01000000
00010000
00001000
00010000
00000000
00001000
00001000
00020000
,  // measure 24
00000000
00000000
00000000
00031000
00000000
00000000
00000000
00000100
,  // measure 25
00000001
00000000
00001000
00000001
00000000
00000010
00000000
00000000
,  // measure 26
00001100
00000000
00000000
00000000
00001100
00000000
00000000
00000001
00000100
00000000
00000000
00000000
00000100
00000000
00000000
00000000
,  // measure 27
00000010
00001000
00000100
00020000
00000000
00031000
00000000
00010000
,  // measure 28
01000000
10000000
10000000
01000000
00010000
00000000
00000000
00001000
,  // measure 29
00011000
00000000
00000000
00010100
00000000
00000000
00001100
00000000
00000000
00000000
00000000
00000000
00000000
00000000
00000000
00000000
,  // measure 30
00001000
00000100
00000010
00000001
00000100
00000000
00000100
00000000
,  // measure 31
00001000
00010000
00100000
10000000
00000000
00010000
00000000
00000000
,  // measure 32
10000000
01000000
10000000
00010000
00100000
00010000
01000000
00100000
,  // measure 33
10000000
00000000
00000000
00010000
00000000
00000000
10000000
00000000
20020000
00000000
00000000
00000000
30030000
00000000
00000000
00000000
,  // measure 34
10000000
01000000
00000000
01000000
10000000
00000000
00010000
01000000
00000000
01000000
00010000
00000000
10000000
00010000
00000000
00000000
,  // measure 35
10000000
01000000
10000000
01000000
10000000
00010000
10000000
00010000
01000000
00010000
01000000
00010000
01000000
00100000
01000000
00100000
,  // measure 36
01000000
00100000
10000000
00010000
01000000
00010000
00100000
00001000
,  // measure 37
00010000
00000100
00010000
01000000
10000000
00100000
00010000
00001000
,  // measure 38
00000010
00000001
00000100
00000010
00001000
00000100
00010000
00001000
,  // measure 39
00010000
01000000
00000000
00010000
00001000
00000000
00000100
00001000
00000000
00010000
01000000
00000000
00010000
00001000
00000000
00000000
,  // measure 40
00010000
01000000
00010000
00001000
00000100
00000001
00000010
00000100
,  // measure 41
00001000
00000100
00000010
00001000
00000010
00000001
00000100
00001000
,  // measure 42
00010000
00100000
00010000
00001000
00000100
00001000
00010000
01000000
,  // measure 43
10000000
00010000
00100000
01000000
10000000
00100000
01000000
00010000
,  // measure 44
00100000
01000000
00010000
00001000
00000100
00000001
00000010
00000001
,  // measure 45
00001000
00000010
00001000
00000100
00010000
00001000
00010000
01000000
,  // measure 46
00100000
00010000
10000000
00100000
10000000
00010000
10000000
01000000
,  // measure 47
00010000
00001000
00000010
00000001
00000100
00001000
00010000
00001000
,  // measure 48
00011000
01010000
11000000
10100000
,  // measure 49
00110000
00011000
00001100
00000101
,  // measure 50
00000011
00001010
00011000
00011000
,  // measure 51
00010000
00001000
00000000
00000010
00001000
00000000
00010000
00100000
00000000
00010000
00001000
00000000
00000010
00001000
00000000
00000000
,  // measure 52
00011000
00000000
00010000
01000000
00000000
00010000
00001000
00000100
,  // measure 53
00001000
00000000
00010000
00001000
00000000
00001000
00000100
00000001
,  // measure 54
00000010
00000000
00000001
00001000
00000000
00000100
00000000
00001000
,  // measure 55
00000001
00000100
00000001
00000100
00000001
00001000
00000001
00001000
00000100
00001000
00000100
00001000
00000100
00000010
00000100
00000010
,  // measure 56
00000001
00000001
00001000
00002000
00000000
00003100
00000000
00010000
,  // measure 57
00000000
00001000
00010000
00000000
01000000
00000000
00010000
00000000
00001000
00000000
00000100
00000000
00000001
00000000
00000010
00000000
,  // measure 58
00000100
00001000
00000100
00020000
00000000
01030000
00000000
00000000
,  // measure 59
10000000
00100000
00000000
01000000
00001000
00000000
00010000
00001000
00000000
00100000
00010000
00000000
00100000
00000000
01000000
00000000
,  // measure 60
01000000
10000000
10000000
00020000
00000000
01030000
00000000
00010000
,  // measure 61
00000000
00100000
00010000
00000000
10000000
00000000
01000000
00000000
00010000
00000000
00001000
00000000
00000100
00000000
00000010
00000000
,  // measure 62
00001000
00000001
00001000
00002000
00000000
00003100
00000000
00000000
,  // measure 63
00010000
00001000
00000000
00001000
00010000
00000000
00010000
00001000
00000000
00001000
00010000
00000000
00000000
00001000
00000000
00000000
,  // measure 64
00022000
00000000
00000000
00000000
,  // measure 65
00000000
00000000
00033000
00011000
;
