#TITLE:LOVE;
#SUBTITLE:;
#ARTIST:SONIC DREAM;
#TITLETRANSLIT:;
#SUBTITLETRANSLIT:;
#ARTISTTRANSLIT:;
#CREDIT:;
#BANNER:LOVE.png;
#BACKGROUND:LOVE-bg.png;
#LYRICSPATH:;
#CDTITLE:Dance Dance Revolution 2nd Link Version.png;
#MUSIC:LOVE.ogg;
#OFFSET:0.000;
#SAMPLESTART:50.214;
#SAMPLELENGTH:15.000;
#SELECTABLE:YES;
#DISPLAYBPM:129.000;
#BPMS:0.000=128.906,4.000=129.029;
#STOPS:;
#BGCHANGES:;

//---------------dance-single - ----------------
#NOTES:
     dance-single:
     :
     Easy:
     3:
     0.203,0.283,0.179,0.000,0.000:
0000
0000
0000
0000
,
0000
0000
0000
0000
,
0000
0000
0000
0000
,
0000
0000
0000
0000
,
0000
0000
0000
0000
,
0000
0000
0000
0000
,
1000
0000
1000
0000
,
0001
0000
0001
0000
,
1001
0000
1001
0000
,
0010
0000
0100
0000
,
0010
0000
0000
0000
,
1000
0000
0000
0000
,
0100
0000
0000
0000
,
0001
0000
0000
0000
,
0010
0000
0000
0000
,
1000
0000
0000
0000
,
0100
0000
0000
0000
,
0001
0000
0000
0000
,
0010
1000
0100
0001
,
1000
0100
0001
0100
,
0010
1000
0100
0001
,
1000
0100
0001
0100
,
0010
1000
0100
0001
,
1001
0000
1001
0000
,
0001
0100
1000
0100
,
0001
0001
0001
0000
,
0010
0000
0100
0000
,
1001
0000
0000
0000
,
1000
0100
1000
0100
,
0001
0100
0001
0100
,
0010
1001
0010
1001
,
0010
1000
0100
0001
,
1000
0010
0100
0001
,
0010
1001
0010
1001
,
0001
0001
0001
0000
,
1001
0000
0000
0000
,
1000
0100
1000
0100
,
0001
0100
0001
0100
,
0010
1001
0010
1001
,
0010
1000
0100
0001
,
1000
0010
0100
0001
,
0010
1001
0010
1001
,
0001
0001
0001
0000
,
1001
0000
0000
0000
;

//---------------dance-single - ----------------
#NOTES:
     dance-single:
     :
     Medium:
     5:
     0.276,0.334,0.406,0.000,0.000:
0000
0000
0000
0000
,
0000
0000
0000
0000
,
0000
0000
0000
0000
,
0000
0000
0000
0000
,
0000
0000
0000
0000
,
0000
0000
0000
0000
,
1000
0001
1000
0000
0000
0000
1001
0000
,
0010
1000
0100
0001
,
1000
0001
1000
0000
0000
0000
1001
0000
,
0000
0010
0000
0100
,
0010
0010
0000
0000
,
1000
1000
0000
0000
,
0100
0100
0000
0000
,
0001
1000
0010
0100
,
0010
0010
0000
0000
,
1000
1000
0000
0000
,
0100
0100
0000
0000
,
0001
1000
0010
0100
,
0010
1000
0100
0001
,
1001
0110
1001
0000
,
0010
1000
0100
0001
,
1001
0110
1001
0000
,
0010
1000
0100
0001
,
1001
1100
1001
0101
,
0001
0100
1000
0100
,
0001
0001
1001
0000
,
0010
0000
0100
0000
,
1000
0001
1000
0000
0000
0000
1001
0000
,
0010
1000
0100
0001
,
1000
0100
0001
0100
,
1001
1100
1001
0101
,
0010
1000
0100
0001
,
1000
0010
0100
0001
,
1001
1100
1001
0101
,
0001
0001
1001
0000
,
1000
0001
1000
0000
0000
0000
1001
0000
,
0010
1000
0100
0001
,
1000
0100
0001
0100
,
1001
1100
1001
0101
,
0010
1000
0100
0001
,
1000
0010
0100
0001
,
1001
1100
1001
0101
,
0001
0001
1001
0000
,
1001
0000
0000
0000
;

//---------------dance-single - ----------------
#NOTES:
     dance-single:
     :
     Hard:
     7:
     0.311,0.334,0.239,0.000,0.108:
0000
0000
0000
0000
,
0000
0000
0000
0000
,
0000
0000
0000
0000
,
0000
0000
0000
0000
,
0000
0000
0000
0000
,
0000
0000
0000
0000
,
1000
0001
1000
0000
0000
0001
0000
1000
,
0000
0001
0000
1000
0000
0001
0000
0000
,
0000
0000
1001
0000
0000
0010
0000
0100
,
0000
0001
1000
0000
0010
0000
0100
0000
,
0010
0000
0000
0000
0010
0000
0000
0010
0000
0000
0000
0000
0000
0000
0000
0000
,
1000
0000
0000
0000
1000
0000
0000
1000
0000
0000
0000
0000
0000
0000
0000
0000
,
0100
0000
0000
0000
0100
0000
0000
0100
0000
0000
0000
0000
0000
0000
0000
0000
,
0001
0000
0000
0000
0001
0000
0000
0001
0000
0000
1000
0000
0010
0000
0100
0000
,
0010
0000
0000
0000
0010
0000
0000
0010
0000
0000
0000
0000
0000
0000
0000
0000
,
1000
0000
0000
0000
1000
0000
0000
1000
0000
0000
0000
0000
0000
0000
0000
0000
,
0100
0000
0000
0000
0100
0000
0000
0100
0000
0000
0000
0000
0000
0000
0000
0000
,
0001
0000
0000
0000
0001
0000
0000
0001
0000
0000
1000
0000
0100
0000
0010
0000
,
1000
0100
0001
0010
,
1100
0011
1100
0011
,
1000
0100
0001
0010
,
1100
0011
1100
0011
,
1000
0100
0001
0010
,
1001
0110
1001
0110
,
0001
0100
1000
0100
,
0001
0001
0001
0000
,
0010
0000
1000
1000
0001
0001
0100
0100
,
1001
0000
0000
0000
0000
1000
0001
1000
,
0000
0000
0010
0000
0010
0000
0000
0000
1000
0000
0000
1000
0000
0000
1000
0000
,
0000
0000
0001
0000
0001
0000
0000
0000
0100
0000
0000
0100
0000
0000
0100
0000
,
0000
0000
1000
0000
1000
0000
0000
0000
0010
0000
0000
0010
0000
0000
0010
0000
,
0000
0100
0100
0000
0001
1000
0001
1000
,
0000
0000
0001
0000
0001
0000
0000
0000
0010
0000
0000
0010
0000
0000
0010
0000
,
0000
0000
1000
0000
1000
0000
0000
0000
0100
0000
0000
0100
0000
0000
0100
0000
,
0000
0010
0010
0000
1001
0000
0110
0000
,
1001
0000
0000
0000
0000
1000
0001
1000
,
0000
0000
0010
0000
0010
0000
0000
0000
1000
0000
0000
1000
0000
0000
1000
0000
,
0000
0000
0001
0000
0001
0000
0000
0000
0100
0000
0000
0100
0000
0000
0100
0000
,
0000
0000
1000
0000
1000
0000
0000
0000
0010
0000
0000
0010
0000
0000
0010
0000
,
0000
0100
0100
0000
0001
1000
0001
1000
,
0000
0000
0001
0000
0001
0000
0000
0000
0010
0000
0000
0010
0000
0000
0010
0000
,
0000
0000
1000
0000
1000
0000
0000
0000
0100
0000
0000
0100
0000
0000
0100
0000
,
0000
0010
0010
0000
1001
0000
0110
0000
,
1001
0000
0000
0000
;

//---------------dance-single - ----------------
#NOTES:
     dance-single:
     :
     Challenge:
     9:
     0.555,0.539,0.048,0.000,0.364:
0000
0000
0000
0000
,
0000
0000
0000
0000
,
0000
0000
0000
0000
,
0000
0000
0000
0000
,
0000
0000
0000
0000
,
0001
0000
0000
0000
1000
0100
0000
0000
0001
0000
0000
0000
1000
0100
0000
0000
,
0001
0000
0000
0000
0001
0000
0000
0010
0100
0000
1000
0000
0010
0000
0100
0000
,
0000
0000
0001
0000
0001
0000
0000
0000
1000
0000
0000
0100
0000
0000
0010
0000
,
0001
0000
0000
0000
1000
0000
0000
0100
0010
0000
0001
0000
0100
0000
0010
0000
,
0000
0010
1001
0000
1100
0000
0101
0000
,
0010
0000
0100
0000
0010
0000
0001
0100
0000
0000
0010
0000
1000
0000
0000
0000
,
0001
0000
0010
0000
0010
0000
0100
1000
0000
0000
0001
0000
0100
0000
0010
0000
,
1000
0000
1000
0000
0100
0000
0010
0001
0000
0000
1000
0000
0100
0000
0000
0000
,
0010
0000
0001
0000
0010
0000
0100
0001
0000
0000
0100
0000
0010
0000
0001
0000
,
0100
0000
0100
0000
0100
0000
0010
1000
0000
0000
0001
0000
0001
0000
0000
0000
,
0010
0000
0100
0000
1000
0000
0010
0100
0000
0000
0100
0000
0001
0000
0010
0000
,
0100
0000
1000
0000
0001
0000
0001
0100
0000
0000
0010
0000
1000
0000
0000
0000
,
0001
0100
0001
0000
1000
0100
1000
0000
0001
0000
0100
0000
0010
0000
1000
0000
,
0100
0000
0010
0000
0001
0010
0000
0000
0100
0000
1000
0000
0001
0000
0100
0000
,
0010
1000
0010
0000
0100
0000
0100
0000
0001
0010
0001
0000
1000
0000
1000
0000
,
0100
0000
0010
0000
0001
0010
0000
0000
0100
0000
1000
0000
0001
0000
0100
0000
,
0010
1000
0010
0000
0100
0000
0001
0000
0010
0100
0010
0000
0001
0000
0100
0000
,
0010
0000
1000
0000
0001
0100
0000
0000
0010
0000
1000
0000
0100
0000
0010
0000
,
0001
0100
0001
0000
0010
0000
1000
0000
0001
0100
0001
0000
0010
0000
0100
0000
,
1000
0001
1000
0000
0010
0000
0100
0000
0001
0000
0100
0000
0010
0000
1000
0000
,
0100
0010
0100
0000
1000
0000
0010
0000
0100
0001
0100
0000
0010
0000
1000
0000
,
0100
0000
0010
0010
0001
0001
0100
0100
,
0010
0000
1000
0100
1000
0000
1000
0000
0001
0000
0100
0010
0100
0000
0000
0000
,
0001
0000
1000
0100
1000
0000
0001
0000
0100
0000
0010
1000
0010
0000
0000
0000
,
0100
0000
0001
0010
0001
0000
1000
0000
0100
0000
0010
0001
0010
0000
0000
0000
,
1000
0000
0100
0010
0100
0000
1000
0000
0001
0100
0001
0000
1000
0000
0100
0000
,
0010
0000
0001
1000
0001
0000
0100
0000
0010
0000
1000
0001
0100
0000
0000
0000
,
0010
0000
1000
0100
1000
0000
0010
0000
0100
0000
0001
1000
0100
0000
0000
0000
,
0010
0000
0001
0100
0001
0000
0010
0000
0100
0000
1000
0001
0100
0000
0000
0000
,
0010
0000
1000
0001
0100
0000
0010
1000
0001
0000
0010
0000
0100
1000
0001
0000
,
0100
0000
0010
0000
1000
0100
0010
0000
0001
0000
1000
0100
0001
0000
0000
0000
,
0100
0000
1000
0000
0010
0100
0001
0000
1000
0000
0100
0010
0001
0000
0000
0000
,
0100
0000
0010
0000
1000
0001
0010
0000
0100
0000
1000
0001
0100
0000
0000
0000
,
0010
1000
0001
0000
0100
0000
0010
1000
0001
0000
0100
0000
0010
1000
0001
0000
,
0010
0000
0100
0000
1000
0010
1000
0000
0001
0100
0001
0000
1000
0000
0000
0000
,
0100
0000
0010
0000
0001
1000
0001
0000
0100
0010
1000
0000
0001
0000
0000
0000
,
0010
0000
0100
0000
1000
0010
0100
0000
0001
0010
0100
0000
1000
0000
0000
0000
,
0001
0100
0001
0000
0000
0000
1000
0100
1000
0000
0000
0000
0010
0100
0001
0000
,
1100
0000
0000
0000
;

//---------------dance-double - ----------------
#NOTES:
     dance-double:
     :
     Easy:
     3:
     0.207,0.283,0.203,0.000,0.000:
00000000
00000000
00000000
00000000
,
00000000
00000000
00000000
00000000
,
00000000
00000000
00000000
00000000
,
00000000
00000000
00000000
00000000
,
00000000
00000000
00000000
00000000
,
00000000
00000000
00000000
00000000
,
00010000
00000000
10000000
00000000
,
00001000
00000000
00000001
00000000
,
00000110
00000000
00011000
00000000
,
01100000
00000000
00011000
00000000
,
00100000
00000000
00000000
00000000
,
10000000
00000000
00000000
00000000
,
01000000
00000000
00000000
00000000
,
00010000
00000000
00000000
00000000
,
00001000
00000000
00000000
00000000
,
00000100
00000000
00000000
00000000
,
00000001
00000000
00000000
00000000
,
00000010
00000000
00000000
00000000
,
00001000
00010000
01000000
10000000
,
00100000
10000000
01000000
10000000
,
00010000
00001000
00000100
00000001
,
00000010
00000001
00000100
00000001
,
00001000
00010000
01000000
10000000
,
10010000
00000000
01100000
00000000
,
00010000
00001000
00000100
00000001
,
00001000
00001000
00001000
00000000
,
00100000
00000000
00000100
00000000
,
00011000
00000000
00000000
00000000
,
00010000
00001000
00000100
00000001
,
00000010
00000001
00000100
00000001
,
00001000
00000110
00001000
00000110
,
00001000
00010000
01000000
10000000
,
00100000
10000000
01000000
10000000
,
00010000
01100000
00010000
01100000
,
00010000
00001000
00000100
00000000
,
00011000
00000000
00000000
00000000
,
00001000
00010000
01000000
10000000
,
00100000
10000000
01000000
10000000
,
00010000
01100000
00010000
01100000
,
00010000
00001000
00000100
00000001
,
00000010
00000001
00000100
00000001
,
00001000
00000110
00001000
00000110
,
00001000
00010000
01000000
00000000
,
00010100
00000000
00000000
00000000
;

//---------------dance-double - ----------------
#NOTES:
     dance-double:
     :
     Medium:
     5:
     0.278,0.334,0.418,0.000,0.000:
00000000
00000000
00000000
00000000
,
00000000
00000000
00000000
00000000
,
00000000
00000000
00000000
00000000
,
00000000
00000000
00000000
00000000
,
00000000
00000000
00000000
00000000
,
00000000
00000000
00000000
00000000
,
00001000
00010000
00001000
00000000
00000000
00000000
00011000
00000000
,
00100000
10000000
01000000
00010000
,
00001000
00010000
00001000
00000000
00000000
00000000
00011000
00000000
,
00000000
00000010
00000000
00000100
,
00001000
00001000
00000000
00000000
,
00010000
00010000
00000000
00000000
,
01000000
01000000
00000000
00000000
,
00010000
00001000
00000010
00000100
,
00001000
00001000
00000000
00000000
,
00010000
00010000
00000000
00000000
,
01000000
01000000
00000000
00000000
,
00010000
00001000
00000010
00000100
,
00000010
00001000
00000100
00000001
,
00001001
00011000
10010000
00000000
,
00100000
10000000
01000000
00010000
,
10010000
00011000
00001001
00000000
,
00000010
00001000
00000100
00000001
,
00001001
00001100
00011000
01010000
,
00010000
01000000
10000000
01000000
,
00010000
00011000
00001001
00000000
,
00000010
00000000
00000100
00000000
,
00001000
00010000
00001000
00000000
00000000
00000000
00011000
00000000
,
00100000
00001000
00000100
00000001
,
00001000
00000100
00010000
01000000
,
10010000
01010000
00011000
00001100
,
00000010
00001000
01000000
10000000
,
00010000
01000000
00001000
00000100
,
00001001
00001100
00011000
01010000
,
10000000
00010000
00001010
00000000
,
00001000
00010000
00001000
00000000
00000000
00000000
00011000
00000000
,
00000010
00001000
01000000
10000000
,
00010000
01000000
10000000
01000000
,
10010000
01010000
00011000
00001100
,
00000010
00001000
01000000
10000000
,
00100000
00010000
00001000
00000001
,
00001100
00101000
10010000
01001000
,
00010000
00001000
00001001
00000000
,
00101000
00000000
00000000
00000000
;

//---------------dance-double - ----------------
#NOTES:
     dance-double:
     :
     Hard:
     7:
     0.396,0.385,0.036,0.000,0.024:
00000000
00000000
00000000
00000000
,
00000000
00000000
00000000
00000000
,
00000000
00000000
00000000
00000000
,
00000000
00000000
00000000
00000000
,
00000000
00000000
00000000
00000000
,
00000000
00000000
00000000
00000000
,
00001000
00100000
00010000
00000000
00000000
10000000
01000000
00100000
,
00000000
00000000
00001000
00000000
00001000
00000000
00000000
00000000
00010000
00000000
00000000
00000100
00000000
00000000
00000010
00000000
,
00000000
00000000
00001001
00000000
00000000
00000010
00000100
00010000
,
00000000
00000000
00001000
00000000
00001000
00000000
00000000
00000000
00100000
00000000
00000000
01000000
00000000
00000000
10000000
00000000
,
00010000
00000000
00100000
00000000
00001000
00010000
00001000
00000000
,
00010000
00000000
00000100
00000000
00000010
00000001
00000100
00000010
,
00000000
00000000
00010000
00000000
00010000
00000000
00000000
00000000
00001000
00000000
00000000
00100000
00000000
00000000
01000000
00000000
,
00000000
10000000
10000000
00000000
00010000
01000000
00001000
00010000
,
00000010
00000000
00000100
00000000
00000001
00001000
00000100
00000000
,
00010000
00000000
00001000
00000000
00100000
00010000
10000000
00100000
,
00000000
00000000
01000000
00000000
01000000
00000000
00000000
00000000
00001000
00000000
00000000
00010000
00000000
00000000
00000100
00000000
,
00000000
00000010
00000010
00000000
00000001
00000100
00000010
00010000
,
00000000
00001000
00000000
00100000
00000000
01000000
10000000
00100000
,
01000000
01000000
00001000
00001000
00010000
00010000
00000100
00000100
,
00000000
00000010
00000000
00000001
00000000
00001000
00000100
00010000
,
00000010
00000010
00001000
00001000
00000100
00000100
00010000
00010000
,
00000000
00001000
00000000
00100000
00000000
00010000
10000000
01000000
,
00100000
00100000
00001000
00001000
01000000
00000000
00010000
00010000
,
00000000
00100000
00001000
00010000
00000100
00000010
00000001
00001000
,
00000100
00010000
00000010
00000100
00000000
00000001
00000000
00001000
,
00001000
00000000
00000100
00000100
00010000
00010000
00001000
00001000
,
00100000
00000000
00010000
00010000
01000000
00100000
10000000
01000000
,
00100000
00000000
00001000
00001000
00010000
00000100
00000010
00000001
,
00000100
00000000
00000010
00000010
00010000
00001000
00100000
00010000
,
01000000
00000000
00100000
10000000
01000000
00100000
00001000
00010000
,
00000100
00000000
00000010
00000001
00000100
00000010
00010000
00001000
,
00100000
00000000
00010000
10000000
01000000
00100000
00001000
00010000
,
00000100
00000000
00000010
00000001
00000100
00000010
00001000
00000100
,
00010000
00000000
00001000
00100000
00010000
00000000
00011000
00000000
,
00000100
00000000
00000010
00000010
00000001
00000100
00000010
00010000
,
00001000
00000000
00100000
00100000
00010000
10000000
01000000
00100000
,
00001000
00000000
01000000
01000000
00010000
10000000
01000000
00100000
,
00001000
00000000
00010000
00000100
00000010
00000001
00000100
00000010
,
00010000
00000000
00001000
00100000
01000000
10000000
00100000
01000000
,
00001000
00000000
00010000
00000100
00001000
00000010
00000100
00001000
,
00010000
00000000
00001000
00100000
00010000
10000000
01000000
00100000
,
00001000
00000000
00010000
00000100
00000000
00000000
00000000
00000000
,
00001001
00000000
00000000
00000000
;

//---------------dance-couple - ----------------
#NOTES:
     dance-couple:
     :
     Easy:
     3:
     0.314,0.437,0.884,0.000,0.000:
00000000
00000000
00000000
00000000
,
00000000
00000000
00000000
00000000
,
00000000
00000000
00000000
00000000
,
00000000
00000000
00000000
00000000
,
00000000
00000000
00000000
00000000
,
00000000
00000000
00000000
00000000
,
10000000
00000000
00001000
00000000
,
00010000
00000000
00000001
00000000
,
10010000
00000000
00001001
00000000
,
00100000
00000000
00000100
00000000
,
00100010
00000000
00000000
00000000
,
10001000
00000000
00000000
00000000
,
01000100
00000000
00000000
00000000
,
00010001
00000000
00000000
00000000
,
00100010
00000000
00000000
00000000
,
10001000
00000000
00000000
00000000
,
01000100
00000000
00000000
00000000
,
00010001
00000000
00000000
00000000
,
00100000
10000000
01000000
00010000
,
00000010
00001000
00000100
00000001
,
10000000
01000000
00010000
01000000
,
00001000
00000100
00000001
00000100
,
00100010
10001000
01000100
00010001
,
10010000
00000000
00001001
00000000
,
00010001
01000100
10001000
01000100
,
00011000
00011000
00011000
00000000
,
00100010
00000000
01000100
00000000
,
10011001
00000000
00000000
00000000
,
10000001
01000100
10000001
01000100
,
00011000
01000100
00011000
01000100
,
00100000
10010000
00000010
00001001
,
00100010
10000001
01000100
00011000
,
10000001
00100010
01000100
00011000
,
00100000
10010000
00000010
00001001
,
00011000
00011000
00011000
00000000
,
10011001
00000000
00000000
00000000
,
10000001
01000100
10000001
01000100
,
00011000
01000100
00011000
01000100
,
00100000
10010000
00000010
00001001
,
00100010
10000001
01000100
00011000
,
10000001
00100010
01000100
00011000
,
00100000
10010000
00000010
00001001
,
00011000
00011000
00011000
00000000
,
10011001
00000000
00000000
00000000
;

//---------------dance-couple - ----------------
#NOTES:
     dance-couple:
     :
     Medium:
     5:
     0.464,0.514,1.000,0.000,0.000:
00000000
00000000
00000000
00000000
,
00000000
00000000
00000000
00000000
,
00000000
00000000
00000000
00000000
,
00000000
00000000
00000000
00000000
,
00000000
00000000
00000000
00000000
,
00000000
00000000
00000000
00000000
,
10000001
00011000
10000001
00000000
00000000
00000000
10011001
00000000
,
00100010
10000001
01000100
00011000
,
10000001
00011000
10000001
00000000
00000000
00000000
10011001
00000000
,
00000000
00100010
00000000
01000100
,
00100010
00100010
00000000
00000000
,
10000001
10000001
00000000
00000000
,
01000100
01000100
00000000
00000000
,
00011000
10000001
00100010
01000100
,
00100010
00100010
00000000
00000000
,
10000001
10000001
00000000
00000000
,
01000100
01000100
00000000
00000000
,
00011000
10000001
00100010
01000100
,
00100010
10000001
01000100
00011000
,
10010000
00000110
10010000
00000000
,
00100010
10000001
01000100
00011000
,
00001001
01100000
00001001
00000000
,
00100010
10000001
01000100
00011000
,
11000000
00000101
01010000
00001100
,
00011000
01000100
10000001
01000100
,
10000001
10000001
00111100
00000000
,
00100010
00000000
01000100
00000000
,
10000001
00011000
10000001
00000000
00000000
00000000
10011001
00000000
,
00100010
10000001
01000100
00011000
,
10000001
01000100
00011000
01000100
,
11000000
00000101
01010000
00001100
,
00100010
10000001
01000100
00011000
,
10000001
00100010
01000100
00011000
,
11000000
00000101
01010000
00001100
,
10000001
10000001
01011010
00000000
,
10000001
00011000
10000001
00000000
00000000
00000000
10011001
00000000
,
00100010
10000001
01000100
00011000
,
10000001
01000100
00011000
01000100
,
11000000
00000101
01010000
00001100
,
00100010
10000001
01000100
00011000
,
10000001
00100010
01000100
00011000
,
11000000
00000101
01010000
00001100
,
00011000
00011000
11000101
00000000
,
00111010
00000000
00000000
00000000
;

//---------------dance-couple - ----------------
#NOTES:
     dance-couple:
     :
     Hard:
     7:
     0.529,0.565,1.000,0.000,0.108:
00000000
00000000
00000000
00000000
,
00000000
00000000
00000000
00000000
,
00000000
00000000
00000000
00000000
,
00000000
00000000
00000000
00000000
,
00000000
00000000
00000000
00000000
,
00000000
00000000
00000000
00000000
,
10000001
00011000
10000001
00000000
00000000
00011000
00000000
10000001
,
00000000
00011000
00000000
10000001
00000000
00011000
00000000
00000000
,
00000000
00000000
10011001
00000000
00000000
00100010
00000000
01000100
,
00000000
00011000
10000001
00000000
00100010
00000000
01000100
00000000
,
00100000
00000000
00000000
00000000
00100000
00000000
00000000
00100000
00000000
00000000
00000000
00000000
00000000
00000000
00000000
00000000
,
00000001
00000000
00000000
00000000
00000001
00000000
00000000
00000001
00000000
00000000
00000000
00000000
00000000
00000000
00000000
00000000
,
01000000
00000000
00000000
00000000
01000000
00000000
00000000
01000000
00000000
00000000
00000000
00000000
00000000
00000000
00000000
00000000
,
00001000
00000000
00000000
00000000
00001000
00000000
00000000
00001000
00000000
00000000
10000001
00000000
00100010
00000000
01000100
00000000
,
00000010
00000000
00000000
00000000
00000010
00000000
00000000
00000010
00000000
00000000
00000000
00000000
00000000
00000000
00000000
00000000
,
10000000
00000000
00000000
00000000
10000000
00000000
00000000
10000000
00000000
00000000
00000000
00000000
00000000
00000000
00000000
00000000
,
00000100
00000000
00000000
00000000
00000100
00000000
00000000
00000100
00000000
00000000
00000000
00000000
00000000
00000000
00000000
00000000
,
00010000
00000000
00000000
00000000
00010000
00000000
00000000
00010000
00000000
00000000
10000001
00000000
01000100
00000000
00100010
00000000
,
10000001
01000100
00011000
00100010
,
00110000
00001010
11000000
00000101
,
10000001
01000100
00011000
00100010
,
11000000
00000101
00110000
00001010
,
10000001
01000100
00011000
00100010
,
10010000
00001001
01100000
00000110
,
00011000
01000100
10000001
01000100
,
00011000
10000001
00011000
00000000
,
00100010
00000000
10000000
00000001
00010000
00001000
01000000
00000100
,
10011001
00000000
00000000
00000000
00000000
10000001
00011000
10000001
,
00000000
00000000
00100010
00000000
00100010
00000000
00000000
00000000
10000001
00000000
00000000
10000001
00000000
00000000
10000001
00000000
,
00000000
00000000
00011000
00000000
00011000
00000000
00000000
00000000
01000100
00000000
00000000
01000100
00000000
00000000
01000100
00000000
,
00000000
00000000
10000001
00000000
10000001
00000000
00000000
00000000
00100010
00000000
00000000
00100010
00000000
00000000
00100010
00000000
,
00000000
01000100
01000100
00000000
00011000
10000001
00011000
10000001
,
00000000
00000000
00011000
00000000
00011000
00000000
00000000
00000000
00100010
00000000
00000000
00100010
00000000
00000000
00100010
00000000
,
00000000
00000000
10000001
00000000
10000001
00000000
00000000
00000000
01000100
00000000
00000000
01000100
00000000
00000000
01000100
00000000
,
00000000
00100010
00100010
00000000
01101001
00000000
10010110
00000000
,
01101001
00000000
00000000
00000000
00000000
10000001
00011000
10000001
,
00000000
00000000
00100010
00000000
00100010
00000000
00000000
00000000
10000001
00000000
00000000
10000001
00000000
00000000
10000001
00000000
,
00000000
00000000
00011000
00000000
00011000
00000000
00000000
00000000
01000100
00000000
00000000
01000100
00000000
00000000
01000100
00000000
,
00000000
00000000
10000001
00000000
10000001
00000000
00000000
00000000
00100010
00000000
00000000
00100010
00000000
00000000
00100010
00000000
,
00000000
01000100
01000100
00000000
00011000
10000001
00011000
10000001
,
00000000
00000000
00011000
00000000
00011000
00000000
00000000
00000000
00100010
00000000
00000000
00100010
00000000
00000000
00100010
00000000
,
00000000
00000000
10000001
00000000
10000001
00000000
00000000
00000000
01000100
00000000
00000000
01000100
00000000
00000000
01000100
00000000
,
00000000
00100010
00100010
00000000
10011001
00000000
11000101
00000000
,
00111010
00000000
00000000
00000000
;

//---------------dance-couple - ----------------
#NOTES:
     dance-couple:
     :
     Challenge:
     2:
     0.396,0.565,0.824,0.000,0.000:
00000000
00000000
00000000
00000000
,
00000000
00000000
00000000
00000000
,
00000000
00000000
00000000
00000000
,
00000000
00000000
00000000
00000000
,
00000000
00000000
00000000
00000000
,
00000000
00000000
00000000
00000000
,
10001000
00000000
10001000
00000000
,
00010001
00000000
00010001
00000000
,
10011001
00000000
10011001
00000000
,
00100010
00000000
01000100
00000000
,
10000000
10000001
00000000
00000001
,
00000001
10000001
00000000
10000000
,
01000001
01000000
00000001
00000000
,
00000001
00000000
10001000
00000000
00000010
00000100
10000010
00001000
,
00000100
10000100
00000000
10000000
,
10000000
10000001
00000000
00000001
,
00000100
10000100
00000000
10000000
,
00010000
00000000
10000001
00000000
00100000
01000000
00100001
10000000
,
01000000
01000001
00000000
00000001
,
00100000
10000000
01000000
00000000
00000010
00000001
00000100
00000000
,
00010000
01000000
00010000
00000000
00001000
00000100
00001000
00000000
,
00010000
10000000
01000000
00000000
00001000
00000001
00000100
00000000
,
10000000
01000000
10000000
00000000
00000001
00000100
00000001
00000000
,
01000000
10000000
00010000
00000000
00000100
00000001
00001000
00000000
,
00100000
00010000
01000000
00000000
00000010
00001000
00000100
00000000
,
00011000
10000001
00011000
10000001
00100010
10000001
01000100
00000000
,
10010000
00001001
10010000
00001001
,
00100010
10001000
01000100
00000000
00000000
00000000
00000000
00000000
,
10001000
01000100
00010001
01000100
,
10001000
01000100
00010001
01000100
,
00001001
10010000
00000110
01100000
,
00011000
10000001
01000100
00000000
00010001
00000000
01000100
00000000
,
10001000
01000100
00010001
10001000
,
01000100
01000100
00010001
10001000
,
01000100
00000000
00000000
00000000
,
00100010
10001000
01000100
00000000
00010001
00000000
01000100
00000000
,
00001000
00000001
00001000
00000000
00010000
10000000
00010000
00000000
,
00000001
00000010
00000100
00000000
10000000
00100000
01000000
00000000
,
00000010
00000100
00001000
00000000
00100000
01000000
00010000
00000000
,
00000001
00001000
00000100
00000000
10000000
00010000
01000000
00000000
,
00000001
10000000
00000001
10000000
,
00000100
01000000
00000100
01000000
,
10000001
00011000
01000100
01000100
,
00100010
00000000
00000000
00000000
;

//---------------dance-solo - ----------------
#NOTES:
     dance-solo:
     :
     Easy:
     3:
     0.203,0.283,0.179,0.000,0.000:
000000
000000
000000
000000
,
000000
000000
000000
000000
,
000000
000000
000000
000000
,
000000
000000
000000
000000
,
000000
000000
000000
000000
,
000000
000000
000000
000000
,
100000
000000
100000
000000
,
000001
000000
000001
000000
,
010010
000000
100001
000000
,
000100
000000
001000
000000
,
000100
000000
000000
000000
,
100000
000000
000000
000000
,
001000
000000
000000
000000
,
000001
000000
000000
000000
,
010000
000000
000000
000000
,
000010
000000
000000
000000
,
001000
000000
000000
000000
,
000001
000000
000000
000000
,
000100
100000
001000
000001
,
010000
001000
000010
001000
,
000100
100000
001000
000001
,
010000
000100
000010
000100
,
001000
100000
001000
000001
,
100001
000000
010010
000000
,
000001
001000
100000
001000
,
000001
000001
000001
000000
,
000100
000000
001000
000000
,
100001
000000
000000
000000
,
010000
001000
100000
001000
,
000001
001000
000010
001000
,
000100
100001
000100
100001
,
000010
010000
001000
000001
,
100000
000100
001000
000001
,
000100
100001
000100
100001
,
000010
000010
000010
000000
,
100001
000000
000000
000000
,
010000
001000
100000
001000
,
000001
001000
000010
001000
,
000100
100001
000100
100001
,
000010
010000
001000
000001
,
100000
000100
001000
000010
,
010000
100001
000100
100001
,
000010
000010
000010
000000
,
100001
000000
000000
000000
;

//---------------dance-solo - ----------------
#NOTES:
     dance-solo:
     :
     Medium:
     5:
     0.276,0.334,0.406,0.000,0.000:
000000
000000
000000
000000
,
000000
000000
000000
000000
,
000000
000000
000000
000000
,
000000
000000
000000
000000
,
000000
000000
000000
000000
,
000000
000000
000000
000000
,
100000
000001
100000
000000
000000
000000
010010
000000
,
000100
100000
001000
000001
,
010000
000010
010000
000000
000000
000000
100001
000000
,
000000
000100
000000
001000
,
000010
000010
000000
000000
,
100000
100000
000000
000000
,
001000
001000
000000
000000
,
000001
010000
000100
001000
,
000010
000010
000000
000000
,
100000
100000
000000
000000
,
001000
001000
000000
000000
,
010000
000001
100000
001000
,
000100
010000
001000
000001
,
100010
010100
100001
000000
,
000100
010000
001000
000001
,
100010
010100
100001
000000
,
000100
010000
001000
000001
,
100010
010001
001100
100001
,
000010
001000
000100
100000
,
000001
000001
010010
000000
,
000100
000000
001000
000000
,
100000
000001
100000
000000
000000
000000
010010
000000
,
000100
100000
001000
000001
,
100000
001000
000001
001000
,
100010
011000
001010
000101
,
000010
100000
001000
000001
,
010000
000100
001000
000010
,
100001
011000
000101
101000
,
000001
000001
010010
000000
,
100000
000001
100000
000000
000000
000000
010010
000000
,
000100
100000
001000
000001
,
010000
001000
000001
001000
,
100010
010100
000110
001001
,
000100
100000
001000
000001
,
010000
000100
001000
000010
,
100001
011000
100001
001010
,
000001
000001
010010
000000
,
100001
000000
000000
000000
;

//---------------dance-solo - ----------------
#NOTES:
     dance-solo:
     :
     Hard:
     7:
     0.311,0.334,0.239,0.000,0.108:
000000
000000
000000
000000
,
000000
000000
000000
000000
,
000000
000000
000000
000000
,
000000
000000
000000
000000
,
000000
000000
000000
000000
,
000000
000000
000000
000000
,
100000
000001
100000
000000
000000
000100
000000
010000
,
000000
000010
000000
000100
000000
010000
000000
000000
,
000000
000000
100001
000000
000000
000100
000000
001000
,
000000
000010
100000
000000
000100
000000
001000
000000
,
000100
000000
000000
000000
000100
000000
000000
000100
000000
000000
000000
000000
000000
000000
000000
000000
,
100000
000000
000000
000000
100000
000000
000000
100000
000000
000000
000000
000000
000000
000000
000000
000000
,
001000
000000
000000
000000
001000
000000
000000
001000
000000
000000
000000
000000
000000
000000
000000
000000
,
000001
000000
000000
000000
000001
000000
000000
000001
000000
000000
010000
000000
000100
000000
001000
000000
,
000010
000000
000000
000000
000010
000000
000000
000010
000000
000000
000000
000000
000000
000000
000000
000000
,
100000
000000
000000
000000
100000
000000
000000
100000
000000
000000
000000
000000
000000
000000
000000
000000
,
001000
000000
000000
000000
001000
000000
000000
001000
000000
000000
000000
000000
000000
000000
000000
000000
,
000001
000000
000000
000000
000001
000000
000000
000001
000000
000000
010000
000000
001000
000000
000100
000000
,
000001
001000
000010
000100
,
011000
000101
011000
000101
,
100000
001000
000001
010000
,
101000
010001
101000
010001
,
100000
001000
000001
010000
,
100010
001100
100010
001100
,
000010
100000
000100
001000
,
000001
000001
000001
000000
,
000100
000000
100000
100000
000010
000010
001000
001000
,
100001
000000
000000
000000
000000
010000
000010
010000
,
000000
000000
000100
000000
000100
000000
000000
000000
100000
000000
000000
100000
000000
000000
100000
000000
,
000000
000000
000001
000000
000001
000000
000000
000000
001000
000000
000000
001000
000000
000000
001000
000000
,
000000
000000
100000
000000
100000
000000
000000
000000
000100
000000
000000
000100
000000
000000
000100
000000
,
000000
001000
001000
000000
000001
100000
000001
010000
,
000000
000000
000010
000000
000010
000000
000000
000000
000100
000000
000000
000100
000000
000000
000100
000000
,
000000
000000
010000
000000
010000
000000
000000
000000
001000
000000
000000
001000
000000
000000
001000
000000
,
000000
000010
000010
000000
100001
000000
001100
000000
,
100001
000000
000000
000000
000000
010000
000010
010000
,
000000
000000
000100
000000
000100
000000
000000
000000
100000
000000
000000
100000
000000
000000
100000
000000
,
000000
000000
000010
000000
000010
000000
000000
000000
001000
000000
000000
001000
000000
000000
001000
000000
,
000000
000000
100000
000000
100000
000000
000000
000000
000100
000000
000000
000100
000000
000000
000100
000000
,
000000
001000
001000
000000
000010
100000
000001
010000
,
000000
000000
000010
000000
000010
000000
000000
000000
000100
000000
000000
000100
000000
000000
000100
000000
,
000000
000000
010000
000000
010000
000000
000000
000000
001000
000000
000000
001000
000000
000000
001000
000000
,
000000
000100
000100
000000
100001
000000
001100
000000
,
100001
000000
000000
000000
;

//---------------dance-double - Edit by silenttype01----------------
#NOTES:
     dance-double:
     Edit by silenttype01:
     Challenge:
     8:
     0.432,0.514,0.358,0.131,0.161:
00000000
00000000
00000000
00000000
,
00000000
00000000
00000000
00000000
,
00000000
00000000
00000000
00000000
,
00000000
00000000
00000000
00000000
,
00000000
00000000
00000000
00000000
,
00000000
00000000
00000000
00000000
,
00000000
00000000
00000000
00000000
,
00000000
00000000
00000000
00000000
,
00000000
00000000
00000000
00000000
,
00000000
00000000
00000000
00000000
,
00100000
00000000
00000000
00000000
00000000
00000000
00000000
00000000
00000000
00000000
00000000
00000000
00000000
00000000
00000000
00000000
00001000
00000000
00000000
00000000
00000000
00000000
00000000
00000000
00000000
00000000
00000000
00000000
00000000
00010000
00000000
00000000
00000000
00000000
00000000
00000000
00000000
00000000
00000000
00000000
00000000
00000000
00000000
00000000
00000000
00000000
00000000
00000000
00000000
00000000
00000000
00000000
00000000
00000000
00000000
00000000
01000000
00000000
00000000
00000000
00000000
00000000
00000000
00000000
,
10000000
00000000
00000000
00000000
00000000
00000000
00000000
00000000
00000000
00000000
00000000
00000000
00000000
00000000
00000000
00000000
00100000
00000000
00000000
00000000
00000000
00000000
00000000
00000000
00000000
00000000
00000000
00000000
00000000
00010000
00000000
00000000
00000000
00000000
00000000
00000000
00000000
00000000
00000000
00000000
00100000
00000000
00000000
00000000
00000000
00000000
00000000
00000000
00010000
00000000
00000000
00000000
00000000
00000000
00000000
00000000
00002000
00000000
00000000
00000000
00000000
00000000
00000000
00000000
,
00000020
00000000
00000000
00000000
00000000
00000000
00000000
00000000
00003000
00000000
00000000
00000000
00000000
00000000
00000000
00000000
00000031
00000000
00000000
00000000
00000000
00000000
00000000
00000000
00000000
00000000
00000000
00000000
00000000
00000100
00000000
00000000
00000000
00000000
00000000
00000000
00000000
00000000
00000000
00000000
00000000
00000000
00000000
00000000
00000000
00000000
00000000
00000000
00000000
00000000
00000000
00000000
00000000
00000000
00000000
00000000
00000000
00000000
00000000
00000000
00000000
00000000
00000000
00000000
,
00001010
00000000
00000000
00000000
00000000
00000000
00000000
00000000
00000000
00000000
00000000
00000000
00000000
00000000
00000000
00000000
00001010
00000000
00000000
00000000
00000000
00000000
00000000
00000000
00000000
00000000
00000000
00000000
00000000
00000000
00000000
00000000
00000000
00000000
00000000
00000000
00000000
00000001
00000000
00000000
00000100
00000000
00000000
00000000
00000000
00000000
00000000
00000000
00001000
00000000
00000000
00000000
00000000
00000000
00000000
00000000
00000100
00000000
00000000
00000000
00000000
00000000
00000000
00000000
,
00000010
00000000
00000000
00000000
00000000
00000000
00000000
00000000
00000000
00000000
00000000
00000000
00000000
00000000
00000000
00000000
00010000
00000000
00000000
00000000
00000000
00000000
00000000
00000000
00000000
00000000
00000000
00000000
00000000
00001000
00000000
00000000
00000000
00000000
00000000
00000000
00000000
00000000
00000000
00000000
00000000
00000000
00000000
00000000
00000000
00000000
00000000
00000000
00000000
00000000
00000000
00000000
00000000
00000000
00000000
00000000
00000100
00000000
00000000
00000000
00000000
00000000
00000000
00000000
,
00000001
00000000
00000000
00000000
00000000
00000000
00000000
00000000
00000000
00000000
00000000
00000000
00000000
00000000
00000000
00000000
00000010
00000000
00000000
00000000
00000000
00000000
00000000
00000000
00000000
00000000
00000000
00000000
00000000
00001000
00000000
00000000
00000000
00000000
00000000
00000000
00000000
00000000
00000000
00000000
00000010
00000000
00000000
00000000
00000000
00000000
00000000
00000000
00001000
00000000
00000000
00000000
00000000
00000000
00000000
00000000
00010000
00000000
00000000
00000000
00000000
00000000
00000000
00000000
,
00100000
00000000
00000000
00000000
00000000
00000000
00000000
00000000
00000000
00000000
00000000
00000000
00000000
00000000
00000000
00000000
10000000
00000000
00000000
00000000
00000000
00000000
00000000
00000000
00000000
00000000
00000000
00000000
00000000
01000000
00000000
00000000
00000000
00000000
00000000
00000000
00000000
00000000
00000000
00000000
00000000
00000000
00000000
00000000
00000000
00000000
00000000
00000000
00000000
00000000
00000000
00000000
00000000
00000000
00000000
00000000
00000000
00000000
00000000
00000000
00000000
00000000
00000000
00000000
,
00110000
00000000
00000000
00000000
00000000
00000000
00000000
00000000
00000000
00000000
00000000
00000000
00000000
00000000
00000000
00000000
00110000
00000000
00000000
00000000
00000000
00000000
00000000
00000000
00000000
00000000
00000000
00000000
00000000
00000000
00000000
00000000
00000000
00000000
00000000
00000000
00000000
10000000
00000000
00000000
01000000
00000000
00000000
00000000
00000000
00000000
00000000
00000000
00010000
00000000
00000000
00000000
00000000
00000000
00000000
00000000
01010000
00000000
00000000
00000000
00000000
00000000
00000000
00000000
,
00010000
01000000
10000000
00000000
00010000
01000000
10000000
00000000
,
00020000
00000000
00000000
00000000
00000000
00000000
00000000
00000000
00000000
00000000
00000000
00000000
00000000
00000000
00000000
00000000
00032000
00000000
00000000
00000000
00000000
00000000
00000000
00000000
00000000
00000000
00000000
00000000
00000000
00000000
00000000
00000000
00003010
00000000
00000000
00000000
00000000
00000000
00000000
00000000
00000000
00000000
00000000
00000000
00000000
00001000
00000000
00000000
00000000
00000000
00000000
00000000
00000000
00000000
00000000
00000000
00010000
00000000
00000000
00000000
00000000
00000000
00000000
00000000
,
00010000
00001000
00000010
00000000
00010000
00001000
00000010
00000000
,
00020000
00000000
00000000
00000000
00000000
00000000
00000000
00000000
00000000
00000000
00000000
00000000
00000000
00000000
00000000
00000000
00032000
00000000
00000000
00000000
00000000
00000000
00000000
00000000
00000000
00000000
00000000
00000000
00000000
00000000
00000000
00000000
00003020
00000000
00000000
00000000
00000000
00000000
00000000
00000000
00000000
00000000
00000000
00000000
00000030
00000001
00000000
00000000
00002000
00000000
00000000
00000000
00000000
00000000
00000000
00000000
00000001
00000000
00000000
00000000
00003000
00000000
00000000
00000000
,
00000200
00000000
00000301
00000100
00001000
00000000
00000001
00000100
,
00001000
00000000
00000001
00000100
00000000
00001000
00001000
00010000
,
00010000
00100000
00100000
00010000
00010000
00001000
00001000
00010000
,
00010000
00100000
00100000
20000000
00010000
00010000
30010000
00100000
,
01000000
00000000
00000000
00000000
00000000
00000000
00000000
00000000
00000000
00000000
00000000
00000000
00000000
01000000
00000000
00000000
10000000
00000000
00000000
00000000
00000000
00000000
00000000
00000000
01000000
00000000
00000000
00000000
00000000
00000000
00000000
00000000
01000000
00000000
00000000
00000000
00000000
00000000
00000000
00000000
00000000
00000000
00000000
00000000
00000000
01000000
00000000
00000000
10000000
00000000
00000000
00000000
00000000
00000000
00000000
00000000
00000000
00000000
00000000
00000000
00000000
00000000
00000000
00000000
,
11000000
00000000
00000000
00000000
00000000
00000000
00000000
00000000
00000000
00000000
00000000
00000000
00000000
00000000
00000000
00000000
00110000
00000000
00000000
00000000
00000000
00000000
00000000
00000000
00000000
00000000
00000000
00000000
00000000
01000000
00000000
00000000
10000000
00000000
00000000
00000000
00000000
00000000
00000000
00000000
01000000
00000000
00000000
00000000
00000000
00000000
00000000
00000000
00100000
00000000
00000000
00000000
00000000
00000000
00000000
00000000
00110000
00000000
00000000
00000000
00000000
00000000
00000000
00000000
,
00000000
00000000
00000000
00000000
00000000
00000000
00000000
00000000
01000000
00000000
00000000
00000000
00000000
00000000
00000000
00000000
01010000
00000000
00000000
00000000
00000000
00000000
00000000
00000000
00000000
00000000
00000000
00000000
00000000
00100000
00000000
00000000
10000000
00000000
00000000
00000000
00000000
00000000
00000000
00000000
01000000
00000000
00000000
00000000
00000000
00000000
00000000
00000000
00100000
00000000
00000000
00000000
00000000
00000000
00000000
00000000
00110000
00000000
00000000
00000000
00000000
00000000
00000000
00000000
,
00000000
00000000
00000000
00000000
00000000
00000000
00000000
00000000
11000000
00000000
00000000
00000000
00000000
00000000
00000000
00000000
11000000
00000000
00000000
00000000
00000000
00000000
00000000
00000000
00000000
00000000
00000000
00000000
00000000
01000000
00000000
00000000
00010000
00000000
00000000
00000000
00000000
00000000
00000000
00000000
00000100
00000000
00000000
00000000
00000000
00000000
00000000
00000000
00001000
00000000
00000000
00000000
00000000
00000000
00000000
00000000
00000001
00000000
00000000
00000000
00000000
00000000
00000000
00000000
,
00000001
00000000
00000000
00000000
00000000
00000000
00000000
00000000
00000100
00000000
00000000
00000000
00000000
00000000
00000000
00000000
00000110
00000000
00000000
00000000
00000000
00000000
00000000
00000000
00000000
00000000
00000000
00000000
00000000
00001000
00000000
00000000
00000001
00000000
00000000
00000000
00000000
00000000
00000000
00000000
00000000
00000000
00000000
00000000
00000000
00000000
00000000
00000000
00000110
00000000
00000000
00000000
00000000
00000000
00000000
00000000
00000000
00000000
00000000
00000000
00000000
00000000
00000000
00000000
,
00001010
00000000
00000000
00000000
00000000
00000000
00000000
00000000
00000000
00000000
00000000
00000000
00000000
00000000
00000000
00000000
00000101
00000000
00000000
00000000
00000000
00000000
00000000
00000000
00000000
00000000
00000000
00000000
00000000
00000001
00000000
00000000
00000100
00000000
00000000
00000000
00000000
00000000
00000000
00000000
00001000
00000000
00000000
00000000
00000000
00000000
00000000
00000000
00010000
00000000
00000000
00000000
00000000
00000000
00000000
00000000
00000010
00000000
00000000
00000000
00000000
00000000
00000000
00000000
,
00000000
00000000
00000000
00000000
00000000
00000000
00000000
00000000
00001010
00000000
00000000
00000000
00000000
00000000
00000000
00000000
00001010
00000000
00000000
00000000
00000000
00000000
00000000
00000000
00000000
00000000
00000000
00000000
00000000
00000100
00000000
00000000
00000001
00000000
00000000
00000000
00000000
00000000
00000000
00000000
00000010
00000000
00000000
00000000
00000000
00000000
00000000
00000000
00001000
00000000
00000000
00000000
00000000
00000000
00000000
00000000
00000001
00000000
00000000
00000000
00000000
00000000
00000000
00000000
,
00000100
00000000
00000000
00000000
00000000
00000000
00000000
00000000
00010000
00000000
00000000
00000000
00000000
00000000
00000000
00000000
00010000
00000000
00000000
00000000
00000000
00000000
00000000
00000000
00001000
00000000
00000000
00000000
00000000
00010000
00000000
00000000
00001000
00000000
00000000
00000000
00000000
00000000
00000000
00000000
00100000
00000000
00000000
00000000
00000000
00000000
00000000
00000000
00100000
00000000
00000000
00000000
00000000
00000000
00000000
00000000
10000000
00000000
00000000
00000000
00000000
00000000
00000000
00000000
,
10000000
00000000
00000000
00000000
00000000
00000000
00000000
00000000
00010000
00000000
00000000
00000000
00000000
00000000
00000000
00000000
01000000
00000000
00000000
00000000
00000000
00000000
00000000
00000000
00000000
00000000
00000000
00000000
00000000
01000000
00000000
00000000
10000000
00000000
00000000
00000000
00000000
00000000
00000000
00000000
00000000
00000000
00000000
00000000
00000000
00000000
00000000
00000000
00110000
00000000
00000000
00000000
00000000
00000000
00000000
00000000
00000000
00000000
00000000
00000000
00000000
00000000
00000000
00000000
,
00011000
00000000
00000000
00000000
00000000
00000000
00000000
00000000
00000000
00000000
00000000
00000000
00000000
00000000
00000000
00000000
00110000
00000000
00000000
00000000
00000000
00000000
00000000
00000000
01000000
00000000
00000000
00000000
00000000
10000000
00000000
00000000
01000000
00000000
00000000
00000000
00000000
00000000
00000000
00000000
00100000
00000000
00000000
00000000
00000000
00000000
00000000
00000000
00001000
00000000
00000000
00000000
00000000
00000000
00000000
00000000
00000000
00000000
00000000
00000000
00000000
00000000
00000000
00000000
,
00011000
00000000
00000000
00000000
00000000
00000000
00000000
00000000
00000000
00000000
00000000
00000000
00000000
00000000
00000000
00000000
00110000
00000000
00000000
00000000
00000000
00000000
00000000
00000000
00010000
00000000
00000000
00000000
00000000
00001000
00000000
00000000
00010000
00000000
00000000
00000000
00000000
00000000
00000000
00000000
00000100
00000000
00000000
00000000
00000000
00000000
00000000
00000000
00001000
00000000
00000000
00000000
00000000
00000000
00000000
00000000
00000000
00000000
00000000
00000000
00000000
00000000
00000000
00000000
,
00001010
00000000
00000000
00000000
00000000
00000000
00000000
00000000
00000000
00000000
00000000
00000000
00000000
00000000
00000000
00000000
00011000
00000000
00000000
00000000
00000000
00000000
00000000
00000000
00001000
00000000
00000000
00000000
00000000
00000010
00000000
00000000
00001000
00000000
00000000
00000000
00000000
00000000
00000000
00000000
00000001
00000000
00000000
00000000
00000000
00000000
00000000
00000000
00000100
00000000
00000000
00000000
00000000
00000000
00000000
00000000
00000000
00000000
00000000
00000000
00000000
00000000
00000000
00000000
,
00001100
00000000
00000000
00000000
00000000
00000000
00000000
00000000
00000000
00000000
00000000
00000000
00000000
00000000
00000000
00000000
00011000
00000000
00000000
00000000
00000000
00000000
00000000
00000000
00001000
00000000
00000000
00000000
00000000
00010000
00000000
00000000
00001000
00000000
00000000
00000000
00000000
00000000
00000000
00000000
00100000
00000000
00000000
00000000
00000000
00000000
00000000
00000000
00001000
00000000
00000000
00000000
00000000
00000000
00000000
00000000
00000000
00000000
00000000
00000000
00000000
00000000
00000000
00000000
,
00010000
00000000
00000000
00000000
00000000
00000000
00000000
00000000
00100000
00000000
00000000
00000000
00000000
00000000
00000000
00000000
01000000
00000000
00000000
00000000
00000000
00000000
00000000
00000000
00100000
00000000
00000000
00000000
00000000
00010000
00000000
00000000
00100000
00000000
00000000
00000000
00000000
00000000
00000000
00000000
01000000
00000000
00000000
00000000
00000000
00000000
00000000
00000000
00010000
00000000
00000000
00000000
00000000
00000000
00000000
00000000
10000000
00000000
00000000
00000000
00000000
00000000
00000000
00000000
,
01000000
00000000
00000000
00000000
00000000
00000000
00000000
00000000
00010000
00000000
00000000
00000000
00000000
00000000
00000000
00000000
00001000
00000000
00000000
00000000
00000000
00000000
00000000
00000000
00000100
00000000
00000000
00000000
00000000
00001000
00000000
00000000
00000100
00000000
00000000
00000000
00000000
00000000
00000000
00000000
00000010
00000000
00000000
00000000
00000000
00000000
00000000
00000000
00001000
00000000
00000000
00000000
00000000
00000000
00000000
00000000
00000100
00000000
00000000
00000000
00000000
00000000
00000000
00000000
,
00000010
00000000
00000000
00000000
00000000
00000000
00000000
00000000
00000001
00000000
00000000
00000000
00000000
00000000
00000000
00000000
00001000
00000000
00000000
00000000
00000000
00000000
00000000
00000000
00010000
00000000
00000000
00000000
00000000
00001000
00000000
00000000
00010000
00000000
00000000
00000000
00000000
00000000
00000000
00000000
00001000
00000000
00000000
00000000
00000000
00000000
00000000
00000000
00000010
00000000
00000000
00000000
00000000
00000000
00000000
00000000
00000000
00000000
00000000
00000000
00000000
00000000
00000000
00000000
,
00000100
00000000
00001100
00011000
00110000
00000000
00020000
00000000
,
00031000
00000000
00000000
00000000
;

//---------------dance-single - Copied from ----------------
#NOTES:
     dance-single:
     Copied from:
     Edit:
     9:
     0.555,0.539,0.048,0.000,0.364: // measure 1
0000
0000
0000
0000
,  // measure 2
0000
0000
0000
0000
,  // measure 3
0000
0000
0000
0000
,  // measure 4
0000
0000
0000
0000
,  // measure 5
0000
0000
0000
0000
,  // measure 6
0001
0000
0000
0000
0000
0000
0000
0000
0000
0000
0000
0000
0000
0000
0000
0000
1000
0000
0000
0100
0000
0000
0000
0000
0000
0000
0000
0000
0000
0000
0000
0000
0001
0000
0000
0000
0000
0000
0000
0000
0000
0000
0000
0000
0000
0000
0000
0000
1000
0000
0000
0100
0000
0000
0000
0000
0000
0000
0000
0000
0000
0000
0000
0000
,  // measure 7
0001
0000
0000
0000
0000
0000
0000
0000
0000
0000
0000
0000
0000
0000
0000
0000
0001
0000
0000
0000
0000
0000
0000
0000
0000
0000
0000
0000
0000
0010
0000
0000
0100
0000
0000
0000
0000
0000
0000
0000
1000
0000
0000
0000
0000
0000
0000
0000
0010
0000
0000
0000
0000
0000
0000
0000
0100
0000
0000
0000
0000
0000
0000
0000
,  // measure 8
0000
0000
0000
0000
0000
0000
0000
0000
0001
0000
0000
0000
0000
0000
0000
0000
0001
0000
0000
0000
0000
0000
0000
0000
0000
0000
0000
0000
0000
0000
0000
0000
1000
0000
0000
0000
0000
0000
0000
0000
0000
0000
0000
0000
0000
0100
0000
0000
0000
0000
0000
0000
0000
0000
0000
0000
0010
0000
0000
0000
0000
0000
0000
0000
,  // measure 9
0001
0000
0000
0000
0000
0000
0000
0000
0000
0000
0000
0000
0000
0000
0000
0000
1000
0000
0000
0000
0000
0000
0000
0000
0000
0000
0000
0000
0000
0100
0000
0000
0010
0000
0000
0000
0000
0000
0000
0000
0001
0000
0000
0000
0000
0000
0000
0000
0100
0000
0000
0000
0000
0000
0000
0000
0010
0000
0000
0000
0000
0000
0000
0000
,  // measure 10
0000
0010
1001
0000
1100
0000
0101
0000
,  // measure 11
0010
0000
0000
0000
0000
0000
0000
0000
0100
0000
0000
0000
0000
0000
0000
0000
0010
0000
0000
0000
0000
0000
0000
0000
0001
0000
0000
0100
0000
0000
0000
0000
0000
0000
0000
0000
0000
0000
0000
0000
0010
0000
0000
0000
0000
0000
0000
0000
1000
0000
0000
0000
0000
0000
0000
0000
0000
0000
0000
0000
0000
0000
0000
0000
,  // measure 12
0001
0000
0000
0000
0000
0000
0000
0000
0010
0000
0000
0000
0000
0000
0000
0000
0010
0000
0000
0000
0000
0000
0000
0000
0100
0000
0000
1000
0000
0000
0000
0000
0000
0000
0000
0000
0000
0000
0000
0000
0001
0000
0000
0000
0000
0000
0000
0000
0100
0000
0000
0000
0000
0000
0000
0000
0010
0000
0000
0000
0000
0000
0000
0000
,  // measure 13
1000
0000
0000
0000
0000
0000
0000
0000
1000
0000
0000
0000
0000
0000
0000
0000
0100
0000
0000
0000
0000
0000
0000
0000
0010
0000
0000
0001
0000
0000
0000
0000
0000
0000
0000
0000
0000
0000
0000
0000
1000
0000
0000
0000
0000
0000
0000
0000
0100
0000
0000
0000
0000
0000
0000
0000
0000
0000
0000
0000
0000
0000
0000
0000
,  // measure 14
0010
0000
0000
0000
0000
0000
0000
0000
0001
0000
0000
0000
0000
0000
0000
0000
0010
0000
0000
0000
0000
0000
0000
0000
0100
0000
0000
0001
0000
0000
0000
0000
0000
0000
0000
0000
0000
0000
0000
0000
0100
0000
0000
0000
0000
0000
0000
0000
0010
0000
0000
0000
0000
0000
0000
0000
0001
0000
0000
0000
0000
0000
0000
0000
,  // measure 15
0100
0000
0000
0000
0000
0000
0000
0000
0100
0000
0000
0000
0000
0000
0000
0000
0100
0000
0000
0000
0000
0000
0000
0000
0010
0000
0000
1000
0000
0000
0000
0000
0000
0000
0000
0000
0000
0000
0000
0000
0001
0000
0000
0000
0000
0000
0000
0000
0001
0000
0000
0000
0000
0000
0000
0000
0000
0000
0000
0000
0000
0000
0000
0000
,  // measure 16
0010
0000
0000
0000
0000
0000
0000
0000
0100
0000
0000
0000
0000
0000
0000
0000
1000
0000
0000
0000
0000
0000
0000
0000
0010
0000
0000
0100
0000
0000
0000
0000
0000
0000
0000
0000
0000
0000
0000
0000
0100
0000
0000
0000
0000
0000
0000
0000
0001
0000
0000
0000
0000
0000
0000
0000
0010
0000
0000
0000
0000
0000
0000
0000
,  // measure 17
0100
0000
0000
0000
0000
0000
0000
0000
1000
0000
0000
0000
0000
0000
0000
0000
0001
0000
0000
0000
0000
0000
0000
0000
0001
0000
0000
0100
0000
0000
0000
0000
0000
0000
0000
0000
0000
0000
0000
0000
0010
0000
0000
0000
0000
0000
0000
0000
1000
0000
0000
0000
0000
0000
0000
0000
0000
0000
0000
0000
0000
0000
0000
0000
,  // measure 18
0001
0000
0000
0000
0000
0100
0000
0000
0001
0000
0000
0000
0000
0000
0000
0000
1000
0000
0000
0000
0000
0100
0000
0000
1000
0000
0000
0000
0000
0000
0000
0000
0001
0000
0000
0000
0000
0000
0000
0000
0100
0000
0000
0000
0000
0000
0000
0000
0010
0000
0000
0000
0000
0000
0000
0000
1000
0000
0000
0000
0000
0000
0000
0000
,  // measure 19
0100
0000
0000
0000
0000
0000
0000
0000
0010
0000
0000
0000
0000
0000
0000
0000
0001
0000
0000
0010
0000
0000
0000
0000
0000
0000
0000
0000
0000
0000
0000
0000
0100
0000
0000
0000
0000
0000
0000
0000
1000
0000
0000
0000
0000
0000
0000
0000
0001
0000
0000
0000
0000
0000
0000
0000
0100
0000
0000
0000
0000
0000
0000
0000
,  // measure 20
0010
0000
0000
0000
0000
1000
0000
0000
0010
0000
0000
0000
0000
0000
0000
0000
0100
0000
0000
0000
0000
0000
0000
0000
0100
0000
0000
0000
0000
0000
0000
0000
0001
0000
0000
0000
0000
0010
0000
0000
0001
0000
0000
0000
0000
0000
0000
0000
1000
0000
0000
0000
0000
0000
0000
0000
1000
0000
0000
0000
0000
0000
0000
0000
,  // measure 21
0100
0000
0000
0000
0000
0000
0000
0000
0010
0000
0000
0000
0000
0000
0000
0000
0001
0000
0000
0010
0000
0000
0000
0000
0000
0000
0000
0000
0000
0000
0000
0000
0100
0000
0000
0000
0000
0000
0000
0000
1000
0000
0000
0000
0000
0000
0000
0000
0001
0000
0000
0000
0000
0000
0000
0000
0100
0000
0000
0000
0000
0000
0000
0000
,  // measure 22
0010
0000
0000
0000
0000
1000
0000
0000
0010
0000
0000
0000
0000
0000
0000
0000
0100
0000
0000
0000
0000
0000
0000
0000
0001
0000
0000
0000
0000
0000
0000
0000
0010
0000
0000
0000
0000
0100
0000
0000
0010
0000
0000
0000
0000
0000
0000
0000
0001
0000
0000
0000
0000
0000
0000
0000
0100
0000
0000
0000
0000
0000
0000
0000
,  // measure 23
0010
0000
0000
0000
0000
0000
0000
0000
1000
0000
0000
0000
0000
0000
0000
0000
0001
0000
0000
0100
0000
0000
0000
0000
0000
0000
0000
0000
0000
0000
0000
0000
0010
0000
0000
0000
0000
0000
0000
0000
1000
0000
0000
0000
0000
0000
0000
0000
0100
0000
0000
0000
0000
0000
0000
0000
0010
0000
0000
0000
0000
0000
0000
0000
,  // measure 24
0001
0000
0000
0000
0000
0100
0000
0000
0001
0000
0000
0000
0000
0000
0000
0000
0010
0000
0000
0000
0000
0000
0000
0000
1000
0000
0000
0000
0000
0000
0000
0000
0001
0000
0000
0000
0000
0100
0000
0000
0001
0000
0000
0000
0000
0000
0000
0000
0010
0000
0000
0000
0000
0000
0000
0000
0100
0000
0000
0000
0000
0000
0000
0000
,  // measure 25
1000
0000
0000
0000
0000
0001
0000
0000
1000
0000
0000
0000
0000
0000
0000
0000
0010
0000
0000
0000
0000
0000
0000
0000
0100
0000
0000
0000
0000
0000
0000
0000
0001
0000
0000
0000
0000
0000
0000
0000
0100
0000
0000
0000
0000
0000
0000
0000
0010
0000
0000
0000
0000
0000
0000
0000
1000
0000
0000
0000
0000
0000
0000
0000
,  // measure 26
0100
0000
0000
0000
0000
0010
0000
0000
0100
0000
0000
0000
0000
0000
0000
0000
1000
0000
0000
0000
0000
0000
0000
0000
0010
0000
0000
0000
0000
0000
0000
0000
0100
0000
0000
0000
0000
0001
0000
0000
0100
0000
0000
0000
0000
0000
0000
0000
0010
0000
0000
0000
0000
0000
0000
0000
1000
0000
0000
0000
0000
0000
0000
0000
,  // measure 27
0100
0000
0010
0010
0001
0001
0100
0100
,  // measure 28
0010
0000
0000
0000
0000
0000
0000
0000
1000
0000
0000
0000
0000
0100
0000
0000
1000
0000
0000
0000
0000
0000
0000
0000
1000
0000
0000
0000
0000
0000
0000
0000
0001
0000
0000
0000
0000
0000
0000
0000
0100
0000
0000
0000
0000
0010
0000
0000
0100
0000
0000
0000
0000
0000
0000
0000
0000
0000
0000
0000
0000
0000
0000
0000
,  // measure 29
0001
0000
0000
0000
0000
0000
0000
0000
1000
0000
0000
0000
0000
0100
0000
0000
1000
0000
0000
0000
0000
0000
0000
0000
0001
0000
0000
0000
0000
0000
0000
0000
0100
0000
0000
0000
0000
0000
0000
0000
0010
0000
0000
0000
0000
1000
0000
0000
0010
0000
0000
0000
0000
0000
0000
0000
0000
0000
0000
0000
0000
0000
0000
0000
,  // measure 30
0100
0000
0000
0000
0000
0000
0000
0000
0001
0000
0000
0000
0000
0010
0000
0000
0001
0000
0000
0000
0000
0000
0000
0000
1000
0000
0000
0000
0000
0000
0000
0000
0100
0000
0000
0000
0000
0000
0000
0000
0010
0000
0000
0000
0000
0001
0000
0000
0010
0000
0000
0000
0000
0000
0000
0000
0000
0000
0000
0000
0000
0000
0000
0000
,  // measure 31
1000
0000
0000
0000
0000
0000
0000
0000
0100
0000
0000
0000
0000
0010
0000
0000
0100
0000
0000
0000
0000
0000
0000
0000
1000
0000
0000
0000
0000
0000
0000
0000
0001
0000
0000
0000
0000
0100
0000
0000
0001
0000
0000
0000
0000
0000
0000
0000
1000
0000
0000
0000
0000
0000
0000
0000
0100
0000
0000
0000
0000
0000
0000
0000
,  // measure 32
0010
0000
0000
0000
0000
0000
0000
0000
0001
0000
0000
0000
0000
1000
0000
0000
0001
0000
0000
0000
0000
0000
0000
0000
0100
0000
0000
0000
0000
0000
0000
0000
0010
0000
0000
0000
0000
0000
0000
0000
1000
0000
0000
0000
0000
0001
0000
0000
0100
0000
0000
0000
0000
0000
0000
0000
0000
0000
0000
0000
0000
0000
0000
0000
,  // measure 33
0010
0000
0000
0000
0000
0000
0000
0000
1000
0000
0000
0000
0000
0100
0000
0000
1000
0000
0000
0000
0000
0000
0000
0000
0010
0000
0000
0000
0000
0000
0000
0000
0100
0000
0000
0000
0000
0000
0000
0000
0001
0000
0000
0000
0000
1000
0000
0000
0100
0000
0000
0000
0000
0000
0000
0000
0000
0000
0000
0000
0000
0000
0000
0000
,  // measure 34
0010
0000
0000
0000
0000
0000
0000
0000
0001
0000
0000
0000
0000
0100
0000
0000
0001
0000
0000
0000
0000
0000
0000
0000
0010
0000
0000
0000
0000
0000
0000
0000
0100
0000
0000
0000
0000
0000
0000
0000
1000
0000
0000
0000
0000
0001
0000
0000
0100
0000
0000
0000
0000
0000
0000
0000
0000
0000
0000
0000
0000
0000
0000
0000
,  // measure 35
0010
0000
0000
0000
0000
0000
0000
0000
1000
0000
0000
0000
0000
0001
0000
0000
0100
0000
0000
0000
0000
0000
0000
0000
0010
0000
0000
0000
0000
1000
0000
0000
0001
0000
0000
0000
0000
0000
0000
0000
0010
0000
0000
0000
0000
0000
0000
0000
0100
0000
0000
0000
0000
1000
0000
0000
0001
0000
0000
0000
0000
0000
0000
0000
,  // measure 36
0100
0000
0000
0000
0000
0000
0000
0000
0010
0000
0000
0000
0000
0000
0000
0000
1000
0000
0000
0000
0000
0100
0000
0000
0010
0000
0000
0000
0000
0000
0000
0000
0001
0000
0000
0000
0000
0000
0000
0000
1000
0000
0000
0000
0000
0100
0000
0000
0001
0000
0000
0000
0000
0000
0000
0000
0000
0000
0000
0000
0000
0000
0000
0000
,  // measure 37
0100
0000
0000
0000
0000
0000
0000
0000
1000
0000
0000
0000
0000
0000
0000
0000
0010
0000
0000
0000
0000
0100
0000
0000
0001
0000
0000
0000
0000
0000
0000
0000
1000
0000
0000
0000
0000
0000
0000
0000
0100
0000
0000
0000
0000
0010
0000
0000
0001
0000
0000
0000
0000
0000
0000
0000
0000
0000
0000
0000
0000
0000
0000
0000
,  // measure 38
0100
0000
0000
0000
0000
0000
0000
0000
0010
0000
0000
0000
0000
0000
0000
0000
1000
0000
0000
0000
0000
0001
0000
0000
0010
0000
0000
0000
0000
0000
0000
0000
0100
0000
0000
0000
0000
0000
0000
0000
1000
0000
0000
0000
0000
0001
0000
0000
0100
0000
0000
0000
0000
0000
0000
0000
0000
0000
0000
0000
0000
0000
0000
0000
,  // measure 39
0010
0000
0000
0000
0000
1000
0000
0000
0001
0000
0000
0000
0000
0000
0000
0000
0100
0000
0000
0000
0000
0000
0000
0000
0010
0000
0000
0000
0000
1000
0000
0000
0001
0000
0000
0000
0000
0000
0000
0000
0100
0000
0000
0000
0000
0000
0000
0000
0010
0000
0000
0000
0000
1000
0000
0000
0001
0000
0000
0000
0000
0000
0000
0000
,  // measure 40
0010
0000
0000
0000
0000
0000
0000
0000
0100
0000
0000
0000
0000
0000
0000
0000
1000
0000
0000
0000
0000
0010
0000
0000
1000
0000
0000
0000
0000
0000
0000
0000
0001
0000
0000
0000
0000
0100
0000
0000
0001
0000
0000
0000
0000
0000
0000
0000
1000
0000
0000
0000
0000
0000
0000
0000
0000
0000
0000
0000
0000
0000
0000
0000
,  // measure 41
0100
0000
0000
0000
0000
0000
0000
0000
0010
0000
0000
0000
0000
0000
0000
0000
0001
0000
0000
0000
0000
1000
0000
0000
0001
0000
0000
0000
0000
0000
0000
0000
0100
0000
0000
0000
0000
0010
0000
0000
1000
0000
0000
0000
0000
0000
0000
0000
0001
0000
0000
0000
0000
0000
0000
0000
0000
0000
0000
0000
0000
0000
0000
0000
,  // measure 42
0010
0000
0000
0000
0000
0000
0000
0000
0100
0000
0000
0000
0000
0000
0000
0000
1000
0000
0000
0000
0000
0010
0000
0000
0100
0000
0000
0000
0000
0000
0000
0000
0001
0000
0000
0000
0000
0010
0000
0000
0100
0000
0000
0000
0000
0000
0000
0000
1000
0000
0000
0000
0000
0000
0000
0000
0000
0000
0000
0000
0000
0000
0000
0000
,  // measure 43
0001
0000
0000
0000
0000
0100
0000
0000
0001
0000
0000
0000
0000
0000
0000
0000
0000
0000
0000
0000
0000
0000
0000
0000
1000
0000
0000
0000
0000
0100
0000
0000
1000
0000
0000
0000
0000
0000
0000
0000
0000
0000
0000
0000
0000
0000
0000
0000
0010
0000
0000
0000
0000
0100
0000
0000
0001
0000
0000
0000
0000
0000
0000
0000
,  // measure 44
1100
0000
0000
0000
;
