#TITLE:LOVE THIS FEELIN';
#SUBTITLE:;
#ARTIST:Chang ma;
#TITLETRANSLIT:;
#SUBTITLETRANSLIT:;
#ARTISTTRANSLIT:;
#CREDIT:;
#BANNER:LOVE THIS FEELIN'.png;
#BACKGROUND:LOVE THIS FEELIN'-bg.png;
#LYRICSPATH:;
#CDTITLE:DanceDanceRevolutionSolo2000.png;
#MUSIC:LOVE THIS FEELIN'.ogg;
#OFFSET:0.000;
#SAMPLESTART:37.860;
#SAMPLELENGTH:15.000;
#SELECTABLE:YES;
#DISPLAYBPM:95.000:190.000;
#BPMS:0.000=95.300,4.000=95.080,56.000=190.200;
#STOPS:;
#BGCHANGES:;

//---------------dance-single - ----------------
#NOTES:
     dance-single:
     :
     Beginner:
     2:
     0.141,0.187,0.171,0.000,0.000:
0000
0000
0000
0000
,
0000
0000
0000
0000
,
0000
0000
0000
0000
,
0000
0000
0000
0000
,
0000
0000
0000
0000
,
0010
0000
0001
0000
,
0100
0000
1000
1000
,
1000
0000
0010
0000
,
0001
0000
0100
0100
,
0100
0000
1000
0000
,
0010
0010
0010
0010
,
0010
0000
0000
0000
,
0100
0000
0100
0000
,
0010
0000
0000
0000
,
0000
0000
0000
0000
,
0000
0000
0000
0000
,
1000
0000
1000
0000
,
0000
0000
0000
0000
,
0001
0000
0001
0000
,
0000
0000
0000
0000
,
1000
0000
1000
0000
,
0000
0000
0000
0000
,
0001
0000
0001
0000
,
0000
0000
0000
0000
,
0010
0000
0010
0000
,
0000
0000
0000
0000
,
0100
0000
0100
0000
,
0000
0000
0000
0000
,
0010
0000
0010
0000
,
0000
0000
0000
0000
,
0100
0000
0100
0000
,
0000
0000
0000
0000
,
1001
0000
0000
0000
,
1001
0000
0000
0000
,
0010
0000
0010
0000
,
0100
0000
0100
0000
,
1001
0000
0000
0000
,
1001
0000
0000
0000
,
0010
0000
0010
0000
,
0100
0000
0100
0000
,
1001
0000
0000
0000
,
0100
0100
0000
0000
,
0001
0000
0100
0000
,
0100
0000
1000
0000
,
1001
0000
0000
0000
,
0100
0100
0000
0000
,
0000
0000
1001
0000
,
0000
1001
0000
0000
,
1001
0000
0000
0000
,
0100
0100
0000
0000
,
0001
0000
0100
0000
,
0100
0000
1000
0000
,
1001
0000
0000
0000
,
0100
0100
0000
0000
,
0000
0000
1001
0000
,
0000
1001
0000
0000
,
0110
0000
0000
0110
,
0000
0000
1001
0000
,
0000
0110
0000
0000
;

//---------------dance-single - ----------------
#NOTES:
     dance-single:
     :
     Easy:
     5:
     0.347,0.405,0.182,0.000,0.011:
0000
0000
0000
0000
,
0000
0000
0000
0000
,
0000
0000
0000
0000
,
0000
0000
0000
0000
,
0000
0000
0000
0000
,
0010
0001
0100
1001
,
0010
1000
0100
1001
,
0010
1000
0000
0100
0001
0000
0010
0001
,
0000
0000
0100
0000
1000
0000
0000
0000
0001
1000
0001
1000
0001
0000
0000
0000
,
1000
0001
0010
0100
,
0001
1000
0001
1000
0010
0100
0001
0000
,
0010
0000
1000
0001
0000
1000
0010
0000
,
0100
0000
0001
1000
0100
0000
0010
0000
,
0010
0000
1000
0001
0000
0010
0100
0000
,
0000
0000
0000
0000
,
0000
0000
0000
0000
,
0010
0000
0000
1000
0001
0100
0000
0000
,
0010
0001
0100
1000
,
0100
0000
0000
0010
1000
0001
0000
0000
,
0010
1000
0100
0001
,
1000
0000
0000
0010
0100
0001
0000
0000
,
0010
0000
0010
0000
0001
1000
0001
1000
,
0010
0000
0000
0100
0010
1000
0000
0000
,
0010
0001
0100
1000
,
0010
0000
0000
1000
0001
0100
0000
0000
,
0010
0001
0100
1000
,
0100
0000
0000
0010
1000
0001
0000
0000
,
0010
1000
0100
0001
,
0100
0000
0000
0010
0100
0010
0000
0000
,
0010
0001
0100
1000
,
0001
0000
0000
0100
0010
0100
0000
0000
,
0010
0001
0100
1000
,
0010
0010
0000
0000
1000
1000
0000
0000
,
0100
0100
0000
0000
0001
0001
0000
0000
,
0010
0001
0100
1000
,
0010
1000
0100
0001
,
0010
0010
0000
0000
1000
1000
0000
0000
,
0100
0100
0000
0000
0001
0001
0000
0000
,
0000
0010
1001
0100
,
0001
0010
0100
1001
,
0010
0000
0000
0010
0000
0010
0010
0000
,
0010
0000
0010
0000
0000
0010
0100
0000
,
0010
0001
0100
1000
,
0010
1000
0100
1001
,
0010
0000
0000
0010
0000
0010
0010
0000
,
0010
0000
0010
0000
0000
0010
0100
0000
,
0000
0010
0000
0000
0100
0000
0000
1001
,
0000
0000
0110
0000
0000
0010
1001
0000
,
0010
0000
0000
0010
0000
0010
0010
0000
,
0010
0000
0010
0000
0000
0010
0100
0000
,
0010
0001
0100
1000
,
0010
1000
0100
1001
,
0010
0000
0000
0010
0000
0010
0010
0000
,
0010
0000
0010
0000
0000
0010
0100
0000
,
0000
1001
0000
0000
0010
0000
0000
0100
,
0000
0000
1001
0000
0000
0010
0000
0000
,
1001
0000
0000
0100
0000
0000
1001
0000
,
0000
0110
0000
0000
1001
0000
0000
0110
,
0000
1001
0000
0000
;

//---------------dance-single - ----------------
#NOTES:
     dance-single:
     :
     Medium:
     7:
     0.381,0.530,0.257,0.000,0.032:
0000
0000
0000
0000
,
0000
0000
0000
0000
,
0000
0000
0000
0000
,
0000
0000
0000
0000
,
0000
0000
0000
0000
,
0010
1000
0000
0100
0001
0000
0010
0001
,
0000
0000
0100
0000
1000
0000
0000
0000
0001
1000
0001
1000
0001
1000
0000
0000
,
0010
1000
0000
0100
0001
0000
0010
0001
,
0000
0000
0100
0000
1000
0000
0000
0000
0001
1000
0001
1000
0001
1000
0000
0000
,
0001
1000
0010
0100
,
0001
1000
0001
1000
0010
0100
0001
0000
,
0010
0000
1000
0001
0000
1000
0010
0000
,
0100
0000
0001
1000
0100
0000
0010
0000
,
0010
0000
1000
0001
0000
0010
0100
0000
,
0000
0000
0000
0000
,
0000
0000
0000
0000
,
0010
0000
0000
1000
0001
0100
0000
0000
,
0010
1001
0100
1001
,
0100
0000
0000
0010
1000
0001
0000
0000
,
0010
1000
0100
0001
,
1000
0000
0000
0010
0100
0001
0000
0000
,
0010
0000
0010
0000
0001
1000
0001
1000
,
0010
0000
0000
0100
0010
1000
0000
0000
,
0010
0001
0100
1000
,
0010
0000
0000
1000
0001
0100
0000
0000
,
0010
1001
0100
1001
,
0100
0000
0000
0010
1000
0001
0000
0000
,
0010
1000
0100
0001
,
0100
0000
0000
0010
0100
0010
0000
0000
,
0010
0001
0100
1000
,
0001
0000
0000
1000
0010
0000
0100
0000
,
1000
0000
0000
0001
0010
0000
0100
0000
,
0010
0001
0000
0000
0001
0100
0000
0000
,
0100
1000
0000
0000
1000
0010
0000
0000
,
0010
0100
0000
1000
0000
0001
1000
0001
,
0000
0010
0000
1000
0001
1000
0000
0010
,
0001
1000
0000
0000
0001
0100
0000
0000
,
0100
1000
0000
0000
1000
0010
0000
0000
,
1000
0001
0000
0010
0000
1000
0000
0100
,
0000
0001
0000
0010
0000
1000
0000
0000
,
0010
0000
0000
0010
0000
1000
0001
0000
,
0100
0000
0100
0000
0000
0001
1000
0000
,
0011
0101
1100
1010
,
1100
0101
0011
1001
,
0010
0000
0000
0010
0000
1000
0001
0000
,
0100
0000
0100
0000
0000
0001
1000
0000
,
0000
0010
0000
0000
0100
0000
0000
1001
,
0000
0000
0110
0000
0000
0010
1001
0000
,
0010
0000
0000
0010
0000
1000
0001
0000
,
0100
0000
0100
0000
0000
0001
1000
0000
,
0010
0000
0010
0001
0000
0100
0000
0100
,
1000
0000
0001
0010
0000
1001
0000
0000
,
0010
0000
0000
0010
0000
1000
0001
0000
,
0100
0000
0100
0000
0000
0001
1000
0000
,
0000
1001
0000
0010
0001
0000
0100
1000
,
0000
0000
1001
0000
0010
0001
0000
0000
,
1001
0000
0000
0100
0000
0000
0011
0000
,
0000
0101
0000
0000
0110
0000
0000
1100
,
0000
1001
0000
0000
;

//---------------dance-single - ----------------
#NOTES:
     dance-single:
     :
     Hard:
     8:
     0.407,0.530,0.257,0.000,0.054:
0000
0000
0000
0000
,
0000
0000
0000
0000
,
0000
0000
0000
0000
,
0000
0000
0000
0000
,
0000
0000
0000
0000
,
0010
1000
0000
0100
0001
0000
0010
0001
,
0000
0000
0100
0000
0001
0000
0000
0000
0010
0100
0001
1000
0010
0100
0000
0000
,
0010
1000
0000
0100
0001
0000
0010
0001
,
0000
0000
0100
0000
0001
0000
0000
0000
0010
0100
0001
1000
0010
0100
0000
0000
,
0001
0000
0000
0000
1000
0000
0000
0000
0010
0000
0000
0000
0100
0000
0000
0010
,
0001
0000
1000
0000
0000
0010
0100
0000
0000
0001
1000
0001
0010
0000
0000
0000
,
0010
0000
0001
1000
0000
0001
0010
0000
,
0100
0000
1000
0001
0100
0000
0010
0000
,
0010
0000
0001
1000
0000
0010
0100
0000
,
0000
0000
0000
0000
,
0000
0000
0000
0000
,
0010
0000
0000
1000
0001
0000
0100
0000
,
0110
1001
0110
1001
,
0100
0000
0000
0010
1000
0001
0000
0000
,
0010
0100
0001
1000
0010
0100
1001
0000
,
1000
0000
0000
0010
0100
0001
0000
0000
,
0010
0000
0100
0000
0001
0010
1000
0100
,
0010
0000
0000
0100
0010
1000
0000
0000
,
0100
1001
0010
1001
,
0010
0000
0000
1000
0001
0100
0000
0000
,
0010
1010
0100
0101
,
0100
0000
0000
0010
1000
0001
0000
0000
,
0010
0100
1000
0001
0010
0100
1001
0000
,
0100
0000
0000
0010
0100
0010
0000
0000
,
0100
1000
0010
0001
,
0001
0000
1000
0000
0010
0001
0000
0000
,
0000
0000
0000
0001
0010
0000
0100
0000
,
0010
0001
0000
0000
0001
0100
0000
0000
,
0100
1000
0000
0000
1000
0010
0000
0000
,
0010
0100
0000
1000
0000
0001
0010
0001
,
0000
0010
0000
1000
0100
1000
0000
0010
,
0001
1000
0000
0000
0001
0100
0000
0000
,
0100
1000
0000
0000
1000
0010
0000
0000
,
1000
0001
0000
0010
0000
1000
0000
0100
,
0000
0001
0000
0010
0000
1000
0000
0000
,
0010
0000
0000
0100
0000
1000
0001
0000
,
0100
0000
0010
0000
0000
0001
1000
0000
,
0011
0101
1100
1010
,
1100
0101
0011
1001
,
0010
0000
0000
0100
0000
1000
0001
0000
,
0100
0000
0010
0000
0000
0001
1000
0000
,
0000
0010
0000
0001
0010
0000
0100
0001
,
0000
1000
0100
0000
0010
0001
1000
0001
,
0010
0000
0000
0010
0000
1000
0001
0000
,
0100
0000
0100
0000
0000
0001
1000
0000
,
0001
0000
0010
1000
0000
0010
0000
0100
,
1000
0000
0001
0010
0000
1001
0000
0000
,
0010
0000
0000
0100
0000
1000
0001
0000
,
0100
0000
0010
0000
0000
0001
1000
0000
,
0000
1001
0000
0010
0001
0000
0100
1000
,
0000
0100
1001
0000
0000
0110
0000
0001
,
0001
0000
0100
0100
0000
1000
1000
0000
,
0010
0010
0000
0100
0100
0000
0000
0110
,
0000
1001
0000
0000
;

//---------------dance-double - ----------------
#NOTES:
     dance-double:
     :
     Easy:
     6:
     0.364,0.405,0.257,0.000,0.021:
00000000
00000000
00000000
00000000
,
00000000
00000000
00000000
00000000
,
00000000
00000000
00000000
00000000
,
00000000
00000000
00000000
00000000
,
00000000
00000000
00000000
00000000
,
00100000
01000000
00000000
10000000
00010000
00000000
00001000
00000010
,
00000000
00000000
00000100
00000000
00000001
00000000
00000000
00000000
00000001
00001000
00000001
00001000
00000001
00000000
00000000
00000000
,
00010000
10000000
00000000
00100000
01000000
00000000
00001000
00000100
,
00000000
00000000
00000010
00000000
00000001
00000000
00000000
00000000
00001000
00000001
00001000
00000001
00001000
00000000
00000000
00000000
,
00000001
00001000
00100000
01000000
,
00010000
10000000
00010000
10000000
00100000
00010000
00001000
00000000
,
00000010
00000000
00001000
00000001
00000000
00001000
00000100
00000000
,
00010000
00100000
00000000
10000000
01000000
00000000
00010000
00000000
,
00001000
00000000
00000010
00000100
00000000
00000001
00001000
00000000
,
00000000
00000000
00000000
00000000
,
00000000
00000000
00000000
00000000
,
00100000
00000000
00000000
10000000
00010000
01000000
00000000
00000000
,
00100000
00001000
00000001
00000100
,
00010000
00000000
00000000
00100000
01000000
00010000
00000000
00000000
,
10000000
00010000
00001000
00000010
,
00000001
00000000
00000000
00001000
00000100
00010000
00000000
00000000
,
00100000
00000000
00100000
00000000
10000000
00010000
10000000
00010000
,
00100000
00000000
00000000
01000000
00100000
00010000
00000000
00000000
,
00001000
00001001
00000100
00001000
,
00010000
00000000
00000000
00010000
10000000
00100000
00000000
00000000
,
00010000
00000010
00001001
00000110
,
00000010
00000000
00000000
00000100
00001000
00000001
00000000
00000000
,
00000010
00011000
00100000
10010000
,
01000000
00000000
00000000
00100000
01000000
00100000
00000000
00000000
,
00010000
00001000
00000110
00001001
,
00000010
00000000
00000000
00000100
00000001
00001000
00000000
00000000
,
00010000
10010000
01000000
10010000
,
00100000
00100000
00000000
00000000
00010000
00010000
00000000
00000000
,
00001000
00001000
00000000
00000000
00000010
00000010
00000000
00000000
,
00000010
00000001
00001000
00010000
,
10000000
01000000
00001000
00000010
,
00001000
00001000
00000000
00000000
00010000
00010000
00000000
00000000
,
00100000
00100000
00000000
00000000
10000000
10000000
00000000
00000000
,
00000000
00010000
00001000
00000100
,
00000001
00000010
00000100
00011000
,
00100000
00000000
00000000
00100000
00000000
10000000
10000000
00000000
,
00010000
00000000
00010000
00000000
00000000
00100000
01000000
00000000
,
00100000
00000000
00001000
00000010
,
00001001
00000010
00001001
00000100
,
00000001
00000000
00000000
00000001
00000000
00000010
00000010
00000000
,
00001000
00000000
00001000
00000000
00000000
00100000
00100000
00000000
,
00000000
00010000
00000000
00000000
01000000
00000000
00000000
01100000
,
00000000
00000000
10010000
00000000
00000000
00010000
00011000
00000000
,
00000010
00000000
00000000
00000010
00000000
00000100
00000100
00000000
,
00000001
00000000
00001000
00000000
00000000
00000010
00001000
00000000
,
00100000
00010000
01000000
10000000
,
00100000
00010000
00000100
00001001
,
00000100
00000000
00000000
00000100
00000000
00000010
00000010
00000000
,
00001000
00000000
00001000
00000000
00000000
00010000
00100000
00000000
,
00000000
01100000
00000000
00000000
00010000
00000000
00000000
00000100
,
00000000
00000000
00001001
00000000
00000000
00000010
00000000
00000000
,
00011000
00000000
00000000
01000000
00000000
00000000
00110000
00000000
,
00000000
00011000
00000000
00000000
00001010
00000000
00000000
00011000
,
00000000
01100000
00000000
00000000
;

//---------------dance-double - ----------------
#NOTES:
     dance-double:
     :
     Medium:
     7:
     0.392,0.530,0.311,0.000,0.032:
00000000
00000000
00000000
00000000
,
00000000
00000000
00000000
00000000
,
00000000
00000000
00000000
00000000
,
00000000
00000000
00000000
00000000
,
00000000
00000000
00000000
00000000
,
00100000
01000000
00000000
10000000
00010000
00000000
00001000
00000010
,
00000000
00000000
00000100
00000000
00000001
00000000
00000000
00000000
00000001
00001000
00000010
00000100
00000001
00001000
00000000
00000000
,
00010000
10000000
00000000
00100000
01000000
00000000
00001000
00000100
,
00000000
00000000
00000010
00000000
00000001
00000000
00000000
00000000
00001000
00000001
00000010
00000100
00001000
00000001
00000000
00000000
,
00000001
00001000
00100000
01000000
,
00010000
10000000
00010000
10000000
00100000
00010000
00001000
00000000
,
00000010
00000000
00001000
00000001
00000000
00001000
00000100
00000000
,
00010000
00100000
00000000
10000000
01000000
00000000
00010000
00000000
,
00001000
00000000
00000010
00000100
00000000
00000001
00001000
00000000
,
00000000
00000000
00000000
00000000
,
00000000
00000000
00000000
00000000
,
00100000
00000000
00000000
10000000
00010000
01000000
00000000
00000000
,
00100000
00001000
00000100
00000001
,
00001000
00000000
00000000
00100000
10000000
00010000
00000000
00000000
,
01000000
00010000
00001000
00000010
,
00000001
00000000
00000000
00001000
00000100
00010000
00000000
00000000
,
00100000
00000000
00100000
00000000
10000000
00010000
10000000
00010000
,
00100000
00000000
00000000
01000000
00100000
00010000
00000000
00000000
,
00001000
00001001
00000100
00001000
,
00010000
00000000
00000000
00010000
10000000
00100000
00000000
00000000
,
00010000
00000010
00001001
00000110
,
00000010
00000000
00000000
00000100
00001000
00000001
00000000
00000000
,
00000010
00011000
00100000
10010000
,
01000000
00000000
00000000
00100000
01000000
00100000
00000000
00000000
,
00010000
00001000
00000110
00001001
,
00000010
00000000
00000000
00000001
00000100
00001000
00000000
00000000
,
00010000
10010000
01000000
10010000
,
00100000
00100000
00000000
00000000
00010000
00010000
00000000
00000000
,
00001000
00001000
00000000
00000000
00000010
00000010
00000000
00000000
,
00000010
00000001
00001000
00010000
,
10000000
01000000
00001000
00000010
,
00001000
00001000
00000000
00000000
00010000
00010000
00000000
00000000
,
00100000
00100000
00000000
00000000
10000000
10000000
00000000
00000000
,
00000000
00010000
00001000
00000100
,
00000001
00000010
00000100
00011000
,
00100000
00000000
00000000
00100000
00000000
10000000
10000000
00000000
,
00010000
00000000
00010000
00000000
00000000
00100000
01000000
00000000
,
01100000
10010000
00011000
00000110
,
00000011
00000101
00001100
00001010
,
00000001
00000000
00000000
00000001
00000000
00000010
00000010
00000000
,
00001000
00000000
00001000
00000000
00000000
00010000
00010000
00000000
,
00000000
00100000
00000000
00000000
01000000
00000000
00000000
01100000
,
00000000
00000000
10010000
00000000
00000000
00010000
00011000
00000000
,
00000010
00000000
00000000
00000010
00000000
00000100
00000100
00000000
,
00000001
00000000
00001000
00000000
00000000
00000010
00001000
00000000
,
01100000
00000000
00010000
10000000
00100000
01000000
10010000
00000000
,
00100000
00010000
00000100
00001001
,
00000100
00000000
00000000
00000100
00000000
00000010
00000010
00000000
,
00001000
00000000
00001000
00000000
00000000
00010000
00100000
00000000
,
00000000
01100000
00000000
00100000
00010000
00000000
00001000
00000100
,
00000000
00000010
00001001
00000000
00000000
00000110
00000000
00010000
,
00010000
00000000
01000000
01000000
00000000
00100000
00100000
00000000
,
00010000
00010000
00000000
00001000
00001000
00000000
00000000
00011000
,
00000000
01100000
00000000
00000000
;

//---------------dance-double - ----------------
#NOTES:
     dance-double:
     :
     Hard:
     8:
     0.425,0.624,0.396,0.000,0.037:
00000000
00000000
00000000
00000000
,
00000000
00000000
00000000
00000000
,
00000000
00000000
00000000
00000000
,
00000000
00000000
00000000
00000000
,
00000000
00000000
00000000
00000000
,
00100000
01000000
00000000
00001000
00010000
00000000
00000010
00000100
,
00000000
00000000
00000001
00000000
00001000
00000000
00000000
00000000
00000010
00000000
00001000
00000000
00000100
00000000
00010000
00001000
,
01000000
00100000
00000000
10000000
01000000
00000000
00010000
00001000
,
00000000
00000000
00000100
00000000
00000001
00000000
00000000
00000000
00001000
00000000
00000100
00000000
00010000
00000000
00001000
00010000
,
01000000
00000000
10000000
00000000
00010000
00000000
01000000
01000000
,
00100000
10000000
01000000
00000000
00100000
00010000
01000000
00000000
00010000
10000000
01000000
00000000
10010000
00000000
01000000
00000000
,
00011000
00000000
00000000
00001001
00000000
00000000
00000100
00000000
00000000
00000000
00000010
00000000
00001000
00000000
00000000
00000000
,
00100000
01000000
00010000
01000000
00001000
00010000
00000100
00000000
,
00011000
00000000
00000000
00001001
00000000
00000000
00000100
00000000
00000000
00000000
00000010
00000000
00001000
00000000
00000000
00000000
,
00011000
00000000
00000000
10010000
00000000
00000000
01010000
00000000
,
00000000
00011000
00000000
00000000
00000100
00000000
00000000
00000000
,
00000010
00000000
00000000
00000001
00001000
00001000
00000000
00000000
,
00000100
00010000
00001000
01000000
,
00100000
00000000
00000000
10000000
01000000
01000000
00000000
00000000
,
10000000
01000000
00010000
00001000
,
00000100
00000000
00000000
00000001
00000010
00000010
00000000
00000000
,
00001001
00000100
00010000
01000000
,
00100000
00000000
00000000
00010000
00010000
00000000
00000000
00000000
,
10010000
01000000
00001000
00000100
,
00000010
00000001
00000100
00001000
00000100
00000001
00000000
00000000
,
00001001
00000000
00011000
00000000
,
00100000
10000000
01000000
00010000
01000000
10000000
00000000
00000000
,
10010000
00000000
00011000
00000000
,
00000001
00001000
00000100
00000010
00000001
00000100
00000000
00000000
,
00001000
00000000
00010000
00000000
,
01000000
10000000
00010000
01000000
00100000
10000000
00000000
00000000
,
01000000
00000000
00001000
00000000
,
00011000
00011000
00000000
00000000
00000010
00000100
00000000
00000000
,
00011000
00011000
00000000
00000000
00100000
01000000
00000000
00000000
,
00001000
00010000
01000000
10000000
00100000
10000000
01000000
00010000
,
00001000
00000100
00000001
00000010
00000100
00001000
00000001
00000000
,
00000110
00000110
00000000
00000000
00010000
00001000
00000000
00000000
,
01100000
01100000
00000000
00000000
00001000
00010000
00000000
00000000
,
00010000
00001000
00000100
00000001
00000010
00000001
00000100
00001000
,
00010000
01000000
10000000
00100000
01000000
00010000
10000000
00000000
,
10010000
00000000
00000000
00100000
00000000
01000000
01000000
00000000
,
00010000
00000000
00001000
00000000
00000000
00000100
00000100
00000000
,
00000001
00001000
00000000
00000000
00000110
00000000
00000000
00000000
,
00000010
00000100
00001000
00010000
01000000
10000000
00000000
00000000
,
10000000
00000000
00000000
00010000
00000000
01000000
01000000
00000000
,
00001000
00000000
00001000
00000000
00000000
00000100
00000001
00000000
,
00000000
00000010
00000000
00000000
00000100
00000000
00000000
00010000
,
00000000
00000000
10000000
00000000
00000000
11000000
11000000
00000000
,
00100000
00000000
00000000
10000000
00000000
01000000
01000000
00000000
,
00010000
00000000
00001000
00000000
00000000
00000010
00000100
00000000
,
00000001
00001000
00000000
00000000
00000110
00000000
00000000
00000000
,
00000010
00000100
00001000
00010000
01000000
10000000
00000000
00000000
,
10010000
00000000
00000000
01000000
00000000
00001000
00010000
00000000
,
00000010
00000000
00000100
00000000
00000000
00001001
00001001
00000000
,
00000000
00010000
00000000
00000000
00001001
00000000
00000000
00000010
,
00000000
00000000
00011000
00000000
00000000
10000000
00000000
00000000
,
01010000
00000000
00000000
00000100
00000000
00000000
00000110
00000000
,
00000000
00010000
00000000
00000000
01100000
00000000
00000000
00001000
,
00000000
00001001
00000000
00000000
;

//---------------dance-couple - ----------------
#NOTES:
     dance-couple:
     :
     Challenge:
     8:
     0.551,0.811,1.000,0.000,0.011:
00000000
00000000
00000000
00000000
,
00000000
00000000
00000000
00000000
,
00000000
00000000
00000000
00000000
,
00000000
00000000
00000000
00000000
,
00000000
00000000
00000000
00000000
,
00100000
00010000
01000000
10010000
,
00000010
00001000
00000100
00001001
,
00100000
10000000
00000000
00000100
00000001
00000000
00100000
00010000
,
00000000
00000000
00000100
00000000
00001000
00000000
00000000
00000000
00010001
10001000
00010001
10001000
00010001
00000000
00000000
00000000
,
10000000
00000001
00100000
00000100
,
10000001
00011000
10000001
00011000
00100010
01000100
10000001
00000000
,
00100010
00000000
00011000
10000001
00000000
00011000
00100010
00000000
,
01000100
00000000
10000001
00011000
01000100
00000000
00100010
00000000
,
00100010
00000000
00011000
10000001
00000000
00100010
01000100
00000000
,
00000000
00000000
00000000
00000000
,
00000000
00000000
00000000
00000000
,
00100010
00000000
00000000
10000000
00010000
01000000
00000000
00000000
,
00100010
10010000
01000000
10010000
,
01000010
00000000
00000000
00100000
10000000
00010000
00000000
00000000
,
00100010
10000000
01000000
00010000
,
01000010
00000000
00000000
00000001
00001000
00000100
00000000
00000000
,
01000010
00001001
00000100
00001001
,
01000100
00000000
00000000
00000010
00000001
00001000
00000000
00000000
,
01000010
00000001
00000100
00001000
,
00100010
00000000
00000000
10000000
00010000
01000000
00000000
00000000
,
00100010
10100000
01000000
01010000
,
01000010
00000000
00000000
00100000
10000000
00010000
00000000
00000000
,
00100010
01000000
10000000
00010000
00100000
01000000
10010000
00000000
,
01000010
00000000
00000000
00001000
00000001
00000100
00000000
00000000
,
01000010
00001010
00000100
00000101
,
01000100
00000000
00000000
00000010
00001000
00000001
00000000
00000000
,
01000010
00000100
00001000
00000001
00000010
00000100
00001001
00000000
,
00100100
00100000
00000000
00000000
10000000
10000000
00000000
00000000
,
01000100
01000000
00000000
00000000
00010000
00010000
00000000
00000000
,
00100000
00010000
01000000
10000000
,
00100000
10000000
01000000
00010000
,
01000010
00000010
00000000
00000000
00001000
00001000
00000000
00000000
,
01000100
00000100
00000000
00000000
00000001
00000001
00000000
00000000
,
00000010
00000001
00000100
00001000
,
00000010
00001000
00000100
00000001
,
00100000
00000000
00000000
00100000
00000000
10000000
00010000
00000000
,
01000000
00000000
01000000
00000000
00000000
00010000
10000000
00000000
,
00110000
00000101
11000000
00001010
,
10100000
00001100
01010000
00000011
,
00000100
00000000
00000000
00000100
00000000
00000001
00001000
00000000
,
00000010
00000000
00000010
00000000
00000000
00001000
00000001
00000000
,
00000000
00100010
00000000
00000000
01000100
00000000
00000000
10011001
,
00000000
00000000
01100110
00000000
00000000
00100010
10011001
00000000
,
00100010
00000000
00000000
00100010
00000000
10001000
00010001
00000000
,
01000100
00000000
01000100
00000000
00000000
00010001
10001000
00000000
,
00010001
00000000
00100010
10001000
00000000
00100010
00000000
01000100
,
10001000
00000000
00010001
00100010
00000000
10011001
00000000
00000000
,
00100010
00000000
00000000
01000100
00000000
10001000
00010001
00000000
,
01000100
00000000
00100010
00000000
00000000
00010001
10001000
00000000
,
00000000
10011001
00000000
00100010
00010001
00000000
01000100
10001000
,
00000000
01000100
10011001
00000000
00000000
01100110
00000000
00010001
,
00010001
00000000
01000100
01000100
00000000
10001000
10001000
00000000
,
00100010
00100010
00000000
01000100
01000100
00000000
00000000
01100110
,
00000000
10011001
00000000
00000000
;

//---------------dance-solo - ----------------
#NOTES:
     dance-solo:
     :
     Easy:
     4:
     0.315,0.343,0.139,0.000,0.000:
000000
000000
000000
000000
,
000000
000000
000000
000000
,
000000
000000
000000
000000
,
000000
000000
000000
000000
,
000000
000000
000000
000000
,
010000
000010
100000
001000
,
000001
001000
100000
000001
,
100000
010000
000001
000010
,
100000
001000
000001
001000
,
100000
000001
000100
001000
,
000001
000001
010000
010000
,
100000
000100
001000
000000
,
000001
100000
000001
010000
,
000001
000100
001000
000000
,
000000
000000
000000
000000
,
000000
000000
000000
000000
,
000010
000010
100000
001000
,
010000
010000
000001
001000
,
000100
100000
000001
001000
,
000100
000001
100000
001000
,
000100
000001
001000
100000
,
000100
000001
001000
100000
,
000100
000100
000100
000100
,
000010
000010
100000
001000
,
010000
010000
000001
001000
,
000010
000010
100000
001000
,
000100
100000
000001
001000
,
000100
000001
100000
001000
,
000100
000100
001000
001000
,
000100
000001
001000
100000
,
001000
001000
000001
000001
,
010000
000010
100000
001000
,
000100
000100
000000
000000
100000
100000
000000
000000
,
001000
001000
000000
000000
000001
000001
000000
000000
,
000100
000001
001000
100000
,
000100
100000
001000
000001
,
000100
000100
000000
000000
100000
100000
000000
000000
,
001000
001000
000000
000000
000001
000001
000000
000000
,
100000
010000
000100
001000
,
000001
000010
000100
001000
,
000100
000100
100000
000001
,
001100
100001
000000
000000
,
000100
000001
001000
100000
,
000100
100000
001000
100001
,
000100
000100
100000
000001
,
001100
100001
000000
000000
,
000100
100000
001000
000000
,
000001
100000
010010
001100
,
000100
000100
100000
000001
,
001100
100001
000000
001000
,
000100
000001
001000
100000
,
000100
100000
001000
100001
,
000010
000010
010000
000001
,
001100
100001
001000
001000
,
000100
000000
100000
000000
001000
000000
000000
001000
,
000000
000000
100000
000000
000000
000100
000000
000000
,
000001
000000
000000
001000
000000
000000
100000
000000
,
000000
000001
000000
000000
000010
000000
000000
010000
,
000000
100001
000000
000000
;

//---------------dance-solo - ----------------
#NOTES:
     dance-solo:
     :
     Medium:
     6:
     0.363,0.530,0.214,0.000,0.011:
000000
000000
000000
000000
,
000000
000000
000000
000000
,
000000
000000
000000
000000
,
000000
000000
000000
000000
,
000000
000000
000000
000000
,
010000
010000
000000
000010
000010
000000
100000
100000
,
000000
000000
001000
000000
001000
000000
000000
000000
000001
000000
100000
001000
000001
000000
000000
000000
,
000010
000010
000000
010000
010000
000000
000001
000001
,
000000
000000
001000
000000
001000
000000
000000
000000
000001
000000
100000
001000
000001
000000
000000
000000
,
000001
100000
000100
001000
,
000001
100000
000001
100000
000100
001000
000001
000000
,
010000
000001
100000
001000
,
000100
000000
001000
000000
000001
100000
000001
000000
,
000010
100000
000001
001000
,
000000
000000
000000
000000
,
000000
000000
000000
000000
,
000100
000000
000000
000001
000100
000001
000000
000000
,
000100
000001
100000
001000
,
000001
000000
000000
100000
000100
100000
000000
000000
,
000100
100000
001000
000001
,
100000
000000
000000
000001
001000
000001
000000
000000
,
000100
000000
000100
000000
000010
010000
000010
010000
,
000100
000000
000000
100000
001000
100000
000000
000000
,
000100
000001
001000
100000
,
000100
000000
000000
000001
000100
000001
000000
000000
,
000100
000001
100000
001000
,
000001
000000
000000
100000
000100
100000
000000
000000
,
000100
100000
001000
000001
,
001000
000000
000000
000100
001000
000100
000000
000000
,
000100
000001
001000
100000
,
000010
000000
000000
100000
000001
100000
000000
000000
,
000100
000100
001000
001000
,
000001
000001
000000
000000
100000
100000
000000
000000
,
000010
000010
000000
000000
010000
010000
000000
000000
,
000100
000000
000100
000000
010000
010000
000010
000000
,
100000
000000
000001
000000
001000
001000
000100
000000
,
000001
100000
000000
000000
100000
000001
000000
000000
,
100000
001000
000000
000000
000001
001000
000000
000000
,
000001
100000
000100
001000
,
000001
000000
100000
000000
000100
000001
001000
000000
,
000100
000000
000000
000100
000000
100000
000001
000000
,
001000
000000
001000
000000
000000
000001
100000
000000
,
100100
001001
000101
101000
,
010010
001001
101000
100001
,
000100
000000
000000
000100
000000
100000
000001
000000
,
001000
000000
001000
000000
000000
000001
100000
000000
,
000000
000101
000000
000000
101000
000000
000000
001100
,
000000
000000
100001
000000
000000
000010
010000
000000
,
000100
000000
000000
000100
000000
100000
000001
000000
,
001000
000000
001000
000000
000000
000001
100000
000000
,
000010
000000
000010
000000
010000
000001
000001
000000
,
100000
000000
001000
000000
000001
100000
000100
000000
,
000100
000000
000000
000100
000000
100000
000001
000000
,
001000
000000
001000
000000
000000
000001
100000
000000
,
000000
000001
000000
010010
000000
000000
000000
100000
,
000000
000000
010010
000000
000000
000100
000000
000000
,
100001
000000
000000
001000
000000
000000
000101
000000
,
000000
010001
000000
000000
100010
000000
000000
101000
,
000000
100001
000000
000000
;

//---------------dance-solo - ----------------
#NOTES:
     dance-solo:
     :
     Hard:
     8:
     0.418,0.530,0.364,0.000,0.059:
000000
000000
000000
000000
,
000000
000000
000000
000000
,
000000
000000
000000
000000
,
000000
000000
000000
000000
,
000000
000000
000000
000000
,
010000
000000
000000
000010
000000
000000
100000
000000
,
000000
000000
001000
000000
000000
000000
000000
000000
100000
000001
001000
000100
100000
000001
001000
000100
,
100000
000000
000000
001000
000000
000000
000100
000000
,
000000
000000
000001
000000
000000
000000
000000
000000
100000
000001
001000
000100
100000
000001
001000
000100
,
100000
000001
010000
000010
,
000001
000010
000001
000010
100000
000100
000001
000000
,
000100
000000
000000
000001
000000
000000
000001
000000
000000
000000
000100
000000
100000
000000
000000
000000
,
001000
000000
000000
001000
000000
000000
000001
000000
100000
000000
000001
000000
000100
000000
000000
000000
,
000100
000000
000000
100000
000000
000000
100000
000000
000000
000000
000010
000000
000010
000000
000000
000000
,
000000
000000
000000
000000
,
000000
000000
000000
000000
,
000010
000000
000000
100000
000001
100000
000000
000000
,
100100
010010
000101
010010
,
010000
000000
000000
000001
100000
000001
000000
000000
,
000100
001000
000001
100000
000100
001000
100001
000000
,
100000
000000
000000
000100
001000
000001
000000
000000
,
000100
000000
001000
000000
000001
000100
100000
001000
,
000100
000000
000000
001000
000100
100000
000000
000000
,
100100
010010
000101
010010
,
000010
000000
000000
100000
000001
100000
000000
000000
,
000100
100100
001000
001001
,
010000
000000
000000
000001
100000
000001
000000
000000
,
000100
001000
100000
000001
000100
001000
100001
000000
,
001000
000000
000000
000100
001000
000100
000000
000000
,
001000
100000
000100
000001
,
010000
000000
000000
000001
100000
000001
000000
000000
,
001000
000001
000100
100000
,
000010
000010
000000
000000
000001
001000
000000
000000
,
010000
010000
000000
000000
100000
001000
000000
000000
,
000100
001000
000100
000000
100000
000001
100000
000000
,
100000
000100
000001
000000
000001
001000
100000
000000
,
000010
000010
000000
000000
000001
001000
000000
000000
,
010000
010000
000000
000000
100000
001000
000000
000000
,
000001
100000
000000
000100
000000
000001
000000
001000
,
000000
100000
000000
000100
000000
000001
000000
000000
,
010000
000000
000000
010000
000000
000010
000010
000000
,
101000
000000
001001
000000
000000
000001
100000
000000
,
100100
001001
000101
101000
,
010010
001001
101000
100001
,
010000
000000
000000
010000
000000
000010
000010
000000
,
101000
000000
001001
000000
000000
000001
100000
000000
,
000000
000100
000000
000001
000100
000000
001000
000001
,
000000
100000
001000
000000
000100
000001
100000
000001
,
010000
000000
000000
010000
000000
000010
000010
000000
,
101000
000000
001001
000000
000000
000001
100000
000000
,
000001
000000
000100
100000
000000
000100
000000
001000
,
100000
000000
000001
000100
000000
100001
000000
000000
,
010000
000000
000000
010000
000000
000010
000010
000000
,
101000
000000
001001
000000
000000
000001
100000
000000
,
000000
100001
000000
000100
000001
000000
001000
100000
,
000000
001000
100001
000000
000000
001100
000000
000001
,
000001
000000
001000
001000
000000
100000
100000
000000
,
000100
000100
000000
001000
001000
000000
000000
001100
,
000000
100001
000000
000000
;

//---------------dance-double - ----------------
#NOTES:
     dance-double:
     :
     Beginner:
     1:
     0.124,0.187,0.128,0.000,0.000:
00000000
00000000
00000000
00000000
,
00000000
00000000
00000000
00000000
,
00000000
00000000
00000000
00000000
,
00000000
00000000
00000000
00000000
,
00000000
00000000
00000000
00000000
,
00100000
00000000
00010000
00000000
,
00000000
00000001
00000000
00000001
,
00000000
00000000
01000000
00000000
,
00000000
00000001
00000000
00001000
,
00000000
00001000
00000000
01000000
,
00000000
00010000
00000000
00001000
,
00000000
00001000
00000000
00000100
,
00000000
00000000
01000000
00000000
,
00001000
00000000
00000000
00001000
,
00000000
00000000
00000000
00000000
,
00000000
00000000
00000000
00000000
,
00100000
00000000
00000000
00000000
,
00100000
00000000
00000000
00000100
,
00000000
00000000
01000000
00000000
,
00000000
00010000
00000000
00000000
,
00000001
00000000
00000000
00000000
,
00100000
00000000
00000000
10000000
,
00000000
00000000
00100000
00000000
,
00000000
00001001
00000000
00000000
,
00010000
00000000
00000000
00000000
,
00010000
00000000
00000000
00000110
,
00000000
00000000
00001000
00000000
,
00000000
00011000
00000000
00000000
,
01000000
00000000
00000000
00000000
,
00010000
00000000
00000000
00001001
,
00000000
00000000
00000001
00000000
,
00000000
10010000
00000000
00000000
,
00100000
00000000
00000000
00000000
,
00001000
00000000
00000000
00000000
,
00000010
00000000
00000000
00010000
,
00000000
00000000
00001000
00000000
,
00000000
00000000
00010000
00000000
,
00000000
00000000
10000000
00000000
,
00000000
00010000
00000000
00000000
,
00000001
00000000
00000000
00011000
,
00000000
00000000
00000000
10000000
,
00000000
00000000
00000000
01000000
,
00000000
00000000
00001000
00000000
,
00000000
00000010
00000000
00000000
,
00000001
00000000
00000000
00000010
,
00000000
00000000
00000000
00100000
,
00000000
00000000
01000000
00000000
,
00000000
10010000
00000000
00000000
,
00000010
00000000
00000000
00000100
,
00000000
00000000
00000000
00001000
,
00000000
00000000
01000000
00000000
,
00000000
00010000
00000000
00000000
,
00000100
00000000
00000000
00000010
,
00000000
00000000
00000000
00100000
,
00000000
00000000
00010000
00000000
,
00000000
00001001
00000000
00000000
,
00011000
00000000
00000000
10010000
,
00000000
00000000
00001001
00000000
,
00000000
01100000
00000000
00000000
;

//---------------dance-double - Edit by silenttype01----------------
#NOTES:
     dance-double:
     Edit by silenttype01:
     Challenge:
     10:
     0.698,0.936,0.139,0.289,0.348:
00000000
00000000
00000000
00000000
,
00000000
00000000
00000000
00000000
,
00000000
00000000
00000000
00000000
,
20000000
31000000
00000000
02000000
03100000
00000000
00200000
10300000
,
00000000
20000000
31000000
00000000
00100000
00100000
10000000
10000000
,
02000000
03010000
00000000
00020000
00030010
00000000
00000020
00001030
,
00000000
00000000
00002000
00000000
00003001
00000000
00000000
00000000
00001000
00000100
00001000
00000100
00001000
00000100
00001000
00000100
,
00002000
00000000
00000000
00003002
00000000
00000000
00000203
00000000
00000000
00000320
00000000
00000000
00000130
00000000
00000001
00000000
,
00000200
00000000
00000000
00000320
00000000
00000000
00000230
00000000
00000000
00000302
00000000
00000000
00000103
00000000
00000010
00000000
,
00000100
00000001
00000000
00000001
00000010
00000000
00000010
00001000
00000000
00001000
00010000
00000000
00000010
00001000
00000010
00000000
,
00000100
00000001
00000000
00000001
00000010
00000000
00000010
00001000
00000000
00001000
00010000
00000000
00000010
00001000
00000010
00000000
,
00000200
00000000
00000000
00000001
00000000
00000000
00000302
00000000
00000000
00000000
00000103
00000000
00000100
00000000
00000100
00000000
,
00000010
00000000
00001000
00000000
00000001
00000000
00000010
00000001
00000010
00000001
00000010
00000000
00000100
00001000
00000100
00001000
00000100
00000000
00000010
00000000
00000011
00000000
00000000
00000000
00001010
00000000
00000000
00000000
00011000
00000000
00000000
00000000
,
00020000
00000000
00000000
00001000
00000000
00000000
02030000
00000000
00000000
00000000
00100000
00000000
00100000
00000000
03100000
00000000
,
01100000
00000000
00000000
01100000
00000000
00000000
01100000
00000000
,
00000000
00000000
01100000
00000000
00000000
00000000
00000000
00000000
10000000
00010000
10000000
00010000
10000000
00010000
10000000
00010000
,
10000000
00000000
00010000
00000000
10000000
00000000
00010000
00000000
00100000
00010000
00100000
00010000
00100000
00000000
01000000
00000000
,
10000000
01000000
00010000
01000000
10000000
01000000
00010000
00001000
,
01000000
00000000
00010000
00000000
00100000
00000000
00001000
00000000
00010000
00001000
00010000
00001000
00010000
00000000
00001000
00000000
,
00100000
00010000
01000000
00001000
00000100
00000001
00000100
00001000
,
00000100
00000000
00000001
00000000
00001000
00000000
00000001
00000000
00000010
00000100
00000010
00000100
00000010
00000000
00000001
00000000
,
00000100
00000001
00000010
00000100
00010000
00001000
00000100
00000001
,
MMMMM02M
00000000
MMMMM00M
00000100
MMMMM10M
00000130
MMMMMMMM
00000000
,
MMMMMMMM
MMMMMMMM
MMMMMMMM
MMMMMMMM
,
00000001
00000000
00001000
00000000
00000001
00000000
00001000
00000000
00000010
00001000
00000010
00001000
00000010
00000000
00000100
00000000
,
00000001
00000100
00001000
00000100
00000001
00000100
00001000
00010000
,
00000100
00000000
00001000
00000000
00000010
00000000
00010000
00000000
00001000
00010000
00001000
00010000
00001000
00000000
00010000
00000000
,
00000010
00001000
00000100
00010000
01000000
10000000
01000000
00010000
,
01000000
00000000
10000000
00000000
00010000
00000000
10000000
00000000
00100000
01000000
00100000
01000000
00100000
00000000
10000000
00000000
,
01000000
10000000
00100000
01000000
00001000
00010000
01000000
10000000
,
M02MMMMM
00000000
M00MMMMM
01000000
M10MMMMM
01300000
MMMMMMMM
00000000
,
MMMMMMMM
MMMMMMMM
MMMMMMMM
MMMMMMMM
,
10000000
01000000
00000000
00000000
00010000
01000000
00000000
00000000
,
10000000
10000000
00100000
01000000
10010000
00000000
00000000
00000000
,
10000000
00000000
00100000
00000000
00010000
00000000
00001000
00000000
00010000
00001000
00010000
00001000
00010000
00000000
00001000
00000000
,
00000010
00000001
00000010
00001000
00010000
00100000
00100000
00100000
,
10000000
01000000
00000000
00000000
00010000
01000000
00000000
00000000
,
10000000
01000000
00000000
00000000
02010000
00000000
00000000
03000000
,
10000000
00000000
01000000
00000000
00010000
00000000
00001000
00000000
00010000
00001000
00010000
00001000
00010000
00000000
00001000
00000000
,
00000100
00000001
00000100
00001000
00010000
01000000
01000000
01000000
,
00100000
00000000
00001000
00000000
01000000
00000000
00010000
00000000
00100000
00001000
00100000
00001000
00100000
00000000
00001000
00000000
,
00000100
00000010
00001000
00000001
00000100
00000010
00010000
00000100
,
00001000
00000000
00000000
00001100
00000000
00000000
00000100
00000000
00000000
00000110
00000000
00000000
00000010
00000000
00000000
00000000
,
00000001
00000100
00000001
00000000
00001001
00000000
00001000
00000100
00001000
00000000
00001001
00000000
00000000
00000000
00000000
00000000
,
00000010
00000000
00010000
00000000
00000100
00000000
00001000
00000000
00000010
00010000
00000010
00010000
00000010
00000000
00010000
00000000
,
01000000
10000000
00000000
10000000
00100000
00010000
00100000
10000000
,
00000000
10000000
00000000
10000000
01000000
00000000
01000000
00010000
,
00000000
00010000
00001000
00000000
00000000
00000010
00000001
00000010
,
00001000
00000000
00000001
00000000
00000100
00000000
00001000
00000000
00000001
00000100
00000001
00000100
00000001
00000000
00000100
00000000
,
00000010
00000100
00000001
00000100
00001000
00010000
00100000
10000000
,
00100000
00000000
00000000
01000000
00010000
00000000
00100000
00000000
01000000
00000000
00000000
10000000
00100000
00000000
01000000
00000000
,
00010000
00000000
00000000
10000000
01000000
00000000
00010000
00000000
00001000
00000000
00000000
00010000
01000000
00000000
10000000
00000000
,
01000000
00000000
00010000
00000000
00001000
00000000
00000010
00000000
00000001
00000010
00000001
00000010
00000001
00000000
00001000
00000000
,
00000001
00000100
00000001
00000010
00001000
00000010
00000100
00001000
,
00000001
00000002
00000010
00000013
00000100
00001000
00001000
00020000
,
00100000
00130000
01000000
10000000
10000000
00020000
01000000
01030000
,
00200000
10000000
10300000
00100000
00010000
00010000
00100000
10000000
,
10000000
00100000
00010000
00010000
00001000
00000100
00000100
00000010
,
00001000
00001000
00000001
00000000
00000000
00000000
00000000
00000000
;

//---------------dance-single - Edit by silenttype01----------------
#NOTES:
     dance-single:
     Edit by silenttype01:
     Challenge:
     10:
     0.698,0.936,0.139,0.289,0.348:
0000
0000
0000
0000
,
0000
0000
0000
0000
,
0000
0000
0000
0000
,
2000
3100
0000
0200
0310
0000
0020
1030
,
0000
2000
3100
0000
0010
0010
1000
1000
,
0002
0103
0000
0200
0310
0000
0020
0031
,
0000
0000
0002
0000
0103
0000
0000
0000
0010
0001
0010
0001
0010
0001
0010
0001
,
2000
0000
0000
3002
0000
0000
0203
0000
0000
0320
0000
0000
0130
0000
0001
0000
,
0200
0000
0000
0320
0000
0000
0230
0000
0000
0302
0000
0000
0103
0000
0010
0000
,
0100
0001
0000
0001
0010
0000
0010
0100
0000
0100
1000
0000
0100
1000
0100
0000
,
1000
0100
0000
0100
0001
0000
0001
1000
0000
1000
0010
0000
1000
0010
1000
0000
,
0020
0000
0000
0001
0000
0000
0032
0000
0000
0000
0103
0000
0100
0000
0100
0000
,
0010
0000
1000
0000
0001
0000
0010
0001
0010
0001
0010
0000
0100
1000
0100
1000
0100
0000
0010
0000
0011
0000
0000
0000
0110
0000
0000
0000
1100
0000
0000
0000
,
0200
0000
0000
0010
0000
0000
2300
0000
0000
0000
0001
0000
0001
0000
3001
0000
,
1001
0000
0000
1001
0000
0000
1001
0000
,
0000
0000
1001
0000
0000
0000
0000
0000
0010
0100
0010
0100
0010
0100
0010
0100
,
0010
0000
0100
0000
0010
0000
0100
0000
1000
0001
1000
0001
1000
0000
0010
0000
,
0001
0010
1000
0010
0001
0010
1000
0010
,
0100
0000
0001
0000
1000
0000
0100
0000
0010
0001
0010
0001
0010
0000
0001
0000
,
0010
1000
0010
0001
0010
1000
0010
0001
,
1000
0000
0100
0000
1000
0000
0001
0000
0100
0001
0100
0001
0100
0000
0010
0000
,
1000
0100
1000
0010
0100
0001
0100
0010
,
20MM
0000
00MM
0100
01MM
3100
MMMM
0000
,
MMMM
MMMM
MMMM
MMMM
,
0010
0000
0100
0000
0010
0000
0100
0000
0001
1000
0001
1000
0001
0000
0010
0000
,
1000
0010
0001
0010
1000
0010
0001
0010
,
0100
0000
1000
0000
0001
0000
0100
0000
0010
1000
0010
1000
0010
0000
1000
0000
,
0010
0001
0010
1000
0010
0001
0010
1000
,
0001
0000
0100
0000
0001
0000
1000
0000
0100
1000
0100
1000
0100
0000
0010
0000
,
0001
0100
0001
0010
0100
1000
0100
0010
,
M0M2
0000
M0M0
0100
M1M0
0103
MMMM
0000
,
MMMM
MMMM
MMMM
MMMM
,
1000
0100
0000
0000
0001
0100
0000
0000
,
1000
1000
0010
0100
1001
0000
0000
0000
,
1000
0000
0100
0000
0010
0000
0001
0000
1000
0100
0010
0001
0010
0000
0001
0000
,
0010
0100
1000
0001
0010
0100
0100
0100
,
1000
0100
0000
0000
0001
0100
0000
0000
,
1000
0100
0000
0000
0201
0000
0000
0300
,
0001
0000
0010
0000
0100
0000
1000
0000
0001
0010
0100
1000
0100
0000
1000
0000
,
0100
0010
0001
1000
0100
0010
0010
0010
,
0001
0000
0100
0000
0010
0000
0100
0000
0001
0100
0010
1000
0010
0000
1000
0000
,
0100
0010
0100
1000
0001
0100
1000
0100
,
0010
0000
0000
1010
0000
0000
1000
0000
0000
1100
0000
0000
0100
0000
0000
0000
,
0010
0001
0010
0000
0110
0000
0100
1000
0100
0000
0110
0000
0000
0000
0000
0000
,
1000
0000
0010
0000
0100
0000
0010
0000
1000
0010
0100
0001
0100
0000
0001
0000
,
0100
0010
0000
0010
1000
0001
1000
0010
,
0000
0010
0000
0010
1000
0000
1000
0100
,
0000
0100
0001
0000
0000
1000
0010
0001
,
1000
0000
0100
0000
0010
0000
0001
0000
0100
0010
1000
0001
1000
0000
0010
0000
,
0100
1000
0001
0010
1000
0001
0100
0010
,
0100
0000
0000
0010
1000
0000
0100
0000
0010
0000
0000
0001
0100
0000
0010
0000
,
1000
0000
0000
0100
0010
0000
0001
0000
0100
0000
0000
0010
1000
0000
0100
0000
,
0010
0000
0001
0000
0100
0000
0001
0000
0010
0100
1000
0001
1000
0000
0001
0000
,
0100
1000
0001
0010
1000
0001
0100
0010
,
1000
0002
0100
0103
0010
1000
1000
0200
,
0010
0310
0001
1000
1000
0020
0100
0130
,
0020
1000
1030
0001
0100
0100
1000
0100
,
0100
0001
0100
0100
1000
0100
0100
0001
,
0100
0100
1000
0000
0000
0000
0000
0000
;

//---------------dance-double - Edit by silenttype01----------------
#NOTES:
     dance-double:
     Edit by silenttype01:
     Edit:
     10:
     0.682,0.936,0.139,0.278,0.418:
00000000
00000000
00000000
00000000
,
00000000
00000000
00000000
00000000
,
00000000
00000000
00000000
00000000
,
20000000
31000000
00000000
02000000
03100000
00000000
00200000
10300000
,
00000000
20000000
31000000
00000000
00100000
00100000
10000000
10000000
,
02000000
03010000
00000000
00020000
00030010
00000000
00000020
00001030
,
00000000
00000000
00002000
00000000
00003001
00000000
00000000
00000000
00001000
00000100
00001000
00000100
00001000
00000100
00001000
00000100
,
00002000
00000000
00000000
00003002
00000000
00000000
00000203
00000000
00000000
00000320
00000000
00000000
00000130
00000000
00000001
00000000
,
00000200
00000000
00000000
00000320
00000000
00000000
00000230
00000000
00000000
00000302
00000000
00000000
00000103
00000000
00000010
00000000
,
00000100
00000001
00000000
00000001
00000010
00000000
00000010
00001000
00000000
00001000
00010000
00000000
00000010
00001000
00000010
00000000
,
00000100
00000001
00000000
00000001
00000010
00000000
00000010
00001000
00000000
00001000
00010000
00000000
00000010
00001000
00000010
00000000
,
00000200
00000000
00000000
00000001
00000000
00000000
00000302
00000000
00000000
00000000
00000103
00000000
00000100
00000000
00000100
00000000
,
00000010
00000000
00001000
00000000
00000001
00000000
00000010
00000001
00000010
00000001
00000010
00000000
00000100
00001000
00000100
00001000
00000100
00000000
00000010
00000000
00000011
00000000
00000000
00000000
00001010
00000000
00000000
00000000
00011000
00000000
00000000
00000000
,
00020000
00000000
00000000
00001000
00000000
00000000
02030000
00000000
00000000
00000000
00100000
00000000
00100000
00000000
03100000
00000000
,
01100000
00000000
00000000
01100000
00000000
00000000
01100000
00000000
,
00000000
00000000
01100000
00000000
00000000
00000000
00000000
00000000
10000000
00010000
10000000
00010000
10000000
00010000
10000000
00010000
,
10000000
00000000
00010000
00000000
10000000
00000000
00010000
00000000
00100000
00010000
00100000
00010000
00100000
00000000
01000000
00000000
,
10000000
01000000
00010000
01000000
10000000
01000000
00010000
00001000
,
01000000
00000000
00010000
00000000
00100000
00000000
00001000
00000000
00010000
00001000
00010000
00001000
00010000
00000000
00001000
00000000
,
00100000
00010000
01000000
00001000
00000100
00000001
00000100
00001000
,
00000100
00000000
00000001
00000000
00001000
00000000
00000001
00000000
00000010
00000100
00000010
00000100
00000010
00000000
00000001
00000000
,
00000100
00000001
00000010
00000100
00010000
00001000
00000100
00000001
,
MMMMM02M
00000000
MMMMM00M
00000100
MMMMM10M
00000130
MMMMMMMM
00000000
,
MMMMMMMM
MMMMMMMM
MMMMMMMM
MMMMMMMM
,
00000001
00000000
00001000
00000000
00000001
00000000
00001000
00000000
00000010
00001000
00000010
00001000
00000010
00000000
00000100
00000000
,
00000001
00000100
00001000
00000100
00000001
00000100
00001000
00010000
,
00000100
00000000
00001000
00000000
00000010
00000000
00010000
00000000
00001000
00010000
00001000
00010000
00001000
00000000
00010000
00000000
,
00000010
00001000
00000100
00010000
01000000
10000000
01000000
00010000
,
01000000
00000000
10000000
00000000
00010000
00000000
10000000
00000000
00100000
01000000
00100000
01000000
00100000
00000000
10000000
00000000
,
01000000
10000000
00100000
01000000
00001000
00010000
01000000
10000000
,
M02MMMMM
00000000
M00MMMMM
01000000
M10MMMMM
01300000
MMMMMMMM
00000000
,
MMMMMMMM
MMMMMMMM
MMMMMMMM
MMMMMMMM
,
10000000
01000000
00000000
00000000
00010000
01000000
00000000
00000000
,
10000000
10000000
00100000
01000000
10010000
00000000
00000000
00000000
,
10000000
00000000
00100000
00000000
00010000
00000000
00001000
00000000
00010000
00001000
00010000
00001000
00010000
00000000
00001000
00000000
,
00000010
00000001
00000010
00001000
00010000
00100000
00100000
00100000
,
10000000
01000000
00000000
00000000
00010000
01000000
00000000
00000000
,
10000000
01000000
00000000
00000000
02010000
00000000
00000000
03000000
,
10000000
00000000
01000000
00000000
00010000
00000000
00001000
00000000
00010000
00001000
00010000
00001000
00010000
00000000
00001000
00000000
,
00000100
00000001
00000100
00001000
00010000
01000000
01000000
01000000
,
00100000
00000000
00001000
00000000
01000000
00000000
00010000
00000000
00100000
00001000
00100000
00001000
00100000
00000000
00001000
00000000
,
00000100
00000010
00001000
00000001
00000100
00000010
00010000
00000100
,
00001000
00000000
00000000
00001100
00000000
00000000
00000100
00000000
00000000
00000110
00000000
00000000
00000010
00000000
00000000
00000000
,
00000001
00000100
00000001
00000000
00001001
00000000
00001000
00000100
00001000
00000000
00001001
00000000
00000000
00000000
00000000
00000000
,
00000010
00000000
00010000
00000000
00000100
00000000
00001000
00000000
00000010
00010000
00000010
00010000
00000010
00000000
00010000
00000000
,
01000000
10000000
00000000
10000000
00100000
00010000
00100000
10000000
,
00000000
10000000
00000000
10000000
01000000
00000000
01000000
00010000
,
00000000
00010000
00001000
00000000
00000000
00000010
00000001
00000010
,
00001000
00000000
00000001
00000000
00000100
00000000
00001000
00000000
00000001
00000100
00000001
00000100
00000001
00000000
00000100
00000000
,
00000010
00000100
00000001
00000100
00001000
00010000
00100000
10000000
,
00100000
00000000
00000000
01000000
00010000
00000000
00100000
00000000
01000000
00000000
00000000
10000000
00100000
00000000
01000000
00000000
,
00010000
00000000
00000000
10000000
01000000
00000000
00010000
00000000
00001000
00000000
00000000
00010000
01000000
00000000
10000000
00000000
,
01000000
00000000
00010000
00000000
00001000
00000000
00000010
00000000
00000001
00000010
00000001
00000010
00000001
00000000
00001000
00000000
,
00000001
00000100
00000001
00000010
00001000
00000010
00000100
00001000
,
00000001
00000002
00000000
00000003
00000200
00000000
00000300
00020000
,
00000000
00000000
00030000
00000000
01000000
00000000
00000000
00100000
00000000
00000000
10000000
00000000
00000000
01000000
00000000
00000000
,
00100000
00000000
00000000
00000000
00000000
00000000
00010000
00000000
00000000
00000000
00000000
00000000
10000000
00000000
00000000
01000000
00000000
00000000
10000000
00000000
00000000
00000000
00000000
00000000
00100000
00000000
00000000
01000000
00000000
00000000
00100000
00000000
,
00000000
00000000
00000000
00000000
00010000
00000000
00000000
00001000
00000000
00000000
00010000
00000000
00000000
00000000
00000000
00000000
00001000
00000000
00000000
00000100
00000000
00000000
00001000
00000000
00000000
00000000
00000000
00000000
00000010
00000000
00000000
00000100
,
00000000
00000010
00000000
00000000
00000001
00000000
00000000
00000000
00000000
00000000
00000000
00000000
00000000
00000000
00000000
00000000
;

//---------------dance-single - Edit by silenttype01----------------
#NOTES:
     dance-single:
     Edit by silenttype01:
     Edit:
     10:
     0.682,0.936,0.139,0.278,0.418: // measure 1
0000
0000
0000
0000
,  // measure 2
0000
0000
0000
0000
,  // measure 3
0000
0000
0000
0000
,  // measure 4
2000
3100
0000
0200
0310
0000
0020
1030
,  // measure 5
0000
2000
3100
0000
0010
0010
1000
1000
,  // measure 6
0002
0103
0000
0200
0310
0000
0020
0031
,  // measure 7
0000
0000
0002
0000
0103
0000
0000
0000
0010
0001
0010
0001
0010
0001
0010
0001
,  // measure 8
2000
0000
0000
3002
0000
0000
0203
0000
0000
0320
0000
0000
0130
0000
0001
0000
,  // measure 9
0200
0000
0000
0320
0000
0000
0230
0000
0000
0302
0000
0000
0103
0000
0010
0000
,  // measure 10
0100
0001
0000
0001
0010
0000
0010
0100
0000
0100
1000
0000
0100
1000
0100
0000
,  // measure 11
1000
0100
0000
0100
0001
0000
0001
1000
0000
1000
0010
0000
1000
0010
1000
0000
,  // measure 12
0020
0000
0000
0001
0000
0000
0032
0000
0000
0000
0103
0000
0100
0000
0100
0000
,  // measure 13
0010
0000
1000
0000
0001
0000
0010
0001
0010
0001
0010
0000
0100
1000
0100
1000
0100
0000
0010
0000
0011
0000
0000
0000
0110
0000
0000
0000
1100
0000
0000
0000
,  // measure 14
0200
0000
0000
0010
0000
0000
2300
0000
0000
0000
0001
0000
0001
0000
3001
0000
,  // measure 15
1001
0000
0000
1001
0000
0000
1001
0000
,  // measure 16
0000
0000
1001
0000
0000
0000
0000
0000
0010
0100
0010
0100
0010
0100
0010
0100
,  // measure 17
0010
0000
0100
0000
0010
0000
0100
0000
1000
0001
1000
0001
1000
0000
0010
0000
,  // measure 18
0001
0010
1000
0010
0001
0010
1000
0010
,  // measure 19
0100
0000
0001
0000
1000
0000
0100
0000
0010
0001
0010
0001
0010
0000
0001
0000
,  // measure 20
0010
1000
0010
0001
0010
1000
0010
0001
,  // measure 21
1000
0000
0100
0000
1000
0000
0001
0000
0100
0001
0100
0001
0100
0000
0010
0000
,  // measure 22
1000
0100
1000
0010
0100
0001
0100
0010
,  // measure 23
20MM
0000
00MM
0100
01MM
3100
MMMM
0000
,  // measure 24
MMMM
MMMM
MMMM
MMMM
,  // measure 25
0010
0000
0100
0000
0010
0000
0100
0000
0001
1000
0001
1000
0001
0000
0010
0000
,  // measure 26
1000
0010
0001
0010
1000
0010
0001
0010
,  // measure 27
0100
0000
1000
0000
0001
0000
0100
0000
0010
1000
0010
1000
0010
0000
1000
0000
,  // measure 28
0010
0001
0010
1000
0010
0001
0010
1000
,  // measure 29
0001
0000
0100
0000
0001
0000
1000
0000
0100
1000
0100
1000
0100
0000
0010
0000
,  // measure 30
0001
0100
0001
0010
0100
1000
0100
0010
,  // measure 31
M0M2
0000
M0M0
0100
M1M0
0103
MMMM
0000
,  // measure 32
MMMM
MMMM
MMMM
MMMM
,  // measure 33
1000
0100
0000
0000
0001
0100
0000
0000
,  // measure 34
1000
1000
0010
0100
1001
0000
0000
0000
,  // measure 35
1000
0000
0100
0000
0010
0000
0001
0000
1000
0100
0010
0001
0010
0000
0001
0000
,  // measure 36
0010
0100
1000
0001
0010
0100
0100
0100
,  // measure 37
1000
0100
0000
0000
0001
0100
0000
0000
,  // measure 38
1000
0100
0000
0000
0201
0000
0000
0300
,  // measure 39
0001
0000
0010
0000
0100
0000
1000
0000
0001
0010
0100
1000
0100
0000
1000
0000
,  // measure 40
0100
0010
0001
1000
0100
0010
0010
0010
,  // measure 41
0001
0000
0100
0000
0010
0000
0100
0000
0001
0100
0010
1000
0010
0000
1000
0000
,  // measure 42
0100
0010
0100
1000
0001
0100
1000
0100
,  // measure 43
0010
0000
0000
1010
0000
0000
1000
0000
0000
1100
0000
0000
0100
0000
0000
0000
,  // measure 44
0010
0001
0010
0000
0110
0000
0100
1000
0100
0000
0110
0000
0000
0000
0000
0000
,  // measure 45
1000
0000
0010
0000
0100
0000
0010
0000
1000
0010
0100
0001
0100
0000
0001
0000
,  // measure 46
0100
0010
0000
0010
1000
0001
1000
0010
,  // measure 47
0000
0010
0000
0010
1000
0000
1000
0100
,  // measure 48
0000
0100
0001
0000
0000
1000
0010
0001
,  // measure 49
1000
0000
0100
0000
0010
0000
0001
0000
0100
0010
1000
0001
1000
0000
0010
0000
,  // measure 50
0100
1000
0001
0010
1000
0001
0100
0010
,  // measure 51
0100
0000
0000
0010
1000
0000
0100
0000
0010
0000
0000
0001
0100
0000
0010
0000
,  // measure 52
1000
0000
0000
0100
0010
0000
0001
0000
0100
0000
0000
0010
1000
0000
0100
0000
,  // measure 53
0010
0000
0001
0000
0100
0000
0001
0000
0010
0100
1000
0001
1000
0000
0001
0000
,  // measure 54
0100
1000
0001
0010
1000
0001
0100
0010
,  // measure 55
1000
0002
0000
0003
0020
0000
0030
0200
,  // measure 56
0000
0000
0300
0000
1000
0000
0000
0001
0000
0000
0010
0000
0000
0100
0000
0000
,  // measure 57
1000
0000
0000
0000
0000
0000
0001
0000
0000
0000
0000
0000
0010
0000
0000
0100
0000
0000
0010
0000
0000
0000
0000
0000
0100
0000
0000
1000
0000
0000
0001
0000
,  // measure 58
0000
0000
0000
0000
0010
0000
0000
0100
0000
0000
0010
0000
0000
0000
0000
0000
0100
0000
0000
1000
0000
0000
0001
0000
0000
0000
0000
0000
0010
0000
0000
0100
,  // measure 59
0000
0010
0000
0000
0100
0000
0000
0000
0000
0000
0000
0000
0000
0000
0000
0000
;
