#TITLE:LOVE SO GROOVY;
#SUBTITLE:;
#ARTIST:LOVEMINTS;
#TITLETRANSLIT:;
#SUBTITLETRANSLIT:;
#ARTISTTRANSLIT:;
#CREDIT:;
#BANNER:LOVE SO GROOVY.png;
#BACKGROUND:LOVE SO GROOVY-bg.png;
#LYRICSPATH:;
#CDTITLE:Dance Dance Revolution 2nd Append -Club v2-.png;
#MUSIC:LOVE SO GROOVY.ogg;
#OFFSET:0.000;
#SAMPLESTART:56.159;
#SAMPLELENGTH:15.000;
#SELECTABLE:YES;
#DISPLAYBPM:141.000;
#BPMS:0.000=141.010;
#STOPS:;
#BGCHANGES:;

//---------------dance-single - ----------------
#NOTES:
     dance-single:
     :
     Easy:
     3:
     0.204,0.254,0.000,0.000,0.000:
0000
0000
0000
0000
,
0000
0000
0000
0000
,
0000
0000
0000
0000
,
0000
0000
0000
0000
,
0000
0000
0000
0000
,
0000
0000
0000
0000
,
0000
0000
0000
0000
,
0010
0000
0000
0010
,
0000
0000
0010
0100
,
1000
0100
0001
0100
,
1000
0100
0001
0010
,
1000
0100
0001
0100
,
1000
0010
0001
0100
,
1000
0100
0001
0100
,
1000
0100
0001
0010
,
1000
0100
0001
0100
,
1000
0010
0001
0100
,
0010
1000
0000
0000
,
0001
0010
0000
0000
,
0100
1000
0000
0000
,
0001
0100
0000
0000
,
1000
0100
0001
0010
,
1000
0100
0001
0010
,
1000
0100
0001
0010
,
1000
0100
0001
0010
,
0010
0000
0000
0000
,
1000
0000
0000
0000
,
0100
0000
0000
0000
,
0001
0000
0000
0000
,
1000
0010
0100
0001
,
0001
0010
0100
1000
,
1000
0010
0100
0001
,
0001
0010
0100
1000
,
1000
0010
0100
0001
,
0001
0010
0100
1000
,
1000
0010
0100
0001
,
0001
0010
0100
1000
,
0010
0001
0000
0000
,
1000
0010
0000
0000
,
0100
0001
0000
0000
,
1000
0100
0000
0000
,
0010
0001
0000
0000
,
1000
0010
0000
0000
,
0100
0001
0000
0000
,
1000
0100
0000
0000
;

//---------------dance-single - ----------------
#NOTES:
     dance-single:
     :
     Medium:
     4:
     0.286,0.344,0.281,0.000,0.000:
0000
0000
0000
0000
,
0000
0000
0000
0000
,
0000
0000
0000
0000
,
0000
0000
0000
0000
,
0000
0000
0000
0000
,
0000
0000
0000
0000
,
0000
0000
0000
0000
,
0010
0000
0000
0010
0000
0000
0010
0000
,
0000
0000
0010
0100
,
1000
0100
0001
0100
,
1000
0100
0001
0010
,
1000
0100
0001
0100
,
1000
0000
0100
0000
0010
0001
0100
0000
,
0001
0100
1000
0100
,
0001
0100
1000
0010
,
0001
0100
1000
0100
,
0001
0000
0100
0000
0010
1000
0100
0000
,
0000
0000
0000
0001
0010
0100
1000
0000
,
0000
0000
0000
0000
0000
1001
0000
0110
,
0000
0000
0000
1000
0100
0010
0001
0000
,
0000
0000
0000
0000
0000
0110
0000
1001
,
0000
0100
1000
0010
,
0001
0100
1000
0010
,
0001
0100
1000
0010
,
0001
0100
1000
0010
,
1000
0000
0000
0001
0001
0001
0000
1000
,
0000
0001
0000
0001
,
0001
0000
0000
1000
1000
1000
0000
0000
,
0011
0000
1100
0000
,
1001
0010
0010
0010
,
0011
1000
1000
1000
,
1001
0100
0100
0100
,
1100
0001
0001
0001
,
1001
0010
0010
0010
,
0011
1000
1000
1000
,
1001
0100
0100
0100
,
1100
0001
0001
0001
,
0000
0000
0000
0010
1000
0100
0001
0000
,
0000
0000
0000
0000
0000
1100
0000
0011
,
0000
0000
0000
0010
0001
0100
1000
0000
,
0000
0000
0000
0000
0000
1010
0000
0101
,
0000
0000
0000
1000
0100
0001
0010
0000
,
0000
0000
0000
0000
0000
0011
0000
1100
,
0000
0000
0000
0100
1000
0010
0001
0000
,
0000
0000
0000
0000
0000
0110
0000
1001
;

//---------------dance-single - ----------------
#NOTES:
     dance-single:
     :
     Hard:
     7:
     0.376,0.545,0.255,0.000,0.026:
0000
0000
0000
0000
,
0000
0000
0000
0000
,
0000
0000
0000
0000
,
0000
0000
0000
0000
,
0000
0000
0000
0000
,
0000
0000
0000
0000
,
0000
0000
0000
0000
,
0010
0000
0000
0010
0000
0000
0010
0000
,
0000
0010
0000
0000
0010
0100
0001
0000
,
1000
0100
0001
0100
,
1000
0000
0100
0000
0001
1000
0010
0000
,
1000
0100
0001
0100
,
1000
0000
0100
0000
0010
0001
0100
0000
,
0001
0100
1000
0100
,
0001
0000
0100
0000
1000
0001
0010
0000
,
0001
0100
1000
0100
,
0001
0000
0100
0000
0010
1000
0100
0000
,
0001
0000
0000
0001
0010
0100
1000
0000
,
0001
0000
0100
0000
0000
1001
0000
0110
,
0000
0000
0000
1000
0100
0010
0001
0000
,
1000
0000
0100
0000
0000
0110
0000
1001
,
0000
0100
1000
0010
,
0001
0000
0100
0000
1000
0001
0010
0000
,
0001
0100
1000
0010
,
0001
0000
0100
0000
1000
0001
0010
0000
,
1000
0000
0000
0001
0001
0001
0000
1000
,
0000
0001
0000
0001
,
0001
0000
0000
1000
1000
1000
0000
0000
,
1000
0001
1000
0001
1000
0000
0001
1000
0000
0001
1000
0000
0000
0000
0000
0000
,
1001
0000
0010
0100
0010
0100
0010
0100
,
0011
0000
1000
0100
1000
0100
1000
0100
,
1001
0000
0100
0010
0100
0010
0100
0010
,
1100
0000
0001
0100
0001
0100
0001
0100
,
1001
0000
0010
1000
0010
0001
0010
0100
,
0011
0000
1000
0001
1000
0100
1000
0010
,
1001
0000
0100
0010
0100
1000
0100
0001
,
1100
0000
0001
1000
0001
0010
0001
0100
,
0001
0000
0000
0010
1000
0100
0001
0000
,
1000
0000
0100
0000
0000
1100
0000
0011
,
0000
0000
0000
0010
0001
0100
1000
0000
,
0001
0000
0100
0000
0000
1010
0000
0101
,
0000
0000
0000
1000
0100
0001
0010
0000
,
1000
0000
0100
0000
0000
0011
0000
1100
,
0000
0000
0000
0100
1000
0010
0001
0000
,
1000
0000
0100
0000
0000
0110
0000
1001
;

//---------------dance-double - ----------------
#NOTES:
     dance-double:
     :
     Easy:
     4:
     0.288,0.344,0.281,0.000,0.000:
00000000
00000000
00000000
00000000
,
00000000
00000000
00000000
00000000
,
00000000
00000000
00000000
00000000
,
00000000
00000000
00000000
00000000
,
00000000
00000000
00000000
00000000
,
00000000
00000000
00000000
00000000
,
00000000
00000000
00000000
00000000
,
00010000
00000000
00000000
00001000
00000000
00000000
00010000
00000000
,
00000000
00000000
00001000
00010000
,
01000000
00100000
00010000
01000000
,
10000000
01000000
00010000
00100000
,
10000000
01000000
00010000
01000000
,
10000000
00000000
01000000
00000000
00010000
00001000
00000100
00000000
,
00001000
00000100
00000001
00000100
,
00001000
00000100
00000001
00000010
,
00001000
00000100
00000001
00000100
,
00001000
00000000
00000100
00000000
00010000
00001000
01000000
00000000
,
00000000
00000000
00000000
10000000
01000000
00100000
00010000
00000000
,
00000000
00000000
00000000
00000000
00000000
00011000
00000000
00001100
,
00000000
00000000
00000000
00000001
00000010
00000100
00001000
00000000
,
00000000
00000000
00000000
00000000
00000000
00011000
00000000
01010000
,
00001000
00100000
00010000
00000100
,
00001000
01000000
00010000
00000100
,
00001000
00100000
00010000
00000010
,
00001000
01000000
00010000
00000100
,
00000010
00000000
00000000
00000001
00000100
00001000
00000000
00010000
,
00000000
00100000
00000000
10000000
,
01000000
00000000
00000000
00010000
00001000
00010000
00000000
00000000
,
00000011
00000000
00001100
00000000
,
00011000
00100000
01000000
10000000
,
00110000
10000000
01000000
00100000
,
00011000
00000010
00000100
00000001
,
00001010
00000001
00000100
00000010
,
00011000
00100000
01000000
10000000
,
00110000
10000000
01000000
00100000
,
00011000
00000010
00000100
00000001
,
00001010
00000001
00000100
00000010
,
00000000
00000000
00000000
00000001
00000010
00000100
00001000
00000000
,
00000000
00000000
00000000
00000000
00000000
00011000
00000000
01010000
,
00000000
00000000
00000000
10000000
01000000
00100000
00010000
00000000
,
00000000
00000000
00000000
00000000
00000000
00011000
00000000
00001100
,
00000000
00000000
00000000
00000001
00000010
00000100
00001000
00000000
,
00000000
00000000
00000000
00000000
00000000
00011000
00000000
01010000
,
00000000
00000000
00000000
10000000
01000000
00100000
00010000
00000000
,
00000000
00000000
00000000
00000000
00000000
00011000
00000000
00011000
;

//---------------dance-double - ----------------
#NOTES:
     dance-double:
     :
     Medium:
     7:
     0.378,0.545,0.255,0.000,0.026:
00000000
00000000
00000000
00000000
,
00000000
00000000
00000000
00000000
,
00000000
00000000
00000000
00000000
,
00000000
00000000
00000000
00000000
,
00000000
00000000
00000000
00000000
,
00000000
00000000
00000000
00000000
,
00000000
00000000
00000000
00000000
,
00010000
00000000
00000000
00001000
00000000
00000000
00010000
00000000
,
00000000
00001000
00000000
00000000
00010000
00001000
00010000
00000000
,
00001000
00000010
00000001
00000100
,
00001000
00000000
00010000
00000000
00100000
10000000
01000000
00000000
,
00010000
00100000
10000000
01000000
,
00010000
00000000
00001000
00000000
00000010
00000001
00000100
00000000
,
00001000
00000010
00000001
00000100
,
00001000
00000000
00010000
00000000
00100000
10000000
01000000
00000000
,
00010000
00100000
10000000
01000000
,
00010000
00000000
00001000
00000000
00000010
00000001
00000100
00000000
,
00001000
00000000
00000000
00000001
00000010
00000100
00001000
00000000
,
00010000
00000000
00100000
00000000
00000000
11000000
00000000
01010000
,
00000000
00000000
00000000
10000000
00100000
01000000
00010000
00000000
,
00001000
00000000
00000010
00000000
00000000
00000101
00000000
00001100
,
00001000
00000010
00000001
00000100
,
00001000
00000000
00010000
00000000
00100000
10000000
01000000
00000000
,
00010000
00100000
10000000
01000000
,
00010000
00000000
00001000
00000000
00000010
00000001
00000100
00000000
,
00001000
00000000
00000000
00010000
00001000
00010000
00000000
00100000
,
00000000
10000000
00000000
01000000
,
00010000
00000000
00000000
00001000
00010000
00001000
00000000
00000000
,
00010000
00001000
00010000
00001000
00010000
00000000
00001000
00010000
00000000
00001000
00010000
00000000
00000000
00000000
00000000
00000000
,
00001100
00000000
00010000
00001000
00010000
00001000
00010000
00001000
,
01010000
00000000
00010000
00001000
00010000
00001000
00010000
00001000
,
00001100
00000000
00001000
00010000
00001000
00010000
00001000
00010000
,
01010000
00000000
00010000
00001000
00010000
00001000
00010000
00001000
,
00001010
00000000
00001000
00010000
00001000
00100000
00001000
01000000
,
00110000
00000000
00010000
00001000
00010000
00000010
00010000
00000100
,
00001100
00000000
00001000
00010000
00001000
01000000
00001000
00100000
,
01010000
00000000
00010000
00001000
00010000
00000100
00010000
00000010
,
00001000
00000000
00000000
00000001
00000010
00000100
00001000
00000000
,
00010000
00000000
00100000
00000000
00000000
11000000
00000000
01010000
,
00000000
00000000
00000000
10000000
00100000
01000000
00010000
00000000
,
00001000
00000000
00000010
00000000
00000000
00000101
00000000
00001100
,
00000000
00000000
00000000
00000001
00000010
00000100
00001000
00000000
,
00010000
00000000
00100000
00000000
00000000
11000000
00000000
01010000
,
00000000
00000000
00000000
10000000
00100000
01000000
00010000
00000000
,
00001000
00000000
00000010
00000000
00000000
00001100
00000000
00011000
;

//---------------dance-double - ----------------
#NOTES:
     dance-double:
     :
     Hard:
     8:
     0.511,0.724,0.115,0.473,0.109: // measure 1
00000000
00000000
00000000
00000000
,  // measure 2
00000000
00000000
00000000
00000000
,  // measure 3
00000000
00000000
00000000
00000000
,  // measure 4
00000000
00000000
00000000
00000000
,  // measure 5
00001000
00010000
00001000
00010000
00001000
00000000
00010000
00001000
00000000
00001000
00010000
00000000
00000000
00000000
00000000
00000000
,  // measure 6
00000000
00000000
00000000
00000000
,  // measure 7
00000000
00000000
00000000
00000000
00000000
00000000
00000000
00000010
,  // measure 8
00000101
00000000
00000000
00001010
00000000
00000000
00011000
00000000
,  // measure 9
00100000
10000000
00000000
01000000
01000000
10000000
10000000
00000000
,  // measure 10
00200000
00000000
00000000
00310000
00002000
00000000
00000000
00003100
,  // measure 11
00000001
00000010
00001000
00020000
00000000
01030000
20000000
00000000
,  // measure 12
30200000
00000000
00000000
00310000
00002000
00000000
00000000
00003100
,  // measure 13
00000001
00000010
00002000
00020000
00003000
00000000
00031000
00000000
,  // measure 14
00000020
00000000
00000000
00000031
00000200
00000000
00000000
00001300
,  // measure 15
00010000
00100000
10000000
02000000
00000000
03010000
00002000
00000000
,  // measure 16
00003020
00000000
00000000
00000031
00000100
00000000
00000000
00001000
,  // measure 17
00000000
00000000
00010000
00000000
00200000
00000000
00000000
00000000
10300000
01000000
00000000
00000000
00010000
00000000
00010000
00000000
,  // measure 18
00001000
00000000
00000000
00000010
00000001
00001000
00000100
00000000
,  // measure 19
00000000
00000000
00000000
00000000
00001000
00001010
00000010
00000110
,  // measure 20
00000100
00000000
00001000
00100000
00010000
10000000
01000000
00000000
,  // measure 21
00000000
00000000
00000000
00000000
10000000
10100000
00100000
01100000
,  // measure 22
02000000
23000000
30200000
00320000
,  // measure 23
00030200
00000302
00000023
00002030
,  // measure 24
02003000
23000000
30200000
00320000
,  // measure 25
00030200
00000302
00000023
00002030
,  // measure 26
00023000
00000000
00030000
00100000
10000000
00200000
00000000
10300000
,  // measure 27
00000000
00020000
00030000
00001000
,  // measure 28
00000001
00001000
00000001
00001000
00000001
00000000
00001000
00000001
00000000
00000001
00001000
00000000
00000000
00000000
00000000
00000000
,  // measure 29
00000010
00000000
00000000
00010000
00000000
00000000
00000010
00000000
00000000
00010000
00000000
00000000
00000010
00000000
00000000
00000000
00000000
00000000
00010000
00000000
00000000
00001000
00000000
00000000
00010000
00000000
00001000
00000000
00010000
00000000
00001000
00000000
00000000
00010000
00000000
00000000
00001000
00000000
00000000
00010000
00000000
00000000
00001000
00000000
00000000
00010000
00000000
00000000
,  // measure 30
00002000
00000000
00013000
00100000
10000000
00100000
00010000
00001000
,  // measure 31
00010000
00000000
00001000
00000010
00000001
00000010
00001000
00010000
,  // measure 32
00012000
00000000
00013000
01000000
10000000
01000000
00010000
00001000
,  // measure 33
00010000
00000000
00001000
00000100
00000001
00000100
00001000
00010000
,  // measure 34
01000000
00010000
00000100
00001000
01000000
00010000
00000100
00001000
,  // measure 35
01000000
00010000
00000100
00001000
01000000
00010000
00000100
00001000
,  // measure 36
00000010
00001000
00100000
00010000
00000010
00001000
00100000
00010000
,  // measure 37
00000010
00001000
00100000
00010000
00000010
00001000
00100000
00010000
,  // measure 38
00000010
00000000
00001000
00000010
00000010
00000100
00000001
00000000
,  // measure 39
00000100
00000000
00001000
00010000
00010000
00100000
01000000
00000000
,  // measure 40
00100000
00000000
00010000
00001000
00001000
00000100
00000001
00000000
,  // measure 41
00000100
00000000
00000010
00001000
00001000
00010000
01000000
00000000
,  // measure 42
00100000
00000000
10000000
00010000
00010000
00100000
01000000
00000000
,  // measure 43
00010000
00000000
00001000
00000010
00000010
00000001
00001000
00000000
,  // measure 44
00000001
00000000
00000010
00001000
00001000
00010000
01000000
00000000
,  // measure 45
00100000
00000000
00010000
10000000
10000000
00100000
01000000
00000000
,  // measure 46
02200000
00000000
00000000
03300000
00000000
00000000
00000000
00000000
;
