#TITLE:LOVE MACHINE;
#SUBTITLE:;
#ARTIST:PONY TOWN BOYZ;
#TITLETRANSLIT:;
#SUBTITLETRANSLIT:;
#ARTISTTRANSLIT:;
#CREDIT:;
#BANNER:LOVE MACHINE.png;
#BACKGROUND:LOVE MACHINE-bg.png;
#LYRICSPATH:;
#CDTITLE:Dance Dance Revolution Solo.png;
#MUSIC:LOVE MACHINE.ogg;
#OFFSET:0.000;
#SAMPLESTART:13.493;
#SAMPLELENGTH:15.000;
#SELECTABLE:YES;
#DISPLAYBPM:160.000;
#BPMS:0.000=160.085,100.000=160.058,199.000=177.332,200.000=158.445,204.000=162.508,208.000=159.642,224.000=160.170;
#STOPS:;
#BGCHANGES:;

//---------------dance-single - ----------------
#NOTES:
     dance-single:
     :
     Easy:
     4:
     0.319,0.359,0.230,0.000,0.000:
0000
0000
0000
0000
,
0000
0000
0000
0000
,
0000
0000
0000
0000
,
0000
0000
0000
0000
,
0000
0000
0000
0000
,
0010
0001
0000
0000
,
0010
1000
0000
0000
,
0010
1000
0000
0000
,
0010
0001
0010
1000
,
0001
1000
0000
0000
,
1000
0110
1000
0100
,
1000
0001
0000
0000
,
0001
0110
1001
0010
,
1000
0001
0000
0000
,
0010
0110
0001
0100
,
0100
0001
0000
0000
,
0010
1000
1001
0110
,
0000
0001
1000
0100
,
0000
1000
0001
0100
,
0000
0010
0100
0100
,
0010
0100
0010
0001
,
0100
0000
0010
0100
,
0100
0010
0100
1000
,
0010
0000
0100
0010
,
0001
0100
0010
0100
,
0000
1000
0001
0100
,
0000
0001
1000
0100
,
0000
0001
1000
0100
,
0000
1000
0001
0100
,
0000
0100
1001
0100
,
0000
0100
1001
0100
,
0001
0000
1000
0001
1000
0001
1000
0000
,
0001
0100
1000
0000
,
0001
1000
0000
0000
,
1000
0110
1000
0100
,
1000
0001
0000
0000
,
0001
0110
1001
0010
,
1000
0001
0000
0000
,
0010
0110
0001
0100
,
0100
0001
0000
0000
,
0010
1000
0110
1001
,
0100
0001
0100
0001
,
0010
0001
0100
0001
,
0010
0001
0100
0001
,
0010
0000
0001
0000
0010
0001
0000
1000
,
0010
1000
0100
1000
,
0010
1000
0100
1000
,
0010
1000
0100
1000
,
0010
1000
0100
0100
,
1000
0001
1000
0001
1000
0000
0001
0000
,
0010
1000
0000
0000
,
1000
0110
1000
0100
,
1000
0001
0000
0000
,
0001
0110
1001
0010
,
1000
0001
0000
0000
,
0010
0110
0001
0100
,
0100
0001
0000
0000
,
0010
1000
1001
0110
,
0001
1000
0100
0100
,
0010
1000
0001
0110
;

//---------------dance-single - ----------------
#NOTES:
     dance-single:
     :
     Medium:
     6:
     0.433,0.425,0.273,0.000,0.000:
0000
0000
0000
0000
,
0000
0000
0000
0000
,
0000
0000
0000
0000
,
0000
0000
0000
0000
,
0000
0000
0000
0000
,
0110
0001
1000
0100
,
0010
0001
0100
1000
,
0110
1000
0001
0100
,
0010
1000
0100
0001
,
0001
1000
0100
0100
,
1000
0000
0001
0000
0100
0010
0100
0000
,
0001
0001
1000
0100
,
0001
0000
0001
0000
1000
0010
0100
0000
,
0001
1001
0100
0100
,
1000
0000
1001
0000
0100
0010
0100
0000
,
0001
1000
0100
0001
,
1000
0101
1100
0101
,
0000
0000
0010
0000
0100
0100
0100
0000
,
0000
0000
1000
0000
0100
0100
0100
0000
,
0000
1100
0010
0101
,
1000
1010
0100
0101
,
0100
0000
0010
0000
0100
0100
0100
0000
,
0100
0000
0100
0000
0010
0100
0001
0000
,
0010
0100
0100
1000
,
0100
0011
0101
0010
,
0010
1000
0100
0000
0100
0000
0100
0000
,
0010
0001
0000
0000
0100
0000
0100
0000
,
0001
0100
1010
0101
,
0001
0000
0010
0000
0100
0010
0100
0000
,
1000
0000
0010
0000
0100
0010
0100
0000
,
0010
1000
0000
0000
0100
0000
0100
0000
,
0100
1000
0001
0100
0001
1000
0001
1000
,
0001
0000
0100
0000
0001
0100
0010
0000
,
1000
1000
0100
0100
,
1000
0000
0001
0000
0100
0010
0100
0000
,
0001
0001
1000
0100
,
0001
0000
0001
0000
1000
0010
0100
0000
,
0001
0011
0100
0100
,
1000
0000
0101
0000
0010
0100
0010
0000
,
1000
0001
0100
0001
,
1000
0101
1100
0101
,
0010
1000
0100
0000
1000
0000
0100
0000
,
0010
0001
0100
0000
0001
0000
0100
0000
,
0010
1000
0100
0000
1000
0000
0100
0000
,
0010
0001
0100
0000
0001
1000
0000
1000
,
0010
0100
0001
0000
0100
0000
0001
0000
,
0010
0100
1000
0000
0100
0000
1000
0000
,
0010
0100
0001
0000
0100
0000
0001
0000
,
0010
0100
1000
0000
0100
0100
0000
0000
,
1000
0001
1000
0001
0100
0000
0100
0000
,
0001
1000
0100
0100
,
1000
0000
0001
0000
0100
0010
0100
0000
,
0001
0001
1000
0100
,
0001
0000
0001
0000
1000
0010
0100
0000
,
0001
1001
0100
0100
,
1000
0000
0101
0000
0010
0100
0010
0000
,
0001
1000
0100
1000
,
0001
0101
1100
0101
,
0001
0010
0100
0000
1000
0000
1000
0000
,
0001
0100
0001
0000
1000
0100
1000
0000
;

//---------------dance-single - ----------------
#NOTES:
     dance-single:
     :
     Hard:
     7:
     0.534,0.555,0.776,0.000,0.000:
0000
0000
0000
0000
,
0000
0000
0000
0000
,
0000
0000
0000
0000
,
0000
0000
0000
0000
,
0000
0000
0000
0000
,
0011
1000
1010
0001
,
1000
1100
0001
0101
,
1010
0100
0011
1000
,
0010
0000
1000
0001
1000
0001
0010
0100
,
1000
0001
1100
0001
,
0101
0000
1100
0000
0100
0010
0100
0000
,
1000
0001
1000
0000
0101
0000
1000
0000
,
0001
1000
0001
0000
1100
0000
0101
0000
,
1000
0001
1100
0100
,
0101
0000
1100
0000
0100
0010
0100
0000
,
1000
0001
1000
0000
0101
0000
1000
0000
,
1000
0001
1000
0001
0100
0010
0100
0010
,
0000
1000
0100
1010
,
0000
0001
0100
0011
,
0000
0000
0101
1010
,
0100
0001
1010
1010
,
0101
1100
0001
1000
,
0100
0011
0011
0100
,
0010
0001
1000
0010
,
1000
0001
1000
0001
1000
0001
1000
0001
,
0100
0110
0100
1010
,
0001
1010
0001
0011
,
0010
0101
0010
1100
,
0011
0000
1100
0000
0001
1000
0100
0000
,
0011
1100
0101
1010
,
0001
0010
1000
0001
,
0010
0001
0010
0001
1000
0010
1000
0010
,
0100
0010
1000
0001
1000
0001
0100
0010
,
1000
0001
0101
0100
,
1100
0000
0101
0000
0100
0010
0100
0000
,
0001
1000
0001
0000
1100
0000
0001
0000
,
0001
1000
0001
0000
1100
0000
0110
0000
,
1000
0001
1100
0100
,
0101
0000
1100
0000
0100
0010
0100
0000
,
1000
0001
1000
0000
0101
0000
1000
0000
,
1000
0001
1000
0001
0100
0010
0100
0010
,
1000
1100
0010
1001
,
0010
1001
0010
1001
,
0100
0101
1000
1010
,
0001
0000
1000
0000
0010
0100
0010
0100
,
0010
1010
0101
0010
,
1001
0010
1001
0100
,
1001
0010
1001
0100
,
0100
0010
0100
0010
0100
0010
1000
0001
,
0100
0010
1000
0001
0100
0010
1000
0001
,
0010
0001
1100
0010
,
0101
0000
1100
0000
0100
0010
0100
0000
,
1000
0001
1000
0000
1100
0000
0001
0000
,
0001
1000
0001
0000
1100
0000
0110
0000
,
1000
0001
0101
0010
,
1100
0000
0101
0000
0100
0010
0100
0000
,
1000
0001
1000
0000
1100
0000
0001
0000
,
0010
0100
1000
0001
1000
0001
0010
0100
,
0010
0000
0001
0000
0010
0001
1000
0000
,
0001
1000
0001
0000
1000
0000
0101
0000
;

//---------------dance-solo - ----------------
#NOTES:
     dance-solo:
     :
     Easy:
     4:
     0.319,0.359,0.230,0.000,0.000:
000000
000000
000000
000000
,
000000
000000
000000
000000
,
000000
000000
000000
000000
,
000000
000000
000000
000000
,
000000
000000
000000
000000
,
000010
000001
000000
000000
,
000100
100000
000000
000000
,
010000
100000
000000
000000
,
000100
000001
000100
100000
,
000010
100000
000000
000000
,
100000
001001
100000
001000
,
010000
000001
000000
000000
,
000001
101000
001001
000100
,
010000
000001
000000
000000
,
000010
101000
000001
001000
,
001000
000001
000000
000000
,
000100
010000
001001
100100
,
000000
000010
100000
001000
,
000000
010000
000001
001000
,
000000
000100
001000
001000
,
000100
001000
000100
000001
,
000010
000000
000100
001000
,
001000
000100
001000
100000
,
010000
000000
001000
000100
,
000010
001000
000100
010000
,
000000
100000
000001
001000
,
000000
000001
100000
001000
,
000000
000010
100000
001000
,
000000
010000
000001
001000
,
000000
001000
100001
001000
,
000000
001000
010010
001000
,
000010
000000
010000
000010
010000
000010
010000
000000
,
000010
001000
100000
000000
,
000010
100000
000000
000000
,
100000
001001
100000
001000
,
010000
000001
000000
000000
,
000001
101000
001001
000100
,
010000
000001
000000
000000
,
000010
101000
000001
001000
,
001000
000001
000000
000000
,
000100
010000
001001
100100
,
000010
000001
001000
000001
,
000010
000001
001000
000001
,
000010
000001
001000
000001
,
000010
000000
000001
000000
000100
010000
000000
000010
,
010000
100000
001000
100000
,
010000
100000
001000
100000
,
010000
100000
001000
100000
,
010000
100000
001000
001000
,
010000
000010
010000
000010
010000
000000
000010
000000
,
000010
100000
000000
000000
,
100000
001001
100000
001000
,
010000
000001
000000
000000
,
000001
101000
001001
000100
,
010000
000001
000000
000000
,
000010
101000
000001
001000
,
001000
000001
000000
000000
,
000100
010000
001001
100100
,
000001
010000
001000
001000
,
000100
100000
000001
001100
;

//---------------dance-solo - ----------------
#NOTES:
     dance-solo:
     :
     Medium:
     7:
     0.466,0.457,0.503,0.000,0.000:
000000
000000
000000
000000
,
000000
000000
000000
000000
,
000000
000000
000000
000000
,
000000
000000
000000
000000
,
000000
000000
000000
000000
,
000110
000011
100000
001000
,
000100
000001
001000
100000
,
010100
110000
000001
001000
,
000100
100000
001000
000001
,
000011
100000
001000
001000
,
110000
000000
000001
000000
001000
000100
001000
000000
,
110000
100000
000001
001000
,
000011
000000
000001
000000
100000
000100
001000
000000
,
000011
010100
001000
001000
,
110000
000000
000110
000000
001000
000100
001000
000000
,
000010
100000
001000
000001
,
010000
001001
101000
001001
,
000000
000000
000010
000000
001000
001000
001000
000000
,
000000
000000
010000
000000
001000
001000
001000
000000
,
000000
101000
000010
001001
,
010000
100100
000010
000101
,
000010
000000
000100
000000
001000
001000
001000
000000
,
001000
000000
001000
000000
000100
001000
000010
000000
,
000010
001000
001000
010000
,
000010
000101
101000
000100
,
000100
100000
001000
000000
001000
000000
001000
000000
,
000100
000001
000000
000000
001000
000000
001000
000000
,
000010
001000
100100
001001
,
000010
000000
000100
000000
001000
000100
001000
000000
,
010000
000000
000100
000000
001000
000100
001000
000000
,
001000
100000
000000
000000
001000
000000
001000
000000
,
001000
000001
100000
001000
100000
000001
010000
000010
,
100000
000000
001000
000000
100000
001000
000001
000000
,
000011
100000
001000
001000
,
110000
000000
000001
000000
001000
000100
001000
000000
,
110000
100000
000001
001000
,
000011
000000
000001
000000
100000
000100
001000
000000
,
000011
010100
001000
001000
,
110000
000000
000110
000000
001000
000100
001000
000000
,
000010
100000
001000
000001
,
010000
001001
101000
001001
,
000010
000010
000001
000000
001000
000000
000001
000000
,
000010
000010
000001
000000
001000
000000
000001
000000
,
000010
000010
000001
000000
001000
000000
000001
000000
,
000010
000010
000001
000000
010000
000010
000000
100000
,
010000
010000
100000
000000
001000
000000
100000
000000
,
010000
010000
100000
000000
001000
000000
100000
000000
,
010000
010000
100000
000000
001000
000000
100000
000000
,
010000
010000
100000
000000
001000
001000
000000
000000
,
100000
000010
010000
000001
001000
000000
001000
000000
,
000011
100000
001000
001000
,
110000
000000
000001
000000
001000
000100
001000
000000
,
110000
100000
000001
001000
,
000011
000000
000001
000000
100000
000100
001000
000000
,
000011
010100
001000
001000
,
110000
000000
000110
000000
001000
000100
001000
000000
,
000010
100000
001000
000001
,
010000
001001
101000
001001
,
000001
000010
010000
000000
001000
000000
001000
000000
,
000010
000010
000001
000000
010000
010000
101000
000000
;

//---------------dance-solo - ----------------
#NOTES:
     dance-solo:
     :
     Hard:
     8:
     0.537,0.555,0.798,0.000,0.000:
000000
000000
000000
000000
,
000000
000000
000000
000000
,
000000
000000
000000
000000
,
000000
000000
000000
000000
,
000000
000000
000000
000000
,
000101
100000
100100
000001
,
100000
101000
000001
001001
,
100100
000010
000101
010000
,
010000
000000
000001
100000
000010
010000
000100
001000
,
000010
010000
001001
001000
,
101000
000000
001001
000000
001000
000100
001000
000000
,
000001
100000
000001
000000
101000
000000
001000
000000
,
000010
100000
000001
000000
101000
000000
001100
000000
,
010000
000010
101000
001000
,
001001
000000
101000
000000
001000
000100
001000
000000
,
100000
000001
100000
000000
001001
000000
001000
000000
,
010000
000010
100000
000001
001000
000100
001000
000100
,
000000
100000
001000
100100
,
000000
000001
001000
000101
,
000000
000000
001001
100100
,
010000
000010
000101
100100
,
001001
101000
000001
100000
,
010000
100100
000101
000010
,
000010
000001
100000
010000
,
000010
010000
000001
100000
000010
010000
000001
100000
,
000010
000101
010000
100100
,
000010
100100
010000
000101
,
000100
001001
000100
101000
,
000101
000000
100100
000000
000010
010000
000010
000000
,
000101
101000
001001
100100
,
000010
010000
110000
000011
,
000100
000010
000100
000001
100000
000100
010000
000100
,
001000
000100
010000
000010
100000
000001
001000
000100
,
000010
010000
001001
001000
,
101000
000000
001001
000000
001000
000100
001000
000000
,
000001
100000
000001
000000
101000
000000
001000
000000
,
000010
100000
000001
000000
101000
000000
001100
000000
,
010000
000010
101000
001000
,
001001
000000
101000
000000
001000
000100
001000
000000
,
100000
000001
100000
000000
001001
000000
001000
000000
,
010000
000010
100000
000001
001000
000100
001000
000100
,
010000
010001
000010
100010
,
010000
100010
000010
010001
,
000001
100010
100000
010001
,
000001
000000
100000
000000
000100
001000
000100
001000
,
000010
010001
100010
010000
,
010001
000100
100010
001000
,
100010
000100
010001
001000
,
001000
000100
001000
000100
001000
000100
100000
000001
,
001000
000100
100000
000001
001000
000100
100000
000001
,
000010
010000
001001
001000
,
101000
000000
001001
000000
001000
000100
001000
000000
,
000001
100000
000001
000000
101000
000000
001000
000000
,
000010
100000
000001
000000
101000
000000
001100
000000
,
010000
000010
101000
001000
,
001001
000000
101000
000000
001000
000100
001000
000000
,
100000
000001
100000
000000
001001
000000
001000
000000
,
000100
001000
000001
100000
000010
010000
000100
001000
,
000100
000000
010000
000000
000100
010000
000010
000000
,
010000
000001
010000
000000
000010
000000
101000
000000
;

//---------------dance-double - Edit by silenttype01----------------
#NOTES:
     dance-double:
     Edit by silenttype01:
     Easy:
     5:
     0.286,0.359,0.230,0.044,0.000: // measure 1
00000000
00000000
00000000
00000000
,  // measure 2
00000000
00000000
00000000
00000000
,  // measure 3
00000000
00000000
00000000
00000000
,  // measure 4
00000000
00000000
00000000
00000000
,  // measure 5
00000000
00000000
00000000
00000000
,  // measure 6
00000000
00000000
00000000
00000000
,  // measure 7
00000000
00000000
00000000
00000000
,  // measure 8
00000000
00000000
00000000
00000000
,  // measure 9
00000000
00000000
00000000
00000000
,  // measure 10
00001000
00010000
00000000
00000000
,  // measure 11
00001000
00011000
00001000
00100000
,  // measure 12
00010000
10000000
00000000
00000000
,  // measure 13
10000000
01100000
01100000
01000000
,  // measure 14
00010000
10000000
00000000
00000000
,  // measure 15
00001000
00011000
00001000
00010000
,  // measure 16
00010000
00001000
00000000
00000000
,  // measure 17
00010000
00001000
00011000
00011000
,  // measure 18
00000000
00010000
00001000
00000010
,  // measure 19
00000000
00000001
00001000
00000010
,  // measure 20
00000000
00000100
00000010
00000010
,  // measure 21
00000100
00000010
00000100
00001000
,  // measure 22
00010000
00000000
01000000
00100000
,  // measure 23
00100000
01000000
00100000
00010000
,  // measure 24
01000000
00000000
00100000
01000000
,  // measure 25
00001000
00010000
00000100
00000010
,  // measure 26
00000000
00000001
00001000
00000010
,  // measure 27
00000000
00001000
00000001
00000010
,  // measure 28
00000000
00001000
00010000
00001000
,  // measure 29
00000000
00010000
00001000
00000010
,  // measure 30
00000000
00000100
00001001
00000100
,  // measure 31
00000000
00000100
00001001
00000100
,  // measure 32
00000001
00000000
00001000
00000001
00001000
00000001
00001000
00000000
,  // measure 33
00000001
00000010
00001000
00000000
,  // measure 34
00010000
00001000
00000000
00000000
,  // measure 35
00010000
01100000
00010000
00100000
,  // measure 36
00010000
10000000
00000000
00000000
,  // measure 37
10000000
01100000
01100000
01000000
,  // measure 38
00010000
10000000
00000000
00000000
,  // measure 39
01000000
01100000
10000000
00100000
,  // measure 40
00100000
00010000
00000000
00000000
,  // measure 41
00010000
00001000
00000110
00001001
,  // measure 42
00000010
00001000
00000010
00001000
,  // measure 43
00000100
00001000
00000010
00001000
,  // measure 44
00000100
00001000
00000010
00001000
,  // measure 45
00000100
00001000
00000100
00010000
,  // measure 46
00001000
01000000
00001000
00100000
,  // measure 47
00001000
01000000
00001000
00100000
,  // measure 48
00001000
01000000
00001000
00100000
,  // measure 49
00001000
01000000
00001000
00001000
,  // measure 50
00022000
00000000
00000000
00000000
,  // measure 51
00033000
00000000
00000000
00000000
,  // measure 52
00010000
01100000
00010000
00100000
,  // measure 53
00010000
10000000
00000000
00000000
,  // measure 54
10000000
01100000
01100000
01000000
,  // measure 55
00010000
00001000
00000000
00000000
,  // measure 56
00000100
00000110
00001000
00000010
,  // measure 57
00000010
00001000
00000000
00000000
,  // measure 58
00000100
00001000
00000001
00001001
,  // measure 59
00002002
00000000
00000000
00000000
,  // measure 60
00000000
00000000
00000000
00003003
;

//---------------dance-double - Edit by silenttype01----------------
#NOTES:
     dance-double:
     Edit by silenttype01:
     Medium:
     7:
     0.423,0.425,0.284,0.044,0.000:
00000000
00000000
00000000
00000000
,
00000000
00000000
00000000
00000000
,
00000000
00000000
00000000
00000000
,
00000000
00000000
00000000
00000000
,
00000000
00000000
00000000
00000000
,
00000110
00001000
00000001
00000010
,
00000100
00001000
00000010
00001000
,
00000110
00000001
00001000
00000010
,
00000100
00000001
00000010
00001000
,
00001000
00010000
00100000
00100000
,
10000000
00000000
00010000
00000000
00100000
01000000
00100000
00000000
,
00010000
00010000
10000000
00100000
,
00010000
00000000
00010000
00000000
00001000
00010000
00001000
00000000
,
00010000
00011000
00000010
00000010
,
00001000
00000000
00001001
00000000
00000010
00000100
00000010
00000000
,
00001000
00000001
00000010
00001000
,
00010000
00010010
00001010
00000011
,
00000000
00000000
00000100
00000000
00000010
00000010
00000010
00000000
,
00000000
00000000
00001000
00000000
00000001
00000001
00000001
00000000
,
00000000
00000011
00000001
00001100
,
00001000
00000101
00000001
00001010
,
00001000
00000000
00000100
00000000
00000010
00000010
00000010
00000000
,
00001000
00000000
00010000
00000000
00001000
00001000
00001000
00000000
,
00010000
00100000
00100000
00010000
,
00100000
00110000
10100000
01000000
,
01000000
00010000
00100000
00000000
00100000
00000000
00100000
00000000
,
01000000
10000000
00000000
00200000
00000000
00000000
00300000
00000000
,
10000000
00100000
01010000
10100000
,
10000000
00000000
00010000
00000000
00100000
01000000
00100000
00000000
,
00001000
00000000
00010000
00000000
00000010
00000100
00000010
00000000
,
00000100
00000001
00000000
00000020
00000000
00000000
00000030
00000000
,
00000010
00000001
00001000
00000010
00001000
00000001
00001000
00000001
,
00001000
00000000
00000010
00000000
00001000
00000010
00000100
00000000
,
00000001
00000001
00000010
00000010
,
00001000
00000000
00010000
00000000
00001000
00010000
00001000
00000000
,
00010000
00010000
00100000
10000000
,
00010000
00000000
00010000
00000000
10000000
00100000
01000000
00000000
,
00010000
01010000
00100000
00100000
,
00010000
00000000
10100000
00000000
01000000
00100000
01000000
00000000
,
00001000
00010000
00000010
00001000
,
00000001
00001010
00000011
00001010
,
00000100
00000001
00000010
00000000
00000001
00000000
00000010
00000000
,
00000100
00010000
00000010
00000000
00001000
00000000
00000010
00000000
,
00000100
00000001
00000010
00000000
00000001
00000000
00000010
00000000
,
00000100
00010000
00000010
00000000
00001000
00000001
00000000
00000001
,
00000100
00000010
00001000
00000000
00000010
00000000
00010000
00000000
,
00000100
00010000
00000010
00000000
00001000
00000000
00000010
00000000
,
00000100
00000001
00000010
00000000
00000001
00000000
00000010
00000000
,
00000100
00010000
00000010
00000000
00010000
00010000
00010000
00000000
,
00001000
00010000
00001000
00010000
00000010
00000000
00000010
00000000
,
00010000
00001000
00100000
00100000
,
00010000
00000000
00100000
00000000
01000000
00100000
01000000
00000000
,
10000000
10000000
00010000
00100000
,
10000000
00000000
10000000
00000000
00100000
00010000
10000000
00000000
,
00010000
10010000
00100000
00100000
,
00010000
00000000
00001010
00000000
00000100
00000010
00000100
00000000
,
00000001
00001000
00000010
00001000
,
00000001
00000011
00001010
00001010
,
00022000
00000000
00000000
00000000
,
00000000
00000000
00000000
00033000
;

//---------------dance-double - Edit by silenttype01----------------
#NOTES:
     dance-double:
     Edit by silenttype01:
     Hard:
     8:
     0.509,0.555,0.722,0.186,0.000:
00000000
00000000
00000000
00000000
,
00000000
00000000
00000000
00000000
,
00000000
00000000
00000000
00000000
,
00000000
00000000
00000000
00000000
,
00000000
00000000
00000000
00000000
,
00000000
00000000
00000000
00000000
,
00000000
00000000
00000000
00000000
,
00000000
00000000
00000000
00000000
,
00000000
00000000
00000000
00000000
,
00010000
10000000
00110000
10000000
,
10100000
00000000
00110000
00000000
00000010
00000100
00000010
00000000
,
00001000
00000001
00001000
00000000
00001010
00000000
00000001
00000000
,
00001000
00000100
00000010
00000000
00000011
00000000
00001010
00000000
,
00001000
00010000
00001010
00001000
,
00000011
00000000
00001010
00000000
00100000
01000000
00100000
00000000
,
00010000
10000000
00010000
00000000
10100000
00000000
10000000
00000000
,
10000000
01000000
00010000
00001000
01000000
00010000
10000000
01000000
,
00000000
01010000
00100000
00020000
,
00030000
00001100
00000010
00002000
,
00003000
00001010
00000100
00000201
,
00000301
00000010
00001100
00001100
,
00001010
00011000
00010000
00200000
,
10300000
11000000
11000000
00200000
,
01300000
10000000
00010000
01000000
,
00010000
10000000
00100000
00010000
00001000
00100000
00010000
10000000
,
00100000
01100000
00100000
01010000
,
10000000
01010000
10000000
11000000
,
01000000
10100000
01000000
00110000
,
00001100
00000000
00000011
00000000
00000100
00000001
00000010
00000000
,
00001100
00000011
00001010
00011000
,
00000100
00000010
00001000
00000001
,
00000010
00001000
00010000
00000010
00001000
00000001
00000010
00001000
,
00010000
00000010
00001000
00000001
00000010
00000010
00000010
00000000
,
00000001
00001000
00000011
00000010
,
00000011
00000000
00001010
00000000
00100000
01000000
00100000
00000000
,
00010000
10000000
00010000
00000000
00110000
00000000
01000000
00000000
,
10000000
00100000
00010000
00000000
00110000
00000000
01100000
00000000
,
00010000
10000000
10100000
00100000
,
10100000
00000000
00110000
00000000
00000010
00000100
00000010
00000000
,
00001000
00000001
00001000
00000000
00001010
00000000
00000001
00000000
,
00000100
00000001
00000001
00000100
00001000
00010000
00000100
00001000
,
00000001
00000021
00001030
00002010
,
00013000
00210000
10300000
10200000
,
00310000
00120000
00031000
00001020
,
00000031
00000000
00000010
00000000
00001000
00010000
00000000
00011000
,
00000000
21000000
30100000
00120000
,
00031000
00001200
00000301
00000021
,
00001030
00011000
00011000
00000110
,
00000010
00000100
00000010
00000100
00000010
00000100
00010000
00001000
,
00000010
00000100
00010000
00001000
00000010
00000100
00010000
00001000
,
00000010
00000100
00001100
00000001
,
00000011
00000000
00001010
00000000
00100000
01000000
00100000
00000000
,
00010000
10000000
00010000
00000000
00110000
00000000
10000000
00000000
,
00010000
00100000
10000000
00000000
00110000
00000000
01100000
00000000
,
00010000
01000000
01010000
10000000
,
10100000
00000000
00110000
00000000
00000010
00000100
00000010
00000000
,
00001000
00000001
00001000
00000000
00000011
00000000
00000001
00000000
,
00000100
00000010
00010000
00001000
00010000
00001000
01000000
00200000
,
00000000
00000000
00000000
00000000
00000000
01000000
00000000
00000000
,
01000000
00000000
00000000
02000000
00000000
00000000
03300000
00000000
;

//---------------dance-single - Edit by silenttype01----------------
#NOTES:
     dance-single:
     Edit by silenttype01:
     Challenge:
     9:
     0.540,0.719,0.525,0.339,0.055:
0000
0000
0000
0000
,
0000
0000
0000
0000
,
0000
0000
0000
0000
,
0000
0000
0000
0000
,
0000
0000
0000
0000
,
0000
0000
0000
0000
,
0000
0000
0000
0000
,
0000
0000
0000
0000
,
0000
0000
0000
0000
,
2002
0000
0000
3003
,
0101
0000
0010
1000
0000
1000
0010
0000
,
1100
0000
0010
0001
0000
0001
0010
0000
,
1001
0000
0001
0100
0000
0100
1000
0000
,
1001
0000
0001
0100
0000
0100
1000
0000
,
1100
0000
0100
0010
0000
0010
0001
0000
,
0101
0000
0100
0010
0000
0010
1000
0000
,
1001
0000
1000
0000
0001
0000
1000
0001
1000
0000
0001
0000
1000
0001
1000
0001
,
1000
0000
0001
0100
0010
0100
0002
0000
,
1003
0000
0100
0010
0100
1000
0002
0000
,
1003
0000
0010
1000
0010
0100
0002
0000
,
1003
0000
0000
0000
0010
0000
0001
0000
0010
0000
1000
0000
0002
0000
1000
0103
,
1000
0000
0001
0100
1000
0100
0002
0000
,
1003
0000
0100
0001
0100
1000
0002
0000
,
1003
0000
0001
0010
1000
0010
0001
0000
,
1100
0000
1100
0010
0001
0100
0000
1001
,
0000
0100
0000
0010
,
1001
0000
0100
0000
0000
0000
0010
0101
,
0101
1000
0000
0001
,
1001
0110
0000
0010
0000
1000
0000
0100
,
0000
0010
0000
0100
,
1001
0010
0000
1000
,
1001
0100
0010
1001
0100
0010
1001
0100
,
0010
1001
0100
0010
1001
0100
0010
0000
,
1010
0101
0011
1100
,
1000
0100
0010
0100
1000
0100
0010
0000
,
0011
1100
1010
0101
,
0001
0100
0010
0100
0001
0100
0010
0000
,
0101
1100
0101
1001
,
1000
0100
0001
0100
1000
0001
1000
0000
,
1100
0101
1100
1001
,
0001
0000
1000
0000
1000
0000
0001
1000
0001
0000
1000
0000
0001
1000
0001
1000
,
0002
0203
2300
3020
,
0032
0203
2300
3020
,
0032
0203
2300
3020
,
0032
0000
0203
0000
1300
0010
0000
0110
,
0000
0200
1000
0320
,
0001
0230
1000
0320
,
0001
0000
0130
0000
1000
0000
0010
0100
,
1001
0010
0100
1001
0010
0100
1001
0010
,
0100
1001
0010
0100
1001
0010
0100
0000
,
0220
0000
0000
0000
0330
1000
0010
0100
,
0002
0000
1000
1003
0000
0110
0000
0000
,
0101
0010
1000
0000
1100
0000
0010
0001
,
0100
1000
0100
1000
0000
0100
0000
0001
,
0000
1000
0000
1000
0000
0001
0010
1000
,
0002
0000
1000
1003
0000
0010
0000
0001
,
0000
0001
0000
0100
0000
0001
0100
0001
,
1000
0000
0001
0000
0001
0000
1000
0001
1000
0000
0001
0000
1000
0001
1000
0001
,
0000
0000
0000
0000
0000
0100
0000
0000
,
0100
0000
0000
0200
0000
0000
0300
0000
;
