#TITLE:Love At First Sight;
#SUBTITLE:;
#ARTIST:Kylie Minogue;
#TITLETRANSLIT:;
#SUBTITLETRANSLIT:;
#ARTISTTRANSLIT:;
#CREDIT:;
#BANNER:Love At First Sight.png;
#BACKGROUND:Love At First Sight-bg.png;
#LYRICSPATH:;
#CDTITLE:./CDTITLES/DANCE DANCE REVOLUTION PSX -MAX2 USA-.PNG;
#MUSIC:Love At First Sight.mp3;
#OFFSET:-1.969;
#SAMPLESTART:53.770;
#SAMPLELENGTH:12.000;
#SELECTABLE:YES;
#DISPLAYBPM:125.000;
#BPMS:0.000=125.000;
#STOPS:;
#BGCHANGES:;

//---------------dance-single - ----------------
#NOTES:
     dance-single:
     :
     Beginner:
     1:
     0.105,0.138,0.022,0.000,0.000:
0000
0000
0000
0000
,
0000
0000
0000
0000
,
0000
0000
0000
0000
,
0100
0000
0000
0000
,
0001
0000
0000
0000
,
0010
0000
0000
0000
,
1000
0000
0000
0000
,
0010
0000
0000
0000
,
0001
0000
0010
0000
,
0100
0000
0000
0000
,
1000
0000
1000
0000
,
1001
0000
0000
0000
,
0010
0010
0000
0000
,
0001
0000
1000
0000
,
0100
0100
0000
0000
,
0110
0000
0000
0000
,
1000
1000
0000
0000
,
0010
0000
0001
0000
,
0100
0000
1000
0000
,
0010
0000
0000
0000
,
0001
0000
0000
0000
,
0100
0000
0000
0000
,
1000
0000
0000
0000
,
0001
0000
0000
0000
,
0000
0000
0000
0000
,
1000
0000
0000
0000
,
0010
0010
0000
0000
,
1000
1000
1000
0000
,
0001
0001
0001
0000
,
0010
0000
1000
0000
,
0010
0000
0001
0000
,
0100
0000
0000
0000
,
0010
0000
0000
0000
,
1000
0000
0100
0000
,
0001
0000
0010
0000
,
1000
0000
0001
0000
,
1000
0000
0001
0000
,
1000
1000
0000
0000
,
0001
0001
0000
0000
,
0010
0000
0010
0000
,
0100
0000
0100
0000
,
0010
0010
0010
0000
,
0100
0100
0100
0000
;

//---------------dance-single - ----------------
#NOTES:
     dance-single:
     :
     Easy:
     4:
     0.253,0.290,0.076,0.369,0.000:
0000
0000
0000
0000
,
0000
0000
0000
0000
,
0000
0000
0000
0000
,
0020
0000
0030
0000
,
1000
0000
0001
0000
,
0200
0000
0300
0000
,
0010
0000
1000
0001
,
0020
0030
0200
0300
,
0001
1000
0100
0000
,
0001
0000
0100
0000
,
0010
0001
1001
0000
,
0220
0330
0001
1000
,
0001
0000
0100
1000
,
0001
0100
2000
3000
,
0100
0001
1000
0010
,
0200
0300
0002
0003
,
0010
0001
1000
0100
,
0001
0010
0200
0300
,
1000
0100
0001
0010
,
2000
0000
3100
0000
,
0002
0000
0103
0000
,
0020
0030
2000
3000
,
0002
0003
0200
0300
,
0020
0030
1000
0100
,
0002
0003
0100
1000
,
0001
0000
1000
0000
,
0010
1000
0100
0001
,
1000
2000
0001
3100
,
0010
0001
0010
1000
,
2020
3030
0001
0100
,
0202
0303
1000
0100
,
0001
0100
1000
0100
,
0001
0010
1000
0100
,
0002
0000
0013
0000
,
2000
0000
3000
1100
,
0010
0010
1000
0100
,
0002
0103
2000
3010
,
0001
0001
1000
0100
,
0001
0010
0100
1000
,
0220
0330
0001
0100
,
2002
3003
0010
0100
,
0020
0000
1000
0130
,
0002
0000
0010
1003
,
0200
0300
0001
0010
,
0100
0000
0100
0000
;

//---------------dance-single - ----------------
#NOTES:
     dance-single:
     :
     Medium:
     5:
     0.319,0.316,0.054,0.336,0.000:
0000
0000
0000
0000
,
0000
0000
0000
0000
,
0000
0000
0000
0000
,
0020
1030
0200
0300
,
0001
1000
0100
0010
,
2000
3000
0020
0130
,
0001
0010
0100
1000
,
0001
1000
0010
0000
1000
0010
0100
0000
,
1000
1000
0001
0100
,
2000
3000
0010
0100
,
0001
0002
1000
0103
,
0220
0330
0001
0100
,
1000
0100
0010
0000
0010
0001
0100
0000
,
2000
3100
0002
0003
,
0010
1000
0010
0001
,
0200
0000
0300
0000
0001
0100
1000
0000
,
0001
0010
0000
0010
,
0001
0000
1000
0000
0001
0010
0100
0000
,
1000
0020
0200
0330
,
1000
0001
0010
0000
0002
0000
0000
0000
,
2000
3000
0200
0303
,
0010
1000
0001
0000
0200
0000
0000
0000
,
0002
0003
0020
0330
,
0100
0001
1000
0000
0020
0000
0030
0000
,
2000
3000
0002
0103
,
1010
0100
0101
1000
,
0010
0001
0100
1000
,
0010
0001
0100
0000
0010
1000
0100
0000
,
0010
1001
0100
0001
,
1000
0100
1001
0100
,
0010
1000
0001
0000
2000
0000
3100
0000
,
0010
0001
0001
0000
1000
0100
0100
0000
,
0001
0010
1000
0100
,
0002
0010
1000
0103
,
2000
0010
0001
3100
,
0010
0000
1000
0000
0001
1000
0100
0000
,
0010
0001
0100
0000
1000
0001
0100
0000
,
0020
0031
2000
3100
,
0010
1000
0100
0001
,
1000
0000
0100
0000
0001
0010
0100
0000
,
0010
0001
1000
0000
0100
0010
0001
0000
,
2000
0000
0000
0000
3001
0010
0100
0000
,
0020
0000
0000
0000
0130
1000
0001
0000
,
0200
0000
0001
0310
,
0002
0000
1000
0103
;

//---------------dance-single - ----------------
#NOTES:
     dance-single:
     :
     Hard:
     7:
     0.454,0.422,0.532,0.109,0.016:
0000
0000
0000
0000
,
0002
1000
0100
1003
,
2000
0001
0100
3001
,
0101
1001
0101
1000
,
0001
1000
0001
0100
0001
0100
1000
0000
,
0101
1001
0101
1000
,
0010
0001
0100
0001
1000
0100
1000
0000
,
1100
1001
1100
0001
,
1000
0001
1000
0100
1000
0100
0001
0000
,
1100
1001
1100
0001
,
0010
1000
0100
1000
0001
0100
0001
0000
,
1000
0000
0101
0000
0001
1000
0001
2000
,
0100
3100
0001
0011
,
1000
0001
1000
0000
0101
0000
0010
1000
,
0001
1000
0100
0000
0101
0000
1000
0000
,
0001
0000
1100
0000
1000
0001
1000
0002
,
0100
0000
0000
0000
0100
0000
0000
0003
1000
0000
0000
0000
1010
0000
0000
0000
,
0001
1000
0001
0000
1100
0000
0010
0000
,
0201
1000
0001
1300
,
0010
1000
0001
2000
0000
0000
3001
0000
,
1010
0000
0000
1001
0000
0000
1100
0000
0000
0000
1000
0000
0001
0000
1000
0000
,
0010
0001
1000
0002
0000
0000
1003
0000
,
0011
0000
0000
1001
0000
0000
0101
0000
0000
0000
0001
0000
1000
0000
0001
0000
,
0100
0001
1000
0002
0000
0000
1003
0000
,
0101
0000
0000
1001
0000
0000
0011
0000
0000
0000
0001
0000
1000
0000
0001
0000
,
2000
0100
0100
3100
,
1000
0001
0100
0001
1000
0010
1000
0000
,
1010
0001
1000
0000
0001
0000
0100
0000
,
0100
0001
1000
0000
0001
0000
1100
0000
,
0010
0000
1100
0000
0010
1000
0001
0000
,
0010
0001
1100
0000
0101
0000
1000
0000
,
0011
1000
0001
0000
0000
0000
0100
0000
,
0100
1000
0001
0000
1000
0000
0101
0000
,
0010
0001
0100
0000
0001
0100
1000
0000
,
0100
1000
0010
0000
1000
0010
0001
0000
,
2100
0100
0100
0000
0001
0000
3001
0000
,
1010
0001
1000
0000
0001
0000
0100
0000
,
0100
0001
1000
0000
0001
0000
1100
0000
,
0010
0000
1100
0000
0010
1000
0001
0000
,
0010
0001
1100
0000
0101
0000
1000
0000
,
0011
1000
0001
0000
1000
0000
0100
0000
,
0010
1000
0100
0000
1000
0100
0001
0000
,
0100
0001
0010
0000
0001
0010
1000
0000
,
0001
1000
0001
0100
0001
0100
1000
0000
,
0101
1001
0101
1000
,
0101
1001
0101
1000
;

//---------------dance-double - ----------------
#NOTES:
     dance-double:
     :
     Easy:
     2:
     0.158,0.187,0.043,0.141,0.000:
00000000
00000000
00000000
00000000
,
00000000
00000000
00000000
00000000
,
00000000
00000000
00000000
00000000
,
00000001
00000000
00000000
00000000
,
00001000
00000000
00000000
00000000
,
00000010
00000000
00000000
00000000
,
00000100
00000000
00000000
00000000
,
00000001
00000100
00001000
00000000
,
00001000
00010000
01000000
00000000
,
20000000
30000000
00020000
00030000
,
00100000
00100000
01000000
00000000
,
10010000
00000000
00000000
00000000
,
00100000
00000000
01000000
00000000
,
00010000
10000000
01000000
00000000
,
00010000
00000000
00001000
00000000
,
00010000
00001000
00000010
00000100
,
00001000
00000000
00000001
00000000
,
00001000
00001000
00000001
00000000
,
00000010
00000000
00000100
00000000
,
00002002
00000000
00000000
00003003
,
00000000
00000000
00000100
00000000
,
00002000
00000000
00000000
00003000
,
00000000
00000000
00010000
00000000
,
00200000
00000000
00000000
00300000
,
00000000
00000000
01000000
00000000
,
20000000
00000000
00000000
30000000
,
00200000
00300000
01000000
00000000
,
10010000
00000000
00100000
00010000
,
00000000
10000000
00100000
00010000
,
00010000
00000000
00001000
00010000
,
00000000
00001000
00000100
00000001
,
00000010
00000000
00000100
00001000
,
00000000
00000001
00000010
00001000
,
00020000
00000000
00000000
00030000
,
00002000
00000000
00000000
00003000
,
00010000
00000000
00100000
00100000
,
00000000
01000000
00010000
10000000
,
10000000
00000000
01000000
01000000
,
00000000
00010000
00001000
00000010
,
00000100
00000000
00001000
00000001
,
00000000
00000010
00000100
00001000
,
00000020
00000000
00000000
00000030
,
00002000
00003000
00000002
00000003
,
00001001
00000000
00000000
00000000
;

//---------------dance-double - ----------------
#NOTES:
     dance-double:
     :
     Medium:
     4:
     0.233,0.241,0.076,0.185,0.000:
00000000
00000000
00000000
00000000
,
00000000
00000000
00000000
00000000
,
00000000
00000000
00000000
00000000
,
00000001
00000000
00000001
00000000
,
00001000
00000000
00001000
00000000
,
00000001
00000100
00001000
00000100
,
00000001
00000100
00001000
00010000
,
00000000
00010000
00000000
00100000
,
01000000
00010000
10000000
01000000
,
00100000
00000000
00100000
00000000
,
00010000
10000000
01000000
00010000
,
10010000
00000000
01000000
00000000
,
00010000
00001000
00000010
00000100
,
00001000
00000000
00000001
00000000
,
00001000
00000001
00000010
00000100
,
00001000
00001000
00000001
00000001
,
00000010
00000000
00000010
00000000
,
00000001
00000100
00001000
00010000
,
00100000
00000000
10000000
00010000
,
20020000
30030000
00100000
01000000
,
20000000
30000000
00020000
00030000
,
02200000
00000000
00000000
03300000
,
20000000
30000000
00020000
00030000
,
00100000
00100000
00010000
00010000
,
00002000
00003000
00000020
00000030
,
00000200
00000000
00000000
00000300
,
00000002
00000000
00000000
00001003
,
00001001
00000000
00000010
00000100
,
00000100
00000001
00000010
00001000
,
00000001
00000100
00001000
00010000
,
00010000
00100000
10000000
01000000
,
00100000
00100000
00010000
10000000
,
10000000
00010000
00100000
01000000
,
20020000
00000000
00000000
30030000
,
00200000
00000000
00000000
01300000
,
10010000
00100000
00010000
00001000
,
00010000
00001000
00000010
00000100
,
00001000
00001000
00000001
00000001
,
00000000
00000110
00000001
00001000
,
00002000
00000000
00000001
00003100
,
00000010
00000001
00000100
00001000
,
00020000
00000000
00000000
00031000
,
00010000
00100000
01000000
00010000
,
10000000
10000000
00010000
00010000
,
01000000
00000000
01000000
00000000
;

//---------------dance-double - ----------------
#NOTES:
     dance-double:
     :
     Hard:
     6:
     0.315,0.340,0.076,0.119,0.000: // measure 1
00000000
00000000
00000000
00000000
,  // measure 2
00000000
00000000
00000000
00000000
,  // measure 3
00000000
00000000
00000000
00000000
,  // measure 4
10000000
10000000
00010000
00010000
,  // measure 5
10000000
01000000
00010000
00000000
00100000
00000000
00100000
00000000
,  // measure 6
00010000
10000000
01000000
00010000
,  // measure 7
00001000
00000100
00000001
00001000
,  // measure 8
00000010
00000010
00000100
00000100
,  // measure 9
00000001
00000100
00001000
00000000
00000010
00000000
00000010
00000000
,  // measure 10
00001000
00001000
00000001
00000001
,  // measure 11
00001000
00000100
00000001
00000000
00000001
00000100
00001000
00000000
,  // measure 12
00002002
00003003
00000100
00000010
,  // measure 13
00000001
00000100
00001000
00000000
00010000
00000000
00010000
00000000
,  // measure 14
00001000
00010000
00100000
01000000
,  // measure 15
00010000
10000000
00010000
00000000
01000000
00000000
01000000
00000000
,  // measure 16
00100000
00000000
10000000
00000000
10000000
01000000
00010000
00000000
,  // measure 17
00001000
00000000
00010000
00000000
00001000
00000010
00000001
00000000
,  // measure 18
00000100
00000100
00000010
00000010
,  // measure 19
00001000
00000100
00000001
00000100
00001000
00000001
00000100
00000000
,  // measure 20
00000020
00000000
00001000
00001030
,  // measure 21
00000200
00000000
00000010
00000300
,  // measure 22
00020000
00000000
00001000
00031000
,  // measure 23
00200000
00000000
10000000
00300000
,  // measure 24
01000000
00010000
00100000
01000000
,  // measure 25
10000000
00010000
01000000
00000000
00010000
10000000
01000000
00000000
,  // measure 26
00200000
00000000
00000000
01300000
,  // measure 27
10000000
01000000
00010000
00001000
00010000
00000100
00001000
00000000
,  // measure 28
00001001
00000000
00000100
00000000
00000010
00000001
00000100
00000000
,  // measure 29
00000010
00000000
00001000
00000000
00000001
00000100
00001000
00000000
,  // measure 30
00000100
00000001
00001000
00000100
,  // measure 31
00000010
00000001
00000100
00000000
00000010
00001000
00000100
00000000
,  // measure 32
00000010
00000000
00000001
00000000
00000100
00000010
00000100
00000000
,  // measure 33
00001000
00010000
00001000
00000000
00010000
00000000
00100000
00000000
,  // measure 34
20010000
00010000
00010000
30010000
,  // measure 35
00200000
01000000
00000000
01000000
00000000
00000000
01300000
00000000
,  // measure 36
20020000
00000000
00000000
30030000
,  // measure 37
10000000
00000000
00010000
00000000
00100000
01000000
10000000
00000000
,  // measure 38
00100000
00000000
00010000
00000000
00001000
00010000
00000100
00000000
,  // measure 39
00000010
00000001
00001001
00000110
,  // measure 40
00001000
00000000
00000001
00000000
00000010
00000100
00001000
00000000
,  // measure 41
00000010
00000100
00000001
00000000
00000010
00000000
00001000
00000000
,  // measure 42
00010000
00100000
10000000
10000000
,  // measure 43
00010000
00100000
01000000
00000000
10000000
00100000
01000000
00000000
,  // measure 44
00010000
10000000
01000000
00010000
,  // measure 45
00001000
00010000
00001000
00000000
00000010
00000000
00001001
00000000
;

//---------------dance-single - ----------------
#NOTES:
     dance-single:
     :
     Challenge:
     7:
     0.442,0.422,0.065,0.412,0.114:
0000
0000
0000
0000
,
2000
0000
0000
0000
,
3002
0000
0000
0000
0000
0000
0000
0000
0000
0000
0000
0003
0000
0000
1000
0001
,
0010
0000
0010
0002
0000
0000
2000
0000
0000
0000
0000
0000
0003
0000
0000
0000
,
3001
0000
0000
0001
0000
0000
0020
0000
0000
0000
0000
0000
0000
0000
0130
0000
,
0200
0000
0000
0000
,
1300
0000
0000
1000
0000
0000
0020
0000
0000
0000
0000
0000
0030
0000
0000
0100
,
0002
0000
0000
0000
,
0103
0000
0000
0100
0000
0000
0020
0000
0000
0000
0000
0000
0000
0000
1030
0000
,
2000
0000
0000
0000
,
3001
0000
0000
0001
0000
0000
0010
0000
0020
0000
0000
0032
0000
0000
1003
0000
,
0020
0000
0130
0000
0001
1000
0100
1000
,
0001
0000
0000
0001
0000
0000
0020
0000
0000
0000
0000
0000
0130
0000
1000
0000
,
2000
0000
3001
0000
0100
0001
1000
0100
,
1000
0000
0000
1000
0000
0000
0020
0000
0000
0000
0000
0000
1030
0000
0000
0001
,
0200
0000
0310
0000
1000
0100
1000
0001
,
0100
0000
0000
0100
0000
0000
0020
0000
0000
0000
0000
0000
1030
0000
0001
0000
,
0002
0000
0103
0000
0010
0000
1000
0001
,
0100
0000
0000
0100
0000
0000
0020
0000
0000
0000
0000
0000
0030
0000
1000
0000
,
0100
0010
0001
0100
0001
0100
0010
1000
,
0020
0000
2030
0002
3000
0000
1003
0100
,
0010
0000
0010
0000
0010
0001
1000
0100
,
2000
0000
3002
2000
0000
0003
0000
3001
,
0100
0010
1000
0100
1000
0100
0010
0001
,
0010
0100
0010
0001
0000
0001
1000
0010
,
0200
0001
1000
0310
,
2000
0000
0000
0002
3000
0000
1003
0000
,
0001
0100
0001
1000
0100
0010
0001
0100
,
0010
1000
0001
0020
0100
0000
0130
0000
,
1000
0100
1000
0001
0100
0010
1000
0100
,
0010
0001
1000
0020
0100
0000
0130
0000
,
0001
0010
0001
1000
0010
0100
0001
0010
,
0100
1000
0001
0200
0010
0000
0310
0000
,
0010
1000
0001
0100
0010
1000
0001
0010
,
0100
0010
0000
0010
0000
0010
0000
0010
,
0001
0000
1000
0000
0100
0000
1000
0001
0000
0000
0100
0000
0001
0000
1000
0001
,
0000
0010
0100
1000
1100
0000
1100
0000
,
1000
0000
0001
0000
0100
0000
0001
1000
0000
0000
0100
0000
1000
0000
0001
1000
,
0000
0010
0100
0001
0101
0000
0101
0000
,
0010
0000
1000
0000
0001
0000
0010
0001
0000
0000
1000
0000
0100
0000
1000
0001
,
0000
0100
0010
1000
1001
0000
1001
0000
,
0100
1000
0001
0010
0100
1000
0001
0010
,
0100
1000
0010
0001
0100
1000
0010
0001
,
0200
2300
3020
0230
,
0301
0000
0000
0001
0000
0000
0020
0000
0000
0000
0000
0000
0130
0000
0100
0000
,
1000
0000
0000
1000
0000
0000
0020
0000
0000
0000
0000
0000
0030
0000
0000
0000
;

//---------------dance-double - ----------------
#NOTES:
     dance-double:
     :
     Challenge:
     8:
     0.473,0.422,0.043,0.423,0.103: // measure 1
00000000
00000000
00000000
00000000
,  // measure 2
00020000
00000000
00000000
00000000
,  // measure 3
20030000
00000000
00000000
30000000
,  // measure 4
20020000
00000000
00000000
30030000
,  // measure 5
20000000
00000000
00000000
30020000
00000000
00000000
00200000
00000000
00000000
00000000
00000000
00000000
00330000
00000000
00000000
00000000
,  // measure 6
00202000
00000000
00000000
00303000
,  // measure 7
00002000
00000000
00000000
00023000
00000000
00000000
00000020
00000000
00000000
00000000
00000000
00000000
00030030
00000000
00000000
00000000
,  // measure 8
00002002
00000000
00000000
00003003
,  // measure 9
00000002
00000000
00000000
00002003
00000000
00000000
00000020
00000000
00000000
00000000
00000000
00000000
00003030
00000000
00000000
00000000
,  // measure 10
00020020
00000000
00000000
00000000
,  // measure 11
00000000
00000000
00000000
00000000
00030030
00000000
00000000
00000000
00020000
00000000
00000000
00032000
00000000
00000000
00103000
00000000
,  // measure 12
01000000
01000000
10000000
10000000
01000000
01000000
00010000
00010000
,  // measure 13
01000000
01000000
00100000
00100000
00001000
00001000
00010000
00000010
,  // measure 14
00000100
00000100
00001000
00001000
00000100
00000100
00000001
00000001
,  // measure 15
00000010
00000000
00000010
00000000
00000100
00000000
00000100
00000000
00000001
00000000
00000001
00000000
00000100
00000000
00000000
00000100
,  // measure 16
00010000
00010000
00001000
00001000
00100000
00100000
01000000
01000000
,  // measure 17
00010000
00010000
00001000
00001000
01000000
01000000
00010000
00100000
,  // measure 18
00001000
00001000
01000000
01000000
00100000
00100000
00010000
00010000
,  // measure 19
00100000
00100000
10000000
10000000
00010000
00010000
10000000
10000000
,  // measure 20
01000000
00100000
00010000
01000000
00010000
01000000
00100000
10000000
,  // measure 21
00200000
00000000
10300000
00020000
00000000
00000000
00031000
00000100
,  // measure 22
00000010
00000000
00000010
00000000
00000010
00000001
00001000
00000100
,  // measure 23
00002000
00000000
00003001
00002000
00000000
00000000
00003000
00010000
,  // measure 24
01000000
00100000
10000000
01000000
10000000
01000000
00100000
00010000
,  // measure 25
00100000
01000000
00100000
00020000
00000000
00030010
00000001
00001000
,  // measure 26
00000020
00000100
00000001
00001000
,  // measure 27
00000230
00000000
00000000
00000002
00000300
00000000
00002003
00000000
,  // measure 28
00003001
00000010
00000001
00000010
00000100
00001000
00000100
00001000
,  // measure 29
00000001
00000100
00000001
00000200
00001000
00000000
00001300
00000000
,  // measure 30
00010000
00100000
00010000
00100000
01000000
10000000
01000000
10000000
,  // measure 31
00010000
01000000
00010000
02000000
10000000
00000000
13000000
00000000
,  // measure 32
01000000
00010000
01000000
00010000
10000000
00100000
10000000
00100000
,  // measure 33
00001000
00010000
00001000
00020000
00000100
00000000
00030100
00000000
,  // measure 34
00010000
01000000
10000000
00100000
00010000
00001000
00000100
00000001
,  // measure 35
00000010
00001000
00010000
01000000
10000000
00100000
00010000
00001000
,  // measure 36
00000100
00000000
00000001
00000000
00000100
00000000
00000010
00001000
00000000
00000000
00000001
00000000
00000100
00000000
00000010
00000100
,  // measure 37
00000000
00000000
00000001
00000000
00000100
00000000
00001000
00010000
00000000
00000000
00100000
00000000
10000000
00000000
00010000
00100000
,  // measure 38
00010000
00000000
10000000
00000000
01000000
00000000
00100000
00010000
00000000
00000000
10000000
00000000
01000000
00000000
00100000
01000000
,  // measure 39
00000000
00000000
10000000
00000000
01000000
00000000
00010000
00001000
00000000
00000000
00000010
00000000
00000001
00000000
00001000
00000100
,  // measure 40
00001000
00000000
00000100
00000000
00000010
00000000
00000001
00001000
00000000
00000000
00000001
00000000
00000100
00000000
00001000
00010000
,  // measure 41
00000000
00000000
00100000
00000000
00010000
00000000
00001000
00010000
00000000
00000000
00100000
00000000
10000000
00000000
00010000
00100000
,  // measure 42
00010000
10000000
00100000
00010000
00001000
00000100
00000001
00000010
,  // measure 43
00001000
00010000
01000000
10000000
00100000
00010000
00001000
00000100
,  // measure 44
00000002
00000023
00002030
00023000
,  // measure 45
01030000
00000000
00000000
01000000
00000000
00000000
20000000
00000000
00000000
00000000
00000000
00000000
00000000
00000000
00000000
00000000
,  // measure 46
30100000
00000000
00000000
00100000
00000000
00000000
00020000
00000000
00000000
00000000
00000000
00000000
00030000
00000000
00000000
00000000
;
