#TITLE:LIGHT MOTION;
#SUBTITLE:;
#ARTIST:RAM;
#TITLETRANSLIT:;
#SUBTITLETRANSLIT:;
#ARTISTTRANSLIT:;
#CREDIT:;
#BANNER:LIGHT MOTION.png;
#BACKGROUND:LIGHT MOTION-bg.png;
#LYRICSPATH:;
#CDTITLE:./CDTITLES/Song Pack 15.png;
#MUSIC:LIGHT MOTION.ogg;
#OFFSET:0.000;
#SAMPLESTART:17.355;
#SAMPLELENGTH:15.000;
#SELECTABLE:YES;
#DISPLAYBPM:152.000;
#BPMS:0.000=152.542,20.000=151.970;
#STOPS:;
#BGCHANGES:;

//---------------dance-single - ----------------
#NOTES:
     dance-single:
     :
     Beginner:
     1:
     0.139,0.186,0.012,0.000,0.000:
0000
0000
0000
0000
,
0000
0000
0000
0000
,
0000
0000
0000
0000
,
0100
0000
0000
0000
,
0010
0000
0000
0000
,
1000
0000
0010
0000
,
0010
0000
0000
0000
,
1000
0000
0000
0000
,
0001
0000
0000
0000
,
0100
0000
0100
0000
,
0001
0000
0000
0000
,
1000
1000
1000
0000
,
1000
0000
0001
0000
,
0001
0000
0010
0000
,
0010
0000
0100
0000
,
0100
0100
0100
0000
,
0100
0000
1000
0000
,
0001
0000
1000
0000
,
0001
0000
1000
0000
,
0001
0000
0000
0000
,
0100
0000
0000
0000
,
0010
0000
0000
0100
,
0100
0000
0000
0000
,
1001
0000
0000
0000
,
1000
0000
0000
0000
,
0001
0000
0000
1000
,
1000
0000
0000
0000
,
0010
0010
0010
0000
,
0010
0000
0000
0000
,
0000
0000
1000
0000
,
0001
0000
0000
0000
,
0100
0100
0100
0000
,
0100
0000
0000
0000
,
0000
0000
0010
0000
,
1000
0000
0000
0000
,
0001
0000
0000
0000
,
0100
0000
0000
0000
,
0001
0000
1000
0000
,
0001
0000
0000
0000
,
0100
0000
0000
0000
,
0010
0000
0000
0000
,
1000
0000
0001
0000
,
1000
0000
0000
0000
,
1000
1000
1000
0000
,
1000
0000
0001
0000
,
0001
0000
0010
0000
,
0010
0000
0100
0000
,
0100
0100
0100
0000
,
0100
0000
1000
0000
,
0001
0000
1000
0000
,
0001
0000
1000
0000
,
0001
0000
0000
0000
;

//---------------dance-single - ----------------
#NOTES:
     dance-single:
     :
     Easy:
     4:
     0.335,0.341,0.097,0.292,0.000:
0000
0000
0000
0000
,
0000
0000
0000
0000
,
0000
0000
0000
0000
,
0001
1000
0100
0100
,
0010
0001
1000
0100
,
1000
0100
0010
0001
,
1001
0000
0000
0000
,
0010
0100
0001
1000
,
0010
1000
0010
1000
,
0001
0010
0100
1000
,
2000
0001
0001
3001
,
1000
0100
1000
0010
,
0100
0001
0100
0010
,
1000
0100
0001
0100
,
1000
1000
0001
0001
,
1000
1000
0001
0100
,
0001
0010
0100
1000
,
0100
0010
0001
0100
,
1000
0100
0001
0100
,
0110
0000
0200
0300
,
0002
0003
0020
0030
,
0200
0300
2000
3000
,
1001
0000
0000
0000
,
0110
0000
0200
0300
,
2000
3000
0200
0300
,
0020
0030
0002
0003
,
1001
0000
0000
0000
,
2000
3002
0103
0010
,
0100
0010
0100
0002
,
0000
0003
2000
3001
,
0100
0010
0100
0000
,
0002
2003
3100
0010
,
0100
0010
0100
2000
,
0000
3000
0002
2003
,
3001
0100
0001
1000
,
2000
0001
3001
0001
,
0020
0100
0130
0100
,
1000
0100
0010
0001
,
1001
0000
0000
0000
,
0002
1000
1003
1000
,
0200
0010
0310
0010
,
0001
0010
0100
1000
,
1001
0000
0000
0000
,
0001
0100
0001
0100
,
0010
1000
0010
0100
,
0001
0010
1000
0010
,
0001
0001
1000
1000
,
0001
0001
1000
0010
,
1000
0100
0010
0001
,
0010
0100
1000
0010
,
0001
0010
1000
0010
,
0110
0000
0000
0000
;

//---------------dance-single - ----------------
#NOTES:
     dance-single:
     :
     Medium:
     5:
     0.361,0.434,0.231,0.024,0.012:
0000
0000
0000
0000
,
0000
0000
0000
0000
,
0000
0000
0000
0000
,
0001
0010
1000
0010
,
0001
0100
0001
0010
,
1000
0000
0010
0000
0100
0000
0010
0010
,
0001
0000
0000
0000
,
1000
0100
0001
0100
,
1000
0010
0100
0010
,
1000
0000
0001
0000
0100
0000
1000
0100
,
0100
0110
1000
0101
,
0001
0010
0100
1000
,
0001
0000
0010
0000
0100
0000
1000
0001
,
1000
0010
0100
0010
,
1000
0001
0100
0001
,
1000
0100
0010
0001
,
1000
0000
0100
0000
0010
0000
0001
1000
,
0001
0100
0010
0100
,
0000
0000
0001
0000
0000
1000
0000
0000
0001
0000
0000
0000
1000
0000
0000
0000
,
0110
0000
0000
0000
1000
0001
0000
0000
,
1001
0000
0000
0000
0010
0001
0000
0000
,
0011
0000
0000
0000
1000
0001
0000
0000
,
0010
0100
0000
0000
0000
0000
0000
0000
,
0110
0000
0000
0000
0001
1000
0000
0000
,
1001
0000
0000
0000
0010
1000
0000
0000
,
1010
0000
0000
0000
0001
1000
0000
0000
,
2002
0000
3003
0000
,
1100
0101
0001
1000
,
0010
0010
0100
0000
0001
0001
0001
1000
,
0000
0000
1100
0000
0101
0000
0001
1000
,
0100
0100
0100
0000
1001
0000
0000
0000
,
0100
0000
0010
0000
1000
0001
0100
0000
,
0001
1000
0010
0000
1000
0100
0100
0100
,
0000
0010
0001
0100
,
0100
0000
1001
0000
0000
0000
0000
1000
,
0100
1000
0100
0001
,
0100
0010
0100
1000
,
0001
0000
0100
0000
0010
0000
1000
0100
,
0100
0000
0000
0000
,
0010
0001
0010
1000
,
0010
0001
1000
0100
,
1000
0010
0100
0001
,
0011
0000
1100
0000
0000
1001
0000
0000
,
0001
0010
0100
1000
,
0001
0000
0010
0000
0100
0000
1000
0001
,
1000
0010
0100
0010
,
1000
0001
0100
0001
,
1000
0100
0010
0001
,
1000
0000
0100
0000
0010
0000
0001
1000
,
0001
0100
0010
0100
,
0000
0000
0001
0000
0000
1000
0000
0000
0001
0000
0000
0000
1000
0000
0000
0000
,
0110
0000
0000
0000
;

//---------------dance-single - ----------------
#NOTES:
     dance-single:
     :
     Hard:
     8:
     0.630,0.619,0.608,0.049,0.322:
0000
0000
0000
0000
,
0000
0000
0000
0000
,
0000
0000
0000
0000
,
1001
0000
0000
0000
0001
0000
0000
1000
0000
0000
0100
0000
0000
0000
1000
0000
,
0010
0000
0000
0000
0001
0000
0000
0010
0000
0000
1010
0000
0000
0000
0101
0000
,
0000
0000
0100
0000
0000
0001
0000
0010
0000
0000
0001
0000
1000
0000
0001
0000
,
1000
0000
0010
0000
0100
0001
0000
0100
0000
0000
0010
0000
1000
0001
0100
0000
,
0110
0000
0000
0000
1001
0000
0000
0001
0000
0000
0001
0000
0000
0000
0010
0000
,
0001
0000
0000
0000
1000
0000
0000
0010
0000
0000
1000
0000
0000
0000
0001
0000
,
0000
0000
1010
0000
0000
0011
0000
0000
0011
0000
0000
1010
0000
0000
1000
0000
,
1001
0110
1100
0101
,
0010
0001
1000
0100
0010
0001
0100
1000
,
0100
0001
1000
0100
0010
0001
0100
0010
,
0001
1000
0100
0010
1000
0100
0010
0001
,
0010
1000
0010
0001
1000
0010
0001
0010
,
1000
0100
0010
0100
0001
0100
0010
0100
,
1000
0010
1000
0001
1000
0100
0010
0001
,
0010
0100
0010
1000
0010
0100
0010
0001
,
0100
0010
0001
1000
0100
0010
1000
0100
,
1001
0000
0000
0001
0000
0000
0000
1001
0000
0000
0010
0000
0000
1001
0000
0000
,
0001
0000
0000
0110
0000
0000
0000
1100
0000
0000
0100
0000
0000
0101
0000
0000
,
0100
0000
0000
0110
0000
0000
0000
1010
0000
0000
0010
0000
0000
0011
0000
0000
,
0010
0000
0110
0000
0000
0000
0000
0000
0000
0000
1000
0000
0000
1100
0000
0000
,
0001
0000
0000
0101
0000
0000
0000
1001
0000
0000
1000
0000
0000
1010
0000
0000
,
1000
0000
0000
1100
0000
0000
0000
1001
0000
0000
0001
0000
0000
0101
0000
0000
,
0001
0000
0000
0000
0000
0000
0000
0001
0000
0000
0000
0000
0000
0220
0000
0000
,
0000
0000
0000
0330
,
1000
0000
0000
0000
1000
0000
0000
0000
0001
0000
0010
0100
0010
0100
0010
0000
,
0110
0001
1000
0110
1000
0001
0100
0010
,
0000
1010
0000
0000
0101
0000
0000
0000
1000
0000
0001
0100
0001
0000
1000
0000
,
0001
0000
1000
0000
1100
0000
0011
0000
0001
0000
1000
0000
0000
0000
0000
1001
,
0000
0000
0000
0100
0000
0000
0000
0000
0010
0000
0001
1000
0001
0000
1000
0000
,
0100
0000
0010
0000
0001
0000
0010
0000
0100
0000
1000
0000
0100
1000
0001
0000
,
0000
0110
0000
0000
1010
0000
0000
0000
1000
0000
0001
0100
0010
0000
1000
0000
,
0001
0000
1000
0000
0001
0000
0000
0000
0010
0000
0001
1000
0001
1000
0001
0000
,
1001
0000
0000
0000
1000
0000
0000
0001
0000
0000
0100
0000
0000
0000
0001
0000
,
0010
0000
0000
0000
1000
0000
0000
0010
0000
0000
0011
0000
0000
0000
1100
0000
,
0000
0000
0100
0000
0000
1000
0000
0010
0000
0000
1000
0000
0001
0000
1000
0000
,
0001
0000
0010
0000
0100
1000
0000
0100
0000
0000
0010
0000
0001
1000
0100
0000
,
0110
0000
0000
0000
1001
0000
0000
1000
0000
0000
1000
0000
0000
0000
0010
0000
,
1000
0000
0000
0000
0001
0000
0000
0010
0000
0000
0001
0000
0000
0000
1000
0000
,
0000
0000
0011
0000
0000
1010
0000
0000
1010
0000
0000
0011
0000
0000
0001
0000
,
1001
0000
2000
0000
0000
3200
0000
0000
,
0310
0001
1000
0100
1000
0010
1000
0001
,
1000
0001
0010
0100
0010
0001
1000
0010
,
0100
1000
0100
0010
1000
0010
0001
0010
,
1000
0100
0010
0100
1000
0001
1000
0001
,
0010
0001
1000
0001
0100
0001
1000
0100
,
1000
0010
0100
0010
1000
0001
1000
0100
,
0010
0100
1000
0010
0100
1000
0100
0010
,
0001
0000
0010
0000
0100
0000
1000
0000
0100
0000
0001
0000
1000
0000
0001
0100
;

//---------------dance-double - ----------------
#NOTES:
     dance-double:
     :
     Beginner:
     1:
     0.139,0.186,0.012,0.000,0.000:
00000000
00000000
00000000
00000000
,
00000000
00000000
00000000
00000000
,
00000000
00000000
00000000
00000000
,
00010000
00000000
00000000
00000000
,
00000100
00000000
00000000
00000000
,
00010000
00000000
01000000
00000000
,
01000000
00000000
00000000
00000000
,
00001000
00000000
00000000
00000000
,
00000001
00000000
00000000
00000000
,
00001000
00000000
00001000
00000000
,
00000001
00000000
00000000
00000000
,
00000100
00000100
00000100
00000000
,
00000100
00000000
00001000
00000000
,
00010000
00000000
00010000
00000000
,
01000000
00000000
10000000
00000000
,
10000000
10000000
10000000
00000000
,
00100000
00000000
00100000
00000000
,
10000000
00000000
00010000
00000000
,
10000000
00000000
01000000
00000000
,
00010000
00000000
00000000
00000000
,
00001000
00000000
00000000
00000000
,
00000001
00000000
00000000
00001000
,
00001000
00000000
00000000
00000000
,
00001001
00000000
00000000
00000000
,
00000001
00000000
00000000
00000000
,
00001000
00000000
00000000
01000000
,
01000000
00000000
00000000
00000000
,
10000000
10000000
10000000
00000000
,
10000000
00000000
00000000
00000000
,
00000000
00000000
00000010
00000000
,
00001000
00000000
00000000
00000000
,
00000001
00000001
00000001
00000000
,
00000100
00000000
00000000
00000000
,
00000000
00000000
10000000
00000000
,
01000000
00000000
00000000
00000000
,
00100000
00000000
00000000
00000000
,
00001000
00000000
00000000
00000000
,
00000100
00000000
00000001
00000000
,
00000100
00000000
00000000
00000000
,
00010000
00000000
00000000
00000000
,
10000000
00000000
00000000
00000000
,
00010000
00000000
00001000
00000000
,
00010000
00000000
00000000
00000000
,
00000100
00000100
00000100
00000000
,
00000100
00000000
00000001
00000000
,
00000001
00000000
00000010
00000000
,
00000010
00000000
00000001
00000000
,
00001000
00001000
00001000
00000000
,
00001000
00000000
00000001
00000000
,
00000100
00000000
00001000
00000000
,
00010000
00000000
01000000
00000000
,
10000000
00000000
00000000
00000000
;

//---------------dance-double - ----------------
#NOTES:
     dance-double:
     :
     Easy:
     4:
     0.302,0.310,0.097,0.061,0.000:
00000000
00000000
00000000
00000000
,
00000000
00000000
00000000
00000000
,
00000000
00000000
00000000
00000000
,
00000001
00001000
00000001
00001000
,
00000010
00010000
00001000
00010000
,
00001000
00100000
00010000
10000000
,
00020000
00000000
00000000
00030000
,
10000000
01000000
10000000
01000000
,
00100000
00001000
00010000
00001000
,
00010000
00000100
00000010
00000001
,
00000010
00000010
00000010
00000010
,
00000001
00000001
00001000
00001000
,
00000001
00000001
00001000
00001000
,
00000001
00000100
00001000
00001000
,
00010000
00010000
01000000
10000000
,
10000000
10000000
00010000
00010000
,
10000000
10000000
00010000
00010000
,
10000000
01000000
00010000
00010000
,
00001000
00001000
00000100
00000001
,
00001000
00000000
00001001
00000000
,
00000100
00000000
00000110
00000000
,
00000100
00000000
00011000
00000000
,
02000000
00000000
00000000
03000000
,
10000000
00000000
10010000
00000000
,
00100000
00000000
01100000
00000000
,
01000000
00000000
00011000
00000000
,
00000200
00000000
00000000
00000300
,
00001000
00000010
00000010
00000010
,
00000100
00000001
00000001
00000002
,
00000000
00000003
00000100
00001000
,
00010000
01000000
10000000
00000000
,
00010000
01000000
01000000
01000000
,
00100000
10000000
10000000
20000000
,
00000000
30000000
10000000
01000000
,
00010000
00001000
00000100
00000001
,
00001000
00000001
00000001
00000001
,
00001000
00000100
00000100
00000100
,
00010000
00001000
00001000
00001000
,
00011000
00000000
00000000
00000000
,
00010000
10000000
10000000
10000000
,
00010000
00100000
00100000
00100000
,
00001000
00010000
00010000
00010000
,
00011000
00000000
00000000
00000000
,
00000001
00000001
00001000
00001000
,
00000001
00000001
00001000
00001000
,
00000001
00000100
00001000
00001000
,
00010000
00010000
01000000
10000000
,
10000000
10000000
00010000
00010000
,
10000000
10000000
00010000
00010000
,
10000000
01000000
00010000
00010000
,
00001000
00001000
00000100
00000001
,
00001000
00000000
00000000
00000000
;

//---------------dance-double - ----------------
#NOTES:
     dance-double:
     :
     Medium:
     6:
     0.446,0.465,0.353,0.207,0.000:
00000000
00000000
00000000
00000000
,
00000000
00000000
00000000
00000000
,
00000000
00000000
00000000
00000000
,
00001001
00000000
00000010
00000000
00001000
00000100
00000001
00000100
,
00001000
00000000
00000010
00000000
00010000
00001000
00010000
00001000
,
00010000
01000000
10000000
00010000
,
20020000
00000000
00000000
30030000
,
01100000
00000000
00010000
00000000
10000000
01000000
00010000
01000000
,
10000000
00000000
01000000
00000000
00010000
00001000
00010000
00001000
,
00010000
00001000
00000100
00000100
,
00001001
00000100
00001001
00000100
,
00000001
00001000
00000001
00000100
,
00001000
00010000
00100000
10000000
,
00010000
01010000
00010000
01010000
,
10000000
11000000
10000000
11000000
,
10000000
00010000
10000000
01000000
,
00010000
00001000
00000100
00000001
,
00001000
00001100
00001000
00001100
,
00000001
00000101
00000001
00000101
,
00001000
00000000
00000001
00000000
00000100
00001000
00000000
00010000
,
00001000
00000000
01000000
00000000
00100000
01000000
00000000
00010000
,
10000000
00000000
01000000
00000000
10000000
00010000
00000000
00100000
,
01000000
00200000
00000000
00000000
00300000
00000000
00000000
00000000
,
00010000
00000000
10000000
00000000
01000000
00010000
00000000
00001000
,
00010000
00000000
00000010
00000000
00000100
00000010
00000000
00001000
,
00000001
00000000
00000010
00000000
00000100
00000010
00000000
00000001
,
00002002
00000000
00003003
00000000
,
00000020
00000000
00002030
00000000
00003100
00000001
00000100
00000000
,
00020000
00000000
00032000
00000000
00103000
01000000
00100000
01000000
,
00000000
00000000
20000000
00000000
30100000
01000000
00010000
00100000
,
00001000
00010000
00001000
00000000
00011000
00000000
00000000
00000000
,
02000000
00000000
03020000
00000000
10030000
01000000
10000000
00000000
,
00020000
00000000
00230000
00000000
00301000
00010000
00001000
00010000
,
00000000
00000000
00002000
00000000
00003100
00000001
00000010
00000001
,
00000100
00000001
00001001
00000000
00000000
00000000
00000000
00001000
,
00011000
00000000
00010000
00000000
01000000
00100000
01000000
00100000
,
01000000
00000000
10000000
00000000
00100000
10000000
01000000
10000000
,
00100000
01000000
00010000
00100000
,
02200000
00000000
00000000
03300000
,
10010000
00000000
01000000
00000000
00001000
00010000
00001000
00010000
,
00001000
00000000
00000100
00000000
00000010
00001000
00000100
00001000
,
00000010
00000100
00000001
00000001
,
00000110
00000000
00000010
00000000
00000000
00000001
00000000
00000000
,
00000100
00001000
00000100
00001000
,
00010000
01000000
10000000
01000000
,
00010000
00011000
00010000
00011000
,
01000000
01100000
01000000
01100000
,
01000000
00010000
01000000
00010000
,
00001000
00000100
00000001
00000100
,
00001000
00011000
00001000
00011000
,
00000100
00000110
00000100
00000110
,
00001001
00000000
00000000
00000000
;

//---------------dance-double - ----------------
#NOTES:
     dance-double:
     :
     Hard:
     8:
     0.552,0.619,0.097,0.134,0.267: // measure 1
00000000
00000000
00000000
00000000
,  // measure 2
00000000
00000000
00000000
00000000
,  // measure 3
00000000
00000000
00000000
00000000
,  // measure 4
10000000
00100000
01000000
00010000
10000000
00010000
10000000
01000000
,  // measure 5
00100000
00001000
00010000
00001000
00010000
00000100
00000010
00000001
,  // measure 6
00001000
00000001
00001000
00000010
00000100
00001000
00010000
00001000
,  // measure 7
00020000
00000000
00000000
00030000
,  // measure 8
00001000
00000100
00000001
00000010
00000100
00000010
00000100
00001000
,  // measure 9
00000001
00000100
00001000
00000100
00001000
00010000
00100000
10000000
,  // measure 10
01000000
10000000
01000000
00100000
00010000
01000000
00010000
01000000
,  // measure 11
20000000
32000000
03020000
00230000
,  // measure 12
01300000
00000000
00000000
00000000
10000000
00000000
00000000
01000000
00000000
00000000
00010000
00000000
00000000
00000000
00001000
00000000
,  // measure 13
00000010
00000000
00000001
00000000
00000100
00000000
00000000
00001000
00000000
00000000
00000100
00000000
00000001
00000000
00000001
00000000
,  // measure 14
00000001
00000000
00000100
00000000
00000000
00001000
00000000
00000000
00010000
00000000
00000000
01000000
00000000
00000000
10000000
00000000
,  // measure 15
00000000
00000000
01000000
00000000
00000000
00010000
00000000
00000000
00001000
00000000
00000000
00010000
00000000
00000000
00001000
00010000
,  // measure 16
00001000
00000000
00000000
00000000
00010000
00000000
00000000
01000000
00000000
00000000
10000000
00000000
00000000
00000000
00100000
00000000
,  // measure 17
00010000
00000000
00001000
00000000
00010000
00000000
00000000
00000010
00000000
00000000
00000100
00000000
00000001
00000000
00000001
00000000
,  // measure 18
00000001
00000000
00001000
00000000
00000000
00000001
00000000
00000000
00001000
00000000
00000000
00000100
00000000
00000000
00010000
00000000
,  // measure 19
00000000
00000000
01000000
00000000
00000000
10000000
00000000
00000000
00100000
00000000
00000000
01000000
00000000
00000000
00010000
01000000
,  // measure 20
00010000
00000000
00000000
00000000
01000000
00000000
00000000
00001000
00000000
00000000
00010000
00000000
00000000
00000000
00000010
00000000
,  // measure 21
00000100
00000000
00000000
00000000
00000001
00000000
00000000
00001000
00000000
00000000
00000001
00000000
00000000
00000000
00010000
00000000
,  // measure 22
00001000
00000000
00000000
00000000
00001000
00000000
00000000
01000000
00000000
00000000
00010000
00000000
00100000
00000000
01000000
00000000
,  // measure 23
00100000
00002000
00000000
00000000
00003000
00000000
00000000
00000000
,  // measure 24
10000000
00000000
00000000
01000000
00000000
00000000
00100000
00000000
00000000
00000000
00001000
00000000
00000000
00000000
00000010
00000000
,  // measure 25
00000001
00000000
00000000
00000000
00001000
00000000
00000000
00000100
00000000
00000000
00010000
00000000
00000000
00000000
00100000
00000000
,  // measure 26
10000000
00000000
00000000
00000000
00010000
00000000
00000000
10000000
00000000
00000000
01000000
00000000
00010000
00000000
00000000
00000000
,  // measure 27
00001000
00000020
00000000
00000000
00000000
00000030
00000000
00000000
,  // measure 28
00000101
00000000
00000000
00000000
00001100
00000000
00000000
00000000
00001000
00000000
00000001
00001000
00000001
00000000
00001000
00000000
,  // measure 29
00010100
00000000
00010000
00000000
00001000
00000000
00001000
00000000
00000100
00000000
00000001
00001000
00000001
00000000
00000100
00000000
,  // measure 30
00000000
00000010
00000000
00000000
00001001
00000000
00000000
00000000
00000010
00000000
00000001
00001000
00000001
00000000
00001000
00000000
,  // measure 31
00000100
00000010
00000100
00000010
00001000
00001000
00010000
00000000
,  // measure 32
00011000
00000000
00000000
00000000
10010000
00000000
00000000
00000000
00010000
00000000
10000000
00010000
10000000
00000000
00010000
00000000
,  // measure 33
00100000
00000000
01000000
00000000
10000000
00000000
01000000
00000000
00100000
00000000
00010000
00100000
00010000
00000000
00100000
00000000
,  // measure 34
00000000
00010000
00000000
00000000
10010000
00000000
00000000
00000000
00100000
00000000
00010000
10000000
00010000
00000000
01000000
00000000
,  // measure 35
00100000
01000000
00100000
00000000
01000000
00000000
00010000
00000000
10000000
00010000
10000000
00000000
00010000
00000000
10010000
00000000
,  // measure 36
00100000
01000000
00100000
00010000
01000000
00010000
01000000
00100000
,  // measure 37
10000000
01000000
00010000
01000000
00010000
00001000
00000100
00000001
,  // measure 38
00000010
00000001
00000010
00000100
00001000
00000001
00000010
00000100
,  // measure 39
00002000
00000000
00000000
00003000
,  // measure 40
00000100
00010000
00001000
01000000
00100000
01000000
00100000
10000000
,  // measure 41
00010000
00100000
01000000
00100000
01000000
00010000
00001000
00000100
,  // measure 42
00000010
00000100
00000010
00001000
00000001
00000010
00000100
00000010
,  // measure 43
00000200
00000000
00002300
00000000
00000000
00003002
00000000
00000000
,  // measure 44
00000013
00000000
00000000
00000000
00000001
00000000
00000000
00000100
00000000
00000000
00001000
00000000
00000000
00000000
00010000
00000000
,  // measure 45
00100000
00000000
10000000
00000000
01000000
00000000
00000000
00010000
00000000
00000000
01000000
00000000
10000000
00000000
10000000
00000000
,  // measure 46
10000000
00000000
01000000
00000000
00000000
00010000
00000000
00000000
00001000
00000000
00000000
00000100
00000000
00000000
00000001
00000000
,  // measure 47
00000000
00000000
00000100
00000000
00000000
00001000
00000000
00000000
00010000
00000000
00000000
00001000
00000000
00000000
00010000
00001000
,  // measure 48
00010000
00000000
00000000
00000000
00001000
00000000
00000000
00000100
00000000
00000000
00000001
00000000
00000000
00000000
00000010
00000000
,  // measure 49
00001000
00000000
00010000
00000000
00001000
00000000
00000000
00100000
00000000
00000000
01000000
00000000
10000000
00000000
10000000
00000000
,  // measure 50
10000000
00000000
00010000
00000000
00000000
10000000
00000000
00000000
00010000
00000000
00000000
01000000
00000000
00000000
00001000
00000000
,  // measure 51
00000000
00000000
00000100
00000000
00000000
00000001
00000000
00000000
00000010
00000000
00000000
00000100
00000000
00000000
00001000
00000100
;
