#TITLE:Let the beat hit em!;
#SUBTITLE:(CLASSIC R&B STYLE);
#ARTIST:STONE BROS.;
#TITLETRANSLIT:;
#SUBTITLETRANSLIT:;
#ARTISTTRANSLIT:;
#CREDIT:;
#BANNER:Let the beat hit em!(CLASSIC R&B STYLE).png;
#BACKGROUND:Let the beat hit em!(CLASSIC R&B STYLE)-bg.png;
#LYRICSPATH:;
#CDTITLE:./CDTITLES/DANCE DANCE REVOLUTION HOME VERSION.PNG;
#MUSIC:Let the beat hit em!(CLASSIC R&B STYLE).mp3;
#OFFSET:-0.057;
#SAMPLESTART:65.890;
#SAMPLELENGTH:15.500;
#SELECTABLE:YES;
#DISPLAYBPM:102.000;
#BPMS:0.000=102.010;
#STOPS:;
#BGCHANGES:;

//---------------dance-single - ----------------
#NOTES:
     dance-single:
     :
     Easy:
     3:
     0.221,0.265,0.045,0.000,0.000:
0000
0000
0000
0000
,
0000
0000
0000
0000
,
0000
0000
0000
0000
,
0000
0000
0000
0000
,
0010
0000
0100
0000
,
0010
0000
1000
0001
,
0010
0000
1000
0000
,
0010
0000
0000
0000
0010
0001
1000
0000
,
0001
0100
1000
0100
,
0010
0000
1000
0100
,
1000
0110
0010
1000
,
0100
1001
0010
0100
,
0001
0000
0000
0000
1000
0100
0001
0000
,
1000
0000
0001
0000
0100
0100
0100
0000
,
0001
0000
1000
0010
,
0100
0000
1000
0000
0001
1000
0001
0000
,
0010
0000
0001
0010
,
1000
0000
0100
0000
0001
1000
0100
0000
,
0010
0000
0001
0100
,
1000
0000
0001
0000
1000
0001
0100
0000
,
0001
0000
0010
0000
1000
0000
0010
1000
,
0001
0000
1000
0000
0001
0100
1000
0000
,
0010
0000
1000
0000
0001
0001
0100
0000
,
1000
0001
1000
0000
0001
1000
0100
0000
,
0010
0001
0100
1000
,
0010
0000
1000
0001
,
0100
0000
0010
1000
,
0010
0000
0001
0000
0100
0001
1000
0000
,
0010
0000
0010
0000
,
1000
0000
0001
0000
1000
0100
0001
0000
,
0010
0000
0001
0000
1000
0001
0010
0100
,
0010
0000
1000
0000
0001
1000
0100
0000
,
0001
0000
0010
0000
,
1000
0001
0100
0001
0010
0000
1001
0000
,
0100
0000
0001
0000
0010
1000
0001
1000
,
0100
0000
0110
0000
1000
0100
0001
0000
,
0100
0000
0000
0000
;

//---------------dance-single - ----------------
#NOTES:
     dance-single:
     :
     Medium:
     5:
     0.301,0.306,0.158,0.000,0.000:
0000
0000
0000
0000
,
0000
0000
0000
0000
,
0000
0000
0000
0000
,
0000
0000
0000
0000
,
0010
0000
0000
0000
0001
0100
1000
0000
,
0001
0000
0000
0000
1000
0100
0001
0000
,
0100
0000
0000
0000
0010
1000
0100
0000
,
0001
0000
0100
0000
0001
1000
0100
0000
,
0010
1000
0100
0001
,
0010
0001
1000
0000
0001
1000
0100
1000
,
0010
0000
1001
0000
0100
0001
1000
0100
,
0010
0000
1001
0000
0100
1000
0100
0000
,
0010
0000
1001
0000
1000
0100
0001
0000
,
1000
0000
1001
0000
0100
0100
0100
0000
,
0010
0000
1001
0000
0010
0100
0100
0000
,
0010
1000
0001
0100
0010
1000
0001
0000
,
0010
0000
1001
0000
0100
1000
0001
0000
,
1000
0100
0001
0100
0001
1000
0100
0000
,
0010
1001
0100
0010
,
1000
0001
1000
0100
0001
1000
0100
0000
,
0001
0000
0110
0000
1000
0000
0010
1000
,
0001
0000
1000
0000
0001
0100
1000
0000
,
0010
0000
1000
0000
0001
0001
0100
0000
,
1000
0001
1000
0010
0001
1000
0100
0000
,
0010
0001
0100
1000
,
0010
0000
0000
0000
1000
1000
0100
0000
,
0010
0000
1000
0000
0010
1000
0100
0000
,
0010
0000
0001
0000
0100
0001
1000
0100
,
0010
1000
0010
0001
,
1000
0000
0101
0000
0001
1000
0100
1000
,
0010
0000
1001
0000
1000
0001
0010
0100
,
0010
0000
1001
0000
0001
1000
0100
0000
,
0001
0000
1100
0000
0010
1000
0001
0000
,
1000
0100
0010
0001
1000
0100
1000
0001
,
0100
0100
1001
0000
1000
0001
0100
1000
,
0001
0000
1100
0000
0001
0100
1000
0000
,
0100
0000
0000
0000
;

//---------------dance-single - ----------------
#NOTES:
     dance-single:
     :
     Hard:
     6:
     0.362,0.367,0.362,0.000,0.000:
0000
0000
0000
0000
,
0000
0000
0000
0000
,
0000
0000
0000
0000
,
0000
0000
0000
0000
,
0010
0000
0001
0000
1000
0100
0001
0000
,
1000
0000
0100
0000
0001
0100
1000
0000
,
0010
0000
1000
0000
0010
0001
0100
0000
,
1000
0000
0010
0000
1000
0001
0100
0000
,
0010
0010
1000
0000
0100
1000
0001
0000
,
0010
1000
0100
0010
0001
1000
0010
0100
,
0101
0000
1001
1000
0001
0010
0100
0010
,
0100
0000
1001
0001
0010
0100
1000
0000
,
0110
0000
1001
0000
0010
1000
0100
0000
,
1000
0001
0010
0100
1000
0000
0101
0000
,
1010
0000
1001
0000
0010
0100
1000
0000
,
0010
0001
1000
0010
0100
0000
0101
0000
,
1001
0000
0110
0000
0100
0001
1000
0000
,
1000
0100
0010
0001
1000
0000
0101
0000
,
0110
0000
1001
0000
0010
0001
0100
0000
,
1000
0001
0010
0100
1000
0000
1100
0000
,
1001
0000
0110
0000
1000
0001
0100
1000
,
0001
0000
1100
0000
1000
0001
0101
0000
,
0010
0000
0101
0000
1000
1000
0100
0000
,
0010
0001
1000
0010
0001
1000
0100
0000
,
0011
0000
1100
0000
0010
0001
1000
0001
,
0100
0100
0001
0000
1000
0001
0101
0000
,
0100
0000
1010
0000
0001
0100
1001
0000
,
0010
0000
0100
0000
1000
0100
0010
0001
,
1000
0001
1000
0000
0010
0001
0101
0000
,
1000
0001
0010
0001
1000
0010
0100
0010
,
0100
0000
1001
0100
1000
0001
0010
0100
,
0010
0000
1001
0010
0001
1000
0100
0000
,
1000
0000
0101
0000
0010
1000
1100
0000
,
0001
0100
0010
1000
0001
0100
1000
0001
,
0100
0000
1001
0010
1000
0001
0100
0010
,
1000
0100
1100
0001
1000
0100
0001
0000
,
0100
0000
0000
0000
;

//---------------dance-double - ----------------
#NOTES:
     dance-double:
     :
     Easy:
     3:
     0.223,0.265,0.045,0.000,0.000:
00000000
00000000
00000000
00000000
,
00000000
00000000
00000000
00000000
,
00000000
00000000
00000000
00000000
,
00000000
00000000
00000000
00000000
,
00100000
00000000
00010000
00000000
,
00001000
00000000
00000001
00000100
,
00000010
00000000
00001000
00000000
,
00010000
00000000
00000000
00000000
00100000
00010000
10000000
00000000
,
00100000
10000000
01000000
00010000
,
00001000
00000100
00000001
00000010
,
00000100
00000110
00001000
00000001
,
00000100
00001001
00000100
00001000
,
00010000
00000000
00000000
00000000
10000000
00010000
01000000
00000000
,
10000000
00000000
01000000
00000000
00010000
00001000
00001000
00000000
,
00000100
00000001
00000000
00000010
,
00000001
00000000
00000100
00000000
00001000
00010000
00001000
00000000
,
00010000
00000000
01000000
10000000
,
00100000
00000000
01000000
00000000
00010000
10000000
01000000
00000000
,
00100000
00000000
00010000
00001000
,
00000001
00000000
00000100
00000000
00000010
00001000
00000001
00000000
,
00000100
00000000
00001000
00000000
00010000
00000000
00001000
00010000
,
01000000
00000000
10000000
00000000
00010000
10000000
01000000
00000000
,
10000000
00000000
00010000
00000000
00100000
00100000
01000000
00000000
,
10000000
00010000
01000000
00000000
00001000
00000100
00000001
00000000
,
00000010
00000001
00000100
00001000
,
00010000
00000000
01000000
10000000
,
01000000
00000000
00100000
00001000
,
00000100
00000000
00000001
00000000
00000010
00000001
00000100
00000000
,
00001000
00000000
00000100
00000000
,
00000001
00000000
00000010
00000000
00000100
00001000
00000001
00000000
,
00000001
00000000
00000100
00000000
00001000
00010000
00001000
00010000
,
01000000
00000000
10000000
00000000
00100000
10000000
01000000
00000000
,
00010000
00000000
00000010
00000000
,
00000100
00000001
00001000
00000100
00001000
00000000
00011000
00000000
,
00001000
00000000
01000000
00000000
00010000
00100000
00010000
01000000
,
00010000
00000000
00011000
00000000
00010000
00001000
00000100
00000000
,
00000001
00000000
00000000
00000000
;

//---------------dance-double - ----------------
#NOTES:
     dance-double:
     :
     Medium:
     5:
     0.301,0.306,0.158,0.000,0.000:
00000000
00000000
00000000
00000000
,
00000000
00000000
00000000
00000000
,
00000000
00000000
00000000
00000000
,
00000000
00000000
00000000
00000000
,
00100000
00000000
00000000
00000000
00010000
10000000
01000000
00000000
,
00010000
00000000
00000000
00000000
00100000
00010000
01000000
00000000
,
00001000
00000000
00000000
00000000
00010000
00001000
00000100
00000000
,
00000001
00000000
00000100
00000000
00000001
00001000
00000100
00000000
,
00000010
00000001
00000100
00001000
,
00100000
00010000
01000000
00000000
00010000
10000000
01000000
10000000
,
00100000
00000000
10010000
00000000
01000000
00001000
00010000
00000000
,
00000010
00000000
00001001
00000000
00000100
00000001
00000100
00000000
,
00000010
00000000
00000110
00000000
00000001
00000100
00001000
00000000
,
00010000
00000000
00011000
00000000
01000000
01000000
01000000
00000000
,
00100000
00000000
10010000
00000000
00100000
01000000
01000000
00000000
,
00010000
01000000
00001000
00100000
00010000
01000000
00010000
00000000
,
00100000
00000000
10010000
00000000
10000000
01000000
00010000
00000000
,
00001000
00000100
00000001
00001000
00000010
00000100
00000010
00000000
,
00000010
00000000
00001001
00000000
00000010
00000100
00000100
00000000
,
00001000
00000100
00010000
00000010
00001000
00000100
00001000
00000000
,
00000001
00000000
00000110
00000000
00001000
00000000
00000001
00000100
,
00001000
00000000
00010000
00000000
00001000
00010000
01000000
00000000
,
10000000
00000000
00100000
00000000
10000000
10000000
01000000
00000000
,
10000000
00100000
01000000
00001000
00010000
00001000
00000100
00000000
,
00000001
00000010
00000100
00001000
,
00000010
00000000
00000000
00000000
00010000
00001000
00010000
00000000
,
00001000
00000000
00010000
00000000
00000010
00001000
00000100
00000000
,
00000010
00000000
00000001
00000000
00000100
00001000
00010000
01000000
,
10000000
00100000
10000000
00010000
,
10000000
00000000
01010000
00000000
00010000
10000000
00010000
01000000
,
00010000
00000000
00011000
00000000
00001000
00010000
00001000
00000100
,
00001000
00000000
00011000
00000000
00001000
00010000
01000000
00000000
,
10000000
00000000
01010000
00000000
00100000
10000000
00010000
00000000
,
00100000
10000000
01000000
00010000
00001000
00000100
00000001
00000100
,
00000010
00000010
00001001
00000000
00000010
00000001
00000100
00001000
,
00010000
00000000
01010000
00000000
10000000
00010000
01000000
00000000
,
00100000
00000000
00000000
00000000
;

//---------------dance-double - ----------------
#NOTES:
     dance-double:
     :
     Hard:
     6:
     0.344,0.346,0.260,0.000,0.000:
00000000
00000000
00000000
00000000
,
00000000
00000000
00000000
00000000
,
00000000
00000000
00000000
00000000
,
00000000
00000000
00000000
00000000
,
00100000
00000000
00010000
00000000
10000000
01000000
00010000
00000000
,
00001000
00000000
00010000
00000000
00001000
00000100
00000001
00000000
,
00000010
00000000
00000001
00000000
00001000
00000001
00000100
00000000
,
00000010
00000000
00010000
00000000
00001000
00010000
01000000
00000000
,
10000000
10000000
00010000
00000000
01000000
00001000
00010000
00000000
,
00001000
00000100
00000001
00001000
00000100
00010000
00001000
00000100
,
00001000
00000000
00011000
00010000
00001000
00010000
01000000
10000000
,
01000000
00000000
10010000
00010000
00100000
00010000
01000000
00000000
,
01100000
00000000
10010000
00000000
00100000
10000000
01000000
00000000
,
00010000
10000000
00100000
01000000
00010000
00000000
00011000
00000000
,
00000010
00000000
00001001
00000000
00000010
00000001
00000100
00000000
,
00000001
00001000
00000010
00000100
00000001
00000000
00001001
00000000
,
00000100
00000000
00000110
00000000
00000001
00001000
00000100
00000000
,
00000010
00000001
00000100
00001000
00010000
00000000
00011000
00000000
,
00100000
00000000
10010000
00000000
10000000
00010000
01000000
00000000
,
00010000
10000000
01000000
00010000
00001000
00000000
00011000
00000000
,
00000010
00000000
00000101
00000000
00000001
00001000
00000100
00001000
,
00000010
00000000
00001001
00000000
00000010
00000001
00000100
00000000
,
00001000
00000000
00011000
00000000
01000000
01000000
00010000
00000000
,
10000000
01000000
00010000
00001000
00010000
00001000
00000100
00000000
,
00000010
00000000
00001100
00000000
00010000
00001000
00010000
00000010
,
00000100
00000100
00000001
00000000
00001000
00000001
00000101
00000000
,
00001000
00000000
00011000
00000000
00001000
01000000
01010000
00000000
,
00100000
00000000
10000000
00000000
01000000
00010000
00001000
00000100
,
00000001
00001000
00000001
00000000
00001000
00010000
01000000
00000000
,
00001000
01000000
00001000
00000100
00001000
00010000
01000000
10000000
,
01000000
00000000
01010000
00001000
00000100
00000001
00000010
00000001
,
00000100
00000000
00001001
00000001
00001000
00010000
01000000
00000000
,
00010000
00000000
11000000
00000000
00010000
00001000
00000100
00000000
,
00000001
00001000
00000100
00010000
00001000
00000100
00000001
00000100
,
00000001
00000000
00001100
00010000
01000000
10000000
00100000
10000000
,
00100000
00000000
01010000
00000000
00001000
00000100
00000001
00000000
,
00000010
00000000
00000000
00000000
;

//---------------dance-single - ----------------
#NOTES:
     dance-single:
     :
     Beginner:
     1:
     0.105,0.102,0.000,0.000,0.000:
0000
0000
0000
0000
,
0000
0000
0000
0000
,
0000
0000
0000
0000
,
0000
0000
0000
0000
,
0010
0000
0100
0000
,
0010
0000
1000
0000
,
0010
0000
1000
0000
,
0010
0000
0010
0000
,
0001
0000
1000
0000
,
0010
0000
1000
0000
,
1000
0000
0010
0000
,
0100
0000
0010
0000
,
0001
0001
0000
0000
,
1000
1000
0000
0000
,
0001
0001
0000
0000
,
1000
1000
0000
0000
,
0010
0010
0000
0000
,
0100
0100
0000
0000
,
0010
0010
0000
0000
,
0100
0100
0000
0000
,
0001
0000
0001
0000
,
0001
0000
0001
0000
,
1000
0000
1000
0000
,
1000
0000
1000
0000
,
0010
0000
0100
0000
,
0010
0000
0100
0000
,
0010
0000
0100
0000
,
0010
0000
0100
0000
,
0010
0000
0010
0000
,
1000
0000
1000
0000
,
0010
0000
1000
0000
,
0010
0000
0001
0000
,
0001
0000
0010
0000
,
1000
0000
0010
0000
,
0100
0000
0010
0000
,
0100
0000
1000
0000
,
0100
0000
0000
0000
;

//---------------dance-single - ----------------
#NOTES:
     dance-single:
     :
     Challenge:
     8:
     0.485,0.504,0.149,0.137,0.377:
0000
0000
0000
0000
,
0000
0000
0000
0000
,
0000
0000
0000
0000
,
1000
0000
0000
0000
1000
0000
0000
0000
1000
0000
0000
0001
1000
0000
0000
0000
,
1000
0010
0100
0001
0010
1000
1010
0000
,
0010
0001
0100
1000
0100
0001
0101
0000
,
0001
0010
0100
1000
0001
0100
1100
0000
,
0100
0001
1000
0100
0000
0010
0000
0011
0000
0001
0100
0000
0010
0000
0000
0000
,
1001
0000
0100
0000
1000
0000
0001
0000
0200
0000
0000
0320
0000
0000
0130
0000
,
0001
0010
1000
0100
1000
0010
0001
0100
,
0110
0000
0110
1000
0001
1000
0100
1000
,
0010
0000
0000
0000
0000
0000
0100
0000
0001
0000
0010
0200
0000
1000
1300
1000
,
0101
0000
1100
0000
0000
0100
0010
0100
0001
0000
0010
0000
0100
0000
0010
0000
,
0001
1000
0001
0000
0100
0000
0010
0000
1000
0010
1000
0010
0000
0100
0001
1000
,
0100
0000
0010
0000
0100
0000
1000
0000
0001
0000
0100
0010
0000
1000
0100
1000
,
0001
0100
0000
0000
0010
1000
0000
0000
0100
0000
0100
0010
0000
0010
0001
0000
,
1001
0000
1000
0000
0010
0000
0100
0010
0000
0100
0001
0000
0010
0000
0100
0000
,
1000
0000
0000
0000
0000
0000
0001
0000
0000
0000
0000
0000
0100
0000
0000
0000
0000
0000
0000
0000
0000
0010
0000
0000
1000
0000
0000
0000
0010
0000
0000
0000
0100
0000
0000
0000
0000
0000
0000
0100
0000
0000
0001
0000
0000
0000
0000
0000
,
1000
0000
0100
0000
0010
0000
0100
0000
0001
0000
0100
1000
0100
0000
0010
0000
,
0001
0000
0100
0000
0010
0000
1000
0000
0100
0000
0010
0001
0000
1000
0100
1000
,
0100
1000
0000
0100
0010
0100
0010
0100
0000
0010
0001
0010
0001
0010
0000
0001
,
0100
0001
0100
0001
0000
0100
0010
0100
0010
0000
1000
0001
0100
0000
0000
0000
,
0000
0010
1000
0100
0000
1000
0001
0100
0001
0000
0100
0000
0010
0000
1000
0000
,
0100
0000
0010
0000
0001
1000
0000
0100
1000
0000
0001
0010
0000
0001
1000
0000
,
0220
0000
0000
0000
,
0330
0000
0000
2000
0001
0000
0010
0000
,
0100
0000
0010
0000
3001
0000
0010
0010
,
0200
2300
3002
0023
,
0130
0000
1000
0000
0001
0000
0200
0000
0010
0000
0000
0010
0000
0000
0310
0000
,
0001
0010
1000
0100
0010
0100
0001
1000
,
0001
0100
1000
0001
0100
0010
0100
1000
,
0001
0000
1000
0000
0100
0000
0001
0000
0010
0000
0100
1000
0000
1000
0001
0000
,
0110
0000
0100
0000
0010
0000
2000
0000
0001
0000
0000
0001
0000
0000
3001
0000
,
0100
0010
1000
0100
0001
0100
1000
0010
,
0100
0001
1000
0100
0100
0010
0010
0001
,
1000
0000
0010
0000
0100
0000
1000
0000
0100
0000
0001
0010
0000
0010
1000
0000
,
1000
0010
0001
0100
0000
1000
0000
0110
0000
0001
0100
0000
1000
0000
0000
0000
;

//---------------dance-solo - ----------------
#NOTES:
     dance-solo:
     :
     Easy:
     3:
     0.224,0.267,0.046,0.000,0.000:
000000
000000
000000
000000
,
000000
000000
000000
000000
,
000000
000000
000000
000000
,
000000
000000
000000
000000
,
000100
000000
001000
000000
,
000010
000000
100000
001000
,
010000
000000
000100
000000
,
001000
000000
000000
000000
010000
100000
001000
000000
,
000001
001000
100000
001000
,
000100
000000
100000
001000
,
100000
100001
000010
001000
,
000001
100001
001000
000100
,
001000
000000
000000
000000
000010
000001
001000
000000
,
000001
000000
001000
000000
000010
000010
000010
000000
,
010000
000000
000001
001000
,
000100
000000
100000
000000
001000
010000
001000
000000
,
000100
000000
000010
001000
,
000001
000000
000010
000000
000001
100000
001000
000000
,
000100
000000
000001
100000
,
000010
000000
000010
000000
010000
000001
001000
000000
,
000001
000000
000010
000000
000001
000000
001000
000001
,
100000
000000
001000
000000
100000
010000
100000
000000
,
001000
000000
100000
000000
000001
000001
001000
000000
,
000001
100000
000001
000000
000100
000001
001000
000000
,
000100
100000
001000
000001
,
010000
000000
100000
100000
,
001000
000000
000001
000001
,
010000
000000
001000
000000
100000
000100
001000
000000
,
000100
000000
000100
000000
,
000001
000000
100000
000000
000010
001000
000001
000000
,
100000
000000
010000
000000
100000
001000
000100
001000
,
100000
000000
000001
000000
010000
000001
001000
000000
,
000001
000000
000100
000000
,
010000
000001
001000
000010
001000
000000
001001
000000
,
000001
000000
100000
000000
000010
100000
001000
010000
,
001000
000000
101000
000000
000010
100000
001000
000000
,
000100
000000
000000
000000
;

//---------------dance-solo - ----------------
#NOTES:
     dance-solo:
     :
     Medium:
     5:
     0.304,0.309,0.160,0.000,0.000:
000000
000000
000000
000000
,
000000
000000
000000
000000
,
000000
000000
000000
000000
,
000000
000000
000000
000000
,
000100
000000
000000
000000
000010
100000
001000
000000
,
000001
000000
000000
000000
010000
000001
001000
000000
,
000100
000000
000000
000000
100000
000001
001000
000000
,
000010
000000
000100
000000
001000
100000
000001
000000
,
000010
000001
001000
100000
,
001000
000001
100000
000000
000001
000010
000001
001000
,
000100
000000
100001
000000
010000
100000
001000
100000
,
000001
000000
100001
000000
001000
000010
001000
000000
,
000100
000000
100001
000000
000001
001000
100000
000000
,
000010
000000
001010
000000
000100
000100
000100
000000
,
010000
000000
011000
000000
000001
001000
001000
000000
,
000100
000010
001000
000001
100000
010000
100000
000000
,
001000
000000
100001
000000
010000
100000
001000
000000
,
000010
000001
001000
000001
000100
001000
100000
000000
,
000100
100001
010000
100000
,
000100
000001
001000
000100
010000
001000
100000
000000
,
000001
000000
001100
000000
100000
000000
000100
010000
,
001000
000000
100000
000000
000010
001000
000001
000000
,
010000
000000
000100
000000
001000
001000
000001
000000
,
100000
000100
001000
000001
000010
000001
001000
000000
,
000100
100000
001000
000001
,
000010
000000
000000
000000
100000
001000
001000
000000
,
000100
000000
000010
000000
000100
001000
100000
000000
,
000100
000000
001000
000000
010000
100000
001000
000001
,
001000
100000
000100
000001
,
001000
000000
001010
000000
000010
100000
001000
100000
,
000100
000000
100001
000000
000010
100000
001000
000100
,
001000
000000
011000
000000
000001
100000
001000
000000
,
010000
000000
101000
000000
000100
001000
000001
000000
,
000100
001000
100000
010000
100000
001000
000001
001000
,
100000
000010
100001
000000
010000
001000
000010
000001
,
001000
000000
101000
000000
000100
000001
001000
000000
,
000100
000000
000000
000000
;

//---------------dance-solo - ----------------
#NOTES:
     dance-solo:
     :
     Hard:
     6:
     0.359,0.350,0.354,0.000,0.000:
000000
000000
000000
000000
,
000000
000000
000000
000000
,
000000
000000
000000
000000
,
000000
000000
000000
000000
,
000100
000000
000010
000000
010000
000001
001000
000000
,
000001
000000
001000
000000
000010
100000
001000
000000
,
000100
000000
000001
000000
100000
000100
001000
000000
,
000010
000000
000100
000000
001000
100000
000001
000000
,
010000
010000
001000
000000
100000
000001
001000
000000
,
000100
010000
001000
100000
000100
001000
000001
000000
,
101000
000000
100001
000001
100000
001000
010000
000001
,
001000
000000
100001
000000
010000
000001
001000
000000
,
001010
000000
100001
000000
010000
000001
001000
000000
,
000100
100000
001000
000001
001000
000000
101000
000000
,
011000
000000
100001
000000
000100
100000
001000
000000
,
000001
000010
000001
001000
000100
000000
001010
000000
,
001001
000000
100001
000000
001000
100000
000001
000000
,
000001
001000
000010
100000
001000
000000
101000
000000
,
011000
000000
100001
000000
010000
000001
001000
000000
,
000010
100000
001000
100000
000001
000000
100001
000000
,
010010
000000
100001
000000
000010
001000
000001
100000
,
001000
000000
101000
000000
000010
001000
001001
000000
,
100000
000000
101000
000000
000010
000010
001000
000000
,
000010
000100
001000
100000
000100
100000
001000
000000
,
101000
000000
100001
000000
000100
100000
001000
010000
,
001000
001000
100000
000000
000010
100000
101000
000000
,
000010
000000
100010
000000
001000
000001
001001
000000
,
000100
000000
100000
000000
001000
010000
000100
001000
,
000010
001000
000001
000000
010000
000001
001001
000000
,
000010
100000
001000
100000
000001
001000
000010
100000
,
001000
000000
100001
100000
000010
100000
001000
010000
,
001000
000000
100001
100000
000001
010000
001000
000000
,
000100
000000
001000
000000
010000
000001
001001
000000
,
001000
000010
001000
000001
000010
000001
001000
000001
,
000100
000000
100001
000001
100000
001000
010000
000001
,
001000
000000
001010
000010
100000
001000
100000
000000
,
000100
000000
000000
000000
;
