#TITLE:♥LOVE²シュガ→♥;
#SUBTITLE:;
#ARTIST:dj TAKA Feat.のりあ;
#TITLETRANSLIT:LOVE LOVE Sugar;
#SUBTITLETRANSLIT:;
#ARTISTTRANSLIT:dj TAKA Feat.Noria;
#CREDIT:;
#BANNER:LOVE LOVE SUGAR.png;
#BACKGROUND:LOVE LOVE SUGAR-bg.png;
#LYRICSPATH:;
#CDTITLE:./CDTITLES/POP'N MUSIC.PNG;
#MUSIC:LOVE LOVE SUGAR.mp3;
#OFFSET:-0.839;
#SAMPLESTART:44.160;
#SAMPLELENGTH:15.000;
#SELECTABLE:YES;
#DISPLAYBPM:155.000;
#BPMS:0.000=155.010;
#STOPS:;
#BGCHANGES:;

//---------------dance-single - ----------------
#NOTES:
     dance-single:
     :
     Easy:
     4:
     0.240,0.297,0.183,0.000,0.000:
0000
0000
0000
0000
,
0000
0000
0000
0000
,
0000
0000
0000
0000
,
0000
0000
0100
1001
,
0010
0000
0010
0000
,
0100
0000
0100
0000
,
0010
0000
0100
0000
,
0010
0000
0100
1001
,
1000
0000
1000
0000
,
0001
0000
0001
0000
,
1000
0000
0001
0000
,
1000
0000
0001
1001
,
0010
0100
0010
0000
,
1000
0000
0001
0000
,
0100
0000
0010
0000
,
1000
0100
1000
0100
,
0010
0100
0010
0000
,
0001
0000
1000
0000
,
0100
0000
0010
0000
,
0001
0100
0001
0100
,
0010
0000
1000
0000
,
0001
0000
0100
0000
,
0001
0001
1000
1000
,
0010
0010
0100
0100
,
0001
0000
1000
0000
,
0100
0000
0010
0000
,
0001
0001
0001
0001
,
1000
1000
1000
1001
,
0100
0000
1100
0000
,
0100
0000
1100
0000
,
0010
0000
1010
0000
,
0010
0000
1010
0000
,
0010
1000
0001
0000
,
0010
0001
1000
0000
,
0010
0000
0100
0000
,
0001
0001
1000
1001
,
0100
0000
0101
0000
,
0100
0000
0101
0000
,
0010
0000
0011
0000
,
0010
0000
0011
0000
,
0010
0001
1000
0000
,
0010
1000
0001
0000
,
0010
0000
0100
0000
,
1000
1000
0001
1001
,
0010
0000
0010
0000
,
0100
0000
0100
0000
,
0010
0010
0100
0100
,
0001
0001
1000
1001
,
0010
0000
0010
0000
,
0001
0000
0001
0000
,
0010
0010
0001
0001
,
1000
1000
0100
0100
,
1001
0000
0000
0000
;

//---------------dance-single - ----------------
#NOTES:
     dance-single:
     :
     Medium:
     5:
     0.361,0.394,0.309,0.114,0.000:
0000
0000
0000
0000
,
0000
0000
0000
0000
,
0000
0000
0000
0000
,
0000
0000
0100
1001
,
0010
1000
0001
0000
,
0010
0001
1000
0000
,
0100
0001
0010
1000
,
0100
1000
0010
1001
,
0010
1000
0001
0000
,
0010
0001
1000
0000
,
0100
0001
0010
1000
,
0100
1000
0010
1001
,
1000
1000
0010
0100
,
0001
0100
0001
1000
,
0010
0001
0100
0010
,
1000
0100
1000
1001
,
0001
0001
0010
0100
,
1000
0100
1000
0001
,
0010
1000
0100
0010
,
0001
0100
0001
1001
,
0010
0000
0010
0000
1000
0100
1000
0000
,
0010
0000
0010
0000
0001
0100
0001
0000
,
1000
0100
0010
0001
,
0001
0100
0010
1000
,
0100
0000
0100
0000
0010
0001
0010
0000
,
0100
0000
0100
0000
1000
0010
1000
0000
,
0110
0000
1001
0000
,
1100
0000
0000
0011
0000
0000
1001
0000
,
0110
0000
0000
1001
0000
0000
0100
0000
,
0001
0100
0001
0100
,
0110
0000
0000
1001
0000
0000
0100
0000
,
1000
0100
1000
0100
,
0012
0000
0010
0103
,
2010
0000
0010
3100
,
0002
1003
2000
3001
,
0100
0001
1000
1001
,
0110
0000
0000
1001
0000
0000
0100
0000
,
1000
0100
1000
0100
,
0110
0000
0000
1001
0000
0000
0100
0000
,
0001
0100
0001
0100
,
2010
0000
0010
3100
,
0012
0000
0010
0103
,
2000
3001
0002
1003
,
0100
1000
0001
1001
,
0010
0001
0010
0001
,
1000
0100
1000
0100
,
0010
0001
0100
0010
,
1000
0100
0100
1001
,
0100
1000
0100
1000
,
0001
0010
0001
0010
,
0100
1000
0010
0100
,
0001
0010
0010
1001
,
0220
0000
0000
0000
,
0330
0000
0000
0000
;

//---------------dance-single - ----------------
#NOTES:
     dance-single:
     :
     Hard:
     7:
     0.482,0.485,0.503,0.023,0.000: // measure 1
0000
0000
0000
0000
,  // measure 2
0000
0000
0000
0000
,  // measure 3
0000
0000
0000
0000
,  // measure 4
0000
0000
0100
1001
,  // measure 5
0000
1100
0000
1001
0000
0101
0000
1001
,  // measure 6
0000
1100
0000
0110
0000
0011
0000
0110
,  // measure 7
0000
1100
0000
1001
0000
0011
0000
1001
,  // measure 8
0010
1000
0000
0001
0100
0000
1001
0000
,  // measure 9
0000
0101
0000
1001
0000
1100
0000
1001
,  // measure 10
0000
0101
0000
0110
0000
1010
0000
0110
,  // measure 11
0000
0101
0000
1001
0000
1010
0000
1001
,  // measure 12
0010
0001
0000
1000
0100
0000
1001
0000
,  // measure 13
0010
1000
0010
0100
0001
0000
0010
0100
,  // measure 14
0000
1000
0100
1000
0000
0001
0100
0001
,  // measure 15
0000
0010
0100
1000
0000
0010
0100
0001
,  // measure 16
0000
1000
0100
1000
0000
1001
0000
0000
,  // measure 17
0010
0001
0010
0100
1000
0000
0010
0100
,  // measure 18
0000
0001
0100
0001
0000
1000
0100
1000
,  // measure 19
0000
0010
0100
0001
0000
0010
0100
1000
,  // measure 20
0000
0001
0000
1000
0000
0100
0000
0010
,  // measure 21
0001
0000
0001
0000
1000
0000
1000
0100
,  // measure 22
1000
0000
1000
0000
0001
0000
0001
0010
,  // measure 23
0001
1000
0100
0010
,  // measure 24
0001
0000
0100
0000
0010
0000
1000
0100
,  // measure 25
0000
0100
0010
0000
0001
0100
0001
1000
,  // measure 26
0000
1000
0010
0000
0001
0010
0001
1000
,  // measure 27
0000
0000
0010
0000
0001
0100
0010
1000
,  // measure 28
0001
0000
1000
0100
0000
0010
0001
0000
,  // measure 29
0110
0000
0000
1001
0000
1000
0100
1000
,  // measure 30
0000
0001
0000
0001
0000
0010
0100
1000
,  // measure 31
0001
0000
0000
0100
0000
0100
0001
0000
,  // measure 32
0010
0100
0010
0000
1000
0000
1000
0001
,  // measure 33
0000
1000
0100
0000
0010
0001
1000
0000
,  // measure 34
0100
0000
0010
0001
0000
0001
1000
0000
,  // measure 35
0100
0000
0100
1000
0000
0010
1000
0100
,  // measure 36
0010
0001
0000
0001
0000
1000
0100
0000
,  // measure 37
0110
0000
0000
1001
0000
0001
0100
0001
,  // measure 38
0000
1000
0000
1000
0000
0010
0100
0001
,  // measure 39
1000
0000
1000
0100
0000
1000
0100
1000
,  // measure 40
0010
0000
0010
1000
0001
0100
0010
1000
,  // measure 41
0000
0001
0000
0010
0100
0001
1000
0000
,  // measure 42
0100
0000
0100
0010
0000
0001
0100
0000
,  // measure 43
0010
0000
0010
1000
0000
0001
0010
0100
,  // measure 44
1000
1000
0000
0001
0100
0000
1001
0000
,  // measure 45
1000
0100
0000
0001
0100
0000
1001
0000
,  // measure 46
1000
0100
0000
0001
0100
0000
1001
0000
,  // measure 47
1000
0010
0000
0001
0010
0000
1001
0000
,  // measure 48
1000
0100
1000
0000
0101
0000
1001
0000
,  // measure 49
0001
0100
0000
1000
0100
0000
1001
0000
,  // measure 50
0001
0100
0000
1000
0100
0000
1001
0000
,  // measure 51
0001
0010
0000
1000
0010
0000
1001
0000
,  // measure 52
0001
0100
0001
0000
1100
0000
0110
0000
,  // measure 53
2002
0000
0000
0000
,  // measure 54
3003
0000
0000
0000
;

//---------------dance-double - ----------------
#NOTES:
     dance-double:
     :
     Easy:
     2:
     0.240,0.297,0.149,0.000,0.000:
00000000
00000000
00000000
00000000
,
00000000
00000000
00000000
00000000
,
00000000
00000000
00000000
00000000
,
00000000
00000000
01000000
10010000
,
00100000
00000000
00100000
00000000
,
01000000
00000000
01000000
00000000
,
00001000
00000000
00010000
00000000
,
00000010
00000000
00000010
00001001
,
00001000
00000000
00000001
00000000
,
00001000
00000000
00000100
00000000
,
00010000
00000000
00001000
00000000
,
00100000
00000000
00010000
10010000
,
00100000
01000000
00100000
00000000
,
10000000
00000000
00100000
00000000
,
01000000
00000000
00001000
00000000
,
00010000
00000000
00000010
00001000
,
00000010
00000100
00000010
00000000
,
00000001
00000000
00000010
00000000
,
00000100
00000000
00010000
00000000
,
00001000
00000000
00100000
00000000
,
00010000
00010000
01000000
00000000
,
10000000
10000000
01000000
00000000
,
00100000
00010000
00100000
00001000
,
00010000
00000100
00001001
00000000
,
00001000
00001000
00000100
00000000
,
00000001
00000001
00000100
00000000
,
00000010
00001000
00000010
00010000
,
00001000
01000000
01000000
10010000
,
00100000
00000000
10010000
00000000
,
01000000
00000000
10010000
00000000
,
00100000
00001000
00010000
00000100
,
00000010
00000010
00000100
00000100
,
00000001
00001000
00000001
00000000
,
00001000
00000001
00001000
00000000
,
00000100
00010000
00001000
00000000
,
00100000
00010000
10000000
10010000
,
01000000
00000000
01100000
00000000
,
00100000
00001000
00011000
00000000
,
00000010
00001000
00000001
00000100
,
00000010
00000010
00000100
00000100
,
00000010
00001000
00000100
00000000
,
00010000
00001000
00010000
00000000
,
00001000
00100000
00010000
00000000
,
01000000
00000000
10010000
00000000
,
10000000
00000000
10000000
00000000
,
00010000
00000000
00010000
00000000
,
01000000
00000000
00001000
00000000
,
00010000
00000000
00000010
00000110
,
00000001
00000000
00000001
00000000
,
00001000
00000000
00001000
00000000
,
00000100
00000000
00010000
00000000
,
00001000
00000000
00010000
00001000
,
00011000
00000000
00000000
00000000
;

//---------------dance-double - ----------------
#NOTES:
     dance-double:
     :
     Medium:
     5:
     0.345,0.333,0.240,0.046,0.000:
00000000
00000000
00000000
00000000
,
00000000
00000000
00000000
00000000
,
00000000
00000000
00000000
00000000
,
00000000
00000000
01000000
10010000
,
00100000
10000000
00010000
00000000
,
00001000
00000010
00000001
00000000
,
00000100
00000001
00000100
00001000
,
00010000
01000000
10000000
10010000
,
00100000
01000000
00010000
00000000
,
00000010
00000100
00001000
00000000
,
01000000
00010000
00100000
00010000
,
00001000
00010000
00001000
00011000
,
00100000
00100000
01000000
10000000
,
00010000
01000000
00100000
00010000
,
00001000
00000100
00000001
00000100
,
00001000
00000010
00010000
00011000
,
00000010
00000010
00000100
00000001
,
00000000
00000100
00000010
00001000
00000000
00000100
00010000
00001000
,
00000000
01000000
00100000
10000000
,
00010000
00100000
01000000
01010000
,
00001000
00000000
00001000
00000000
00010000
00000100
00010000
00000000
,
00000010
00000000
00000010
00000000
00000001
00000100
00000001
00000000
,
00000100
00001000
00010000
01000000
,
00100000
00110000
00001000
00010000
,
01000000
00000000
01000000
00000000
10000000
00100000
10000000
00000000
,
01000000
00000000
01000000
00000000
00100000
00001000
00100000
00000000
,
01000000
00000000
00001000
00000100
,
00000011
00000000
00000000
00001100
00000000
00000000
00010000
00000000
,
01010000
00000000
00000000
11000000
00000000
00000000
01000000
00000000
,
10000000
01000000
00010000
00001000
,
00001100
00000000
00000000
00000101
00000000
00000000
00000100
00000000
,
00000001
00000100
00001000
00010000
,
00000010
00001000
00010000
00001000
,
00100000
00010000
00001000
00010000
,
00010000
00100000
10000000
01000000
,
00010000
00001000
00000010
00010000
,
00110000
00000000
00000000
01010000
00000000
00000000
01000000
00000000
,
10000000
00100000
00010000
00000000
,
00001010
00000000
00000000
00001100
00000000
00000000
00000100
00000000
,
00000001
00000010
00001000
00000000
,
00021000
00000000
00001000
00030100
,
00012000
00000000
00010000
01003000
,
00010000
00100000
00010000
10000000
,
01000000
00100000
00001000
00011000
,
00100000
00010000
00100000
00010000
,
00000010
00001000
00000010
00001000
,
00000100
00000001
00000100
00001000
,
00010000
01000000
10000000
10010000
,
00100000
00010000
01000000
00001000
,
00010000
00000100
00000001
00000010
,
00001000
00000100
00000010
00001000
,
00010000
00100000
01000000
00100000
,
02200000
00000000
00000000
00000000
,
03300000
00000000
00000000
00000000
;

//---------------dance-double - ----------------
#NOTES:
     dance-double:
     :
     Hard:
     8:
     0.399,0.394,0.114,0.023,0.000:
00000000
00000000
00000000
00000000
,
00000000
00000000
00000000
00000000
,
00000000
00000000
00000000
00000000
,
00000000
00000000
00100000
10010000
,
10000000
01000000
00010000
00001000
,
00001000
00000010
00000001
00000010
,
00000010
00001000
00010000
01000000
,
00100000
00010000
00100000
00000000
11000000
00000000
10010000
00000000
,
10000000
00100000
00010000
00001000
,
00001000
00000100
00000001
00000100
,
00000100
00001000
00010000
00100000
,
01000000
00010000
01000000
00000000
10100000
00000000
10010000
00000000
,
10000000
00000000
10000000
00000000
01000000
00000000
00010000
00001000
,
00000000
00000100
00000000
00001000
00000000
00010000
00001000
00010000
,
00000000
00001000
00010000
00001000
00000000
00010000
00001000
00000000
,
00000010
00000001
00000100
00000001
,
00000001
00000000
00000001
00000000
00000100
00000000
00001000
00010000
,
00000000
01000000
00000000
00010000
00000000
00001000
00010000
00001000
,
00000000
00010000
00001000
00010000
00000000
00001000
00010000
00000000
,
00100000
10000000
01000000
10000000
,
10000000
01000000
00000000
00000000
00100000
00000000
00001000
00010000
,
00001000
00010000
00000000
00000000
00000100
00000000
00000010
00000001
,
00000010
00000001
00000100
00001000
,
00010000
00000000
00100000
00000000
10000000
00000000
01000000
00100000
,
00001000
00010000
00000000
00000000
00000100
00000000
00000010
00000100
,
00010000
00001000
00000000
00000000
01000000
00000000
00100000
10000000
,
00000000
00000000
10000000
00000000
00010000
00000000
10000000
01000000
,
10000000
00000000
00010000
00100000
00000000
00000000
00011000
00000000
,
00001000
00000000
00000010
00000001
00000000
00000000
00000010
00001000
,
00000000
00010000
00000000
00001000
00000000
00010000
00000000
01000000
,
10000000
00000000
00000000
00010000
00000000
00000000
00100000
01000000
,
00010000
00000100
00000001
00000100
,
00010000
00001000
00000000
00000000
00100000
00000000
01000000
10000000
,
00010000
00100000
00000000
00000000
01000000
00000000
00010000
00001000
,
00010000
00000100
00000000
00000000
00000010
00000000
00000001
00001000
,
00000100
00010000
00000000
00001000
00100000
00000000
00011000
00000000
,
00010000
00000000
00100000
10000000
00000000
00000000
00100000
00010000
,
00000000
00001000
00000000
00010000
00000000
00001000
00000000
00000100
,
00000001
00000000
00000000
00001000
00000000
00000000
00000010
00000100
,
00001000
00000000
01000000
00000000
10000000
00000000
01000000
00100000
,
00000000
01000000
00000000
00010000
00000000
00001000
00000010
00000100
,
00000000
00000001
00000000
00001000
00000000
00000010
00000100
00001000
,
00000000
00010000
00000000
00100000
00000000
10000000
00010000
01000000
,
00100000
00000000
00000000
01000000
00010000
00000000
00011000
00000000
,
00000010
00000001
00000000
00001000
00000000
00000001
00000100
00000001
,
00000100
00000010
00000000
00010000
00000000
00001000
01000000
00010000
,
00100000
00001000
00000000
00010000
00000000
00100000
10000000
00010000
,
10000000
01000000
00000000
00010000
00001000
00000000
00011000
00000000
,
00100000
10000000
00000000
00010000
00000000
10000000
01000000
10000000
,
01000000
00100000
00000000
00001000
00000000
00010000
00000100
00001000
,
00000010
00010000
00000000
00001000
00000000
00000010
00000001
00001000
,
00000001
00000100
00000000
00001000
00010000
00000000
00001000
00000000
,
00022000
00000000
00000000
00000000
,
00033000
00000000
00000000
00000000
;

//---------------dance-single - ----------------
#NOTES:
     dance-single:
     :
     Beginner:
     1:
     0.168,0.207,0.034,0.000,0.000:
0000
0000
0000
0000
,
0000
0000
0000
0000
,
0000
0000
0000
0000
,
0000
0000
0100
0000
,
0010
0000
0010
0000
,
0100
0000
0100
0000
,
0010
0000
0100
0000
,
0010
0000
0100
0000
,
1000
0000
1000
0000
,
0001
0000
0001
0000
,
1000
0000
0001
0000
,
1000
0000
0001
0000
,
0010
0000
0010
0000
,
1000
0000
0001
0000
,
0100
0000
0010
0000
,
1000
0000
1000
0000
,
0010
0000
0010
0000
,
0001
0000
1000
0000
,
0100
0000
0010
0000
,
0001
0000
0001
0000
,
0010
0000
1000
0000
,
0001
0000
0100
0000
,
0001
0001
0000
1000
,
0000
0010
0000
0100
,
0000
0000
1000
0000
,
0100
0000
0010
0000
,
0001
0001
0001
0001
,
0000
1000
1000
0000
,
0100
0000
1000
0000
,
0100
0000
1000
0000
,
0010
0000
0010
0000
,
0010
0000
0010
0000
,
0010
0000
0001
0000
,
0010
0000
1000
0000
,
0010
0000
0100
0000
,
0001
0001
0000
1001
,
0000
0000
0001
0000
,
0100
0000
0001
0000
,
0010
0000
0100
0000
,
0010
0000
0100
0000
,
0010
0000
1000
0000
,
0010
0000
0001
0000
,
0010
0000
0100
0000
,
1000
1000
0000
1001
,
0000
0000
0010
0000
,
0100
0000
0100
0000
,
0010
0010
0000
0100
,
0000
0001
0000
1001
,
0000
0000
0010
0000
,
0001
0000
0001
0000
,
0010
0010
0000
0001
,
0000
1000
0000
0100
;

//---------------dance-single - ----------------
#NOTES:
     dance-single:
     :
     Challenge:
     7:
     0.613,0.537,0.812,0.200,0.024:
0000
0000
0000
0000
,
0110
0000
0000
0000
0010
0000
0000
0100
1000
0000
0000
0000
0010
0000
0000
0000
,
0110
0000
0000
0000
0100
0000
0000
0001
0010
0000
0000
0000
0100
0000
0000
0000
,
0000
0000
0000
0000
0100
0010
1001
0000
,
0000
0011
0000
0110
0000
2100
0000
3001
,
0000
0110
0000
1010
0000
1200
0000
0301
,
0000
1010
0000
0011
0000
2001
0000
3010
,
0000
0101
0000
0011
0000
1020
0000
0031
,
0000
0101
0000
1100
0000
0120
0000
0031
,
0000
1010
0000
1100
0000
0120
0000
0031
,
0000
0101
0000
0110
0000
2010
0000
3010
,
0000
0101
0000
1001
0000
1200
0000
1300
,
0001
0100
0010
1000
0100
0010
0001
1000
,
0000
1000
0010
0100
0000
0100
0001
0010
,
0000
0010
0100
1000
0000
1000
0010
0001
,
0010
1000
0100
0010
0001
2000
0000
0000
,
3010
0100
0001
0010
0001
0010
0100
1000
,
0000
0001
0100
1000
0000
0100
0010
1000
,
0000
0001
0010
0100
0000
0001
0100
1000
,
0000
0001
0000
0110
0000
1001
0000
0000
,
1000
0100
1000
0001
1000
0010
0100
0001
,
0010
0100
1000
0100
1000
0010
0100
0001
,
0010
0100
0010
0100
1000
0010
0100
0001
,
2000
0000
3020
0000
0032
0000
0203
1000
,
0300
0000
0000
0000
0001
0100
1000
0200
,
0000
0000
0300
0000
0010
1000
0001
0020
,
0000
0030
0110
0000
0010
0001
0100
1000
,
0100
0000
0010
0000
1000
0000
0100
0000
0000
0000
0000
0001
0100
0000
1000
0000
,
1010
0010
0100
0001
0000
0001
1000
0100
,
0000
0011
0000
0110
0000
0010
1000
0100
,
0001
0100
1000
0010
0000
0100
0001
1000
,
0010
0100
0001
0010
0100
1000
0001
0200
,
0000
0000
0300
0000
0010
1000
0100
0010
,
0001
0000
0001
0100
0000
0100
0010
1000
,
0100
0000
1000
1000
0000
1000
0010
0100
,
0001
0010
1000
0010
0001
0100
0010
1000
,
1001
0010
0100
0010
0000
0001
0100
0010
,
0000
1010
0000
0110
0000
0100
1000
0010
,
0001
0010
1000
0100
0000
0010
0001
0100
,
0010
1000
0100
0001
0100
1000
0001
0010
,
0000
0000
0000
0001
0100
1000
0100
0001
,
0010
0000
0010
0001
0000
0001
0100
0010
,
1000
0000
1000
0100
0000
0100
0010
0001
,
1000
0000
0001
0000
0000
0000
0010
0000
0010
0000
0000
1010
0100
0000
0001
0000
,
0010
0110
0000
1100
0000
1010
0000
0110
,
0000
0011
0000
0101
0000
1100
0000
0110
,
0000
0011
0000
0101
0000
0110
0000
1010
,
0000
1100
0000
0101
0000
0011
0000
1010
,
0000
1001
0000
0110
0000
0011
0000
1100
,
0000
0110
0000
0011
0000
0101
0000
1100
,
0000
0110
0000
0011
0000
1100
0000
0101
,
0000
0011
0000
0110
0000
0101
0000
1100
,
0020
0000
0000
0000
,
0000
0000
0000
0030
;
