#TITLE:LOGICAL DASH;
#SUBTITLE:;
#ARTIST:DJ TAKA;
#TITLETRANSLIT:;
#SUBTITLETRANSLIT:;
#ARTISTTRANSLIT:;
#CREDIT:;
#BANNER:LOGICAL DASH.png;
#BACKGROUND:LOGICAL DASH-bg.png;
#LYRICSPATH:;
#CDTITLE:./CDTITLES/BEATMANIA.PNG;
#MUSIC:LOGICAL DASH.mp3;
#OFFSET:-1.719;
#SAMPLESTART:46.700;
#SAMPLELENGTH:12.000;
#SELECTABLE:YES;
#DISPLAYBPM:144.000;
#BPMS:0.000=144.000;
#STOPS:;
#BGCHANGES:;

//---------------dance-single - ----------------
#NOTES:
     dance-single:
     :
     Easy:
     3:
     0.248,0.308,0.130,0.156,0.000:
0000
0000
0000
0000
,
0000
0000
0000
0000
,
0000
0000
0000
0000
,
0100
0000
0100
0000
,
0010
0000
0001
0000
,
1000
0000
1000
0000
,
0001
0000
0100
0000
,
0010
0010
0010
0000
,
0000
0001
1000
0000
,
0001
0001
0001
0000
,
0000
0010
0100
0000
,
0001
0100
0001
0000
,
1000
0100
0001
0000
,
0010
1000
0010
0000
,
0001
0100
1000
0000
,
1000
0100
0010
0000
,
0010
0100
0010
0000
,
0001
0001
1000
1000
,
0220
0330
1001
0000
,
1001
0000
0000
0000
,
0220
0330
0000
0000
,
2002
0000
3003
0000
,
0220
0000
0000
0330
,
0001
0000
0001
0100
,
1000
0000
1000
0010
,
0001
0100
0001
1000
,
0020
0030
0200
0300
,
0001
0001
0100
1000
,
0001
0100
0010
1000
,
1000
0010
0001
0100
,
1000
0100
0001
0010
,
1000
0000
1000
0100
,
0001
0000
0001
0010
,
0100
0000
0100
1000
,
0001
0000
0100
1001
,
1001
0000
0001
1000
,
0110
0000
0010
0100
,
0002
0103
2000
3100
,
0001
0010
1000
1000
,
0010
0000
0010
0000
,
0100
0000
0100
0000
,
0001
0001
1000
1000
,
0010
0000
0100
0000
,
0110
0000
0000
0000
;

//---------------dance-single - ----------------
#NOTES:
     dance-single:
     :
     Medium:
     6:
     0.373,0.420,0.300,0.117,0.013:
0000
0000
0000
0000
,
0000
0000
0000
0000
,
0000
0000
0000
0000
,
0001
0100
0001
0100
,
0001
0010
0100
1000
,
0010
1000
0010
0100
,
1000
0001
0010
1000
,
1001
0100
1000
0100
,
1000
0001
1000
0001
,
0010
0001
0010
1000
,
1000
0100
0001
0110
,
1001
0100
1001
0010
,
0001
0001
1000
0100
,
0010
0010
0001
0100
,
1000
1000
0001
0100
,
0110
0001
0110
1000
,
0100
0100
0001
1000
,
0010
0110
0100
0110
,
1000
0001
1000
0110
,
0002
0000
1000
0103
,
0020
0000
0001
1030
,
0200
0000
1000
0301
,
2000
0000
0100
3001
,
0001
0100
1000
0000
0010
0000
0001
0000
,
1000
0010
1000
0000
0200
0000
1300
0000
,
0010
0001
0010
0000
0100
1000
0100
0000
,
0002
2003
3001
0110
,
1001
0010
1001
0100
,
0010
0100
0101
1100
,
0010
0000
0011
0000
0001
0100
1000
0000
,
0100
1000
0001
0000
0010
0001
1000
0000
,
0110
0110
1001
0110
,
0010
1000
0010
0000
0100
0001
0100
0000
,
0001
1000
0011
1010
,
0001
0100
0010
1000
0001
0100
0010
0000
,
0001
0001
1000
0100
,
0010
0010
0001
0100
,
1000
1000
0100
0001
,
0100
0100
1000
0001
,
0010
1000
0001
0100
,
1000
0000
0100
0000
0001
1000
0100
0000
,
0010
0000
0000
0000
0000
1000
0000
0000
0000
0000
0000
0001
0000
0000
0000
0000
,
0010
0100
2002
3003
,
1001
0000
0000
0000
;

//---------------dance-single - ----------------
#NOTES:
     dance-single:
     :
     Hard:
     8:
     0.505,0.477,0.313,0.300,0.059:
0000
0000
0000
0000
,
0000
0000
0000
0000
,
0000
0000
0000
0000
,
0010
1000
0010
1000
0010
1000
0010
0100
,
0010
0110
1001
0100
,
0001
0010
0001
0010
0001
0010
0001
0100
,
0001
1001
0010
0110
,
0010
1100
0010
0101
,
1000
0100
1000
0100
1000
0100
1000
0010
,
0100
0001
0100
0001
0100
0001
0100
0001
,
0010
1000
0000
0100
0010
1000
0001
0000
,
2002
0000
3003
0000
0010
1000
0001
0000
,
0220
0000
0330
0000
0001
0001
1000
0000
,
0220
0000
0330
0000
0100
0010
1000
0000
,
2002
0000
3003
0000
0010
0100
0100
0000
,
0010
1000
0000
0000
0000
0000
0010
0001
0000
0000
0000
0000
0110
0000
0000
0000
,
0100
1000
0000
0000
0000
0000
0010
0100
0000
0000
0001
0000
1000
0000
0000
0000
,
0100
0010
0000
0000
0001
1000
0000
0000
0001
0000
0010
0000
0100
0000
0010
0000
,
0001
0000
1000
0000
0000
0010
0100
0010
,
1001
1001
0020
0130
,
1100
0011
0200
0310
,
1001
0110
0002
0103
,
1100
0110
0020
0130
,
0001
0100
0010
0000
1000
0100
0010
0000
,
0001
1000
0100
0000
0010
0001
0100
0000
,
0010
1000
0001
0000
0100
0010
0100
0000
,
0010
0100
0001
0100
0010
0000
0110
0000
,
0001
0100
1000
0100
0001
0100
1000
0100
,
0010
0001
0100
0010
1000
0001
0100
0010
,
0100
0010
0100
0001
1000
0001
0100
0010
,
0001
0100
0010
0100
0010
1000
0100
0010
,
0002
0000
1003
0000
0010
0100
0010
0100
,
0020
0000
1030
0000
0001
1000
0100
0010
,
0200
0000
0310
0000
0001
0100
0010
1000
,
0020
0000
0130
0000
1000
0100
0001
0100
,
1000
0000
0100
0000
0002
0100
0103
0000
,
0020
1000
1030
0000
0200
0001
0301
0000
,
1000
0100
0100
0000
0001
0100
0100
0000
,
1000
1100
0001
0101
,
0010
0020
1000
0031
,
1000
2000
0010
3100
,
0010
0000
0000
0000
0000
1000
0000
0000
0000
0000
0000
0001
0000
0000
0000
0000
,
0100
0001
1000
0000
0001
0000
0000
0000
2002
0000
0000
0000
3003
0000
0000
0000
,
0110
0000
0000
0000
;

//---------------dance-double - ----------------
#NOTES:
     dance-double:
     :
     Easy:
     3:
     0.212,0.280,0.039,0.104,0.000:
00000000
00000000
00000000
00000000
,
00000000
00000000
00000000
00000000
,
00000000
00000000
00000000
00000000
,
00000010
00000000
00000000
00000000
,
00000001
00000000
00000000
00000000
,
00001000
00000000
00000000
00000000
,
00000010
00000000
00000000
00000000
,
00000000
00010000
00000000
00000100
,
00000000
00000010
00000000
00000001
,
00000000
00000100
00000000
00010000
,
00000000
00100000
00000000
01000000
,
10010000
00000000
01000000
00000000
,
00100000
00010000
10000000
00000000
,
00100000
00000000
00010000
00000000
,
00001000
00000010
00000100
00000000
,
00000001
00000000
00001000
00000100
,
00000010
00000001
00000100
00000000
,
00001000
00000000
00000001
00000000
,
00000200
00000000
00000000
00000300
,
00010000
00000000
00100000
00000000
,
01000000
00000000
10000000
00100000
,
01000000
00000000
10000000
00000000
,
01000000
00010000
00001000
00000100
,
00000001
00000001
00001000
00001000
,
00000010
00000100
00000001
00001000
,
00000100
00000100
00000010
00000010
,
00000002
00000003
00001000
00001001
,
00000010
00000100
00000001
00000010
,
00000001
00000100
00001000
00010000
,
01000000
10000000
00100000
01000000
,
00010000
10000000
01000000
00100000
,
00010000
01000000
00100000
10000000
,
01000000
00010000
00001000
00000010
,
00000001
00000001
00001000
00001000
,
00000010
00000000
00000100
00000000
,
00002002
00000000
00000000
00003003
,
00000200
00000000
00000000
00000300
,
00000020
00000000
00000000
00000030
,
00000001
00000000
00001000
00000000
,
00200000
00000000
00000000
00300000
,
20000000
00000000
00000000
30000000
,
01000000
00100000
00010000
10000000
,
00100000
00010000
00001000
00000010
,
00000100
00000000
00000000
00000000
;

//---------------dance-double - ----------------
#NOTES:
     dance-double:
     :
     Medium:
     5:
     0.339,0.336,0.209,0.248,0.000:
00000000
00000000
00000000
00000000
,
00000000
00000000
00000000
00000000
,
00000000
00000000
00000000
00000000
,
00200000
00300000
00002000
00003000
,
00010000
01000000
10000000
00100000
,
00020000
00030000
00002000
00003000
,
00000010
00000001
00001000
00000100
,
00000020
00000031
00000200
00001300
,
00020000
00031000
02000000
13000000
,
00100000
01000000
00010000
10000000
,
02200000
00000000
03300000
10010000
,
00100000
00000000
00001000
00000000
00000010
00000001
00001000
00000000
,
00000010
00000100
00000001
00000010
,
00001000
00000000
00010000
00000000
00001000
00100000
01000000
00000000
,
10000000
00000000
00010000
00000000
00100000
01000000
01000000
00000000
,
10000000
00000000
00100000
00000000
01000000
00001000
00010000
00000000
,
00000100
00000000
00000010
00000000
00000001
00000100
00000010
00000000
,
00001000
00000001
00000100
00000010
,
00002002
00000003
00000010
00003100
,
00020000
00000000
00000000
00030000
,
00200000
00000000
00000000
00300000
,
20000000
00000000
00000000
00000000
,
00020000
00000000
30030000
01100000
,
10000000
00100000
01000000
00000000
00010000
00000000
00000010
00000000
,
00000001
00001000
00000100
00000000
00000010
00000000
00000001
00000000
,
00001000
00000010
00000100
00000000
00000001
00000000
00001000
00000000
,
00000010
00000010
00000100
00001001
,
00000110
00000001
00000110
00001000
,
00000001
00000010
00001000
00010000
,
11000000
00100000
01010000
00100000
,
01000000
10000000
00100000
00010000
,
00001100
00000010
00000101
00000010
,
00001000
00000001
00000010
00000100
,
00010000
00100000
10000000
00010000
,
02000000
00000000
00000000
03000000
,
20010000
01000000
00000000
31000000
,
10020000
01000000
00000000
01030000
,
00100000
10000000
01000000
00010000
,
00001000
00000100
00000001
00000110
,
00001001
00000010
00000001
00000100
,
00000010
00001000
00000100
00000010
,
00000001
00000100
00001000
00100000
,
01000000
00000000
10000000
00000000
00010000
01000000
00100000
00000000
,
10010000
00000000
00000000
00000000
;

//---------------dance-double - ----------------
#NOTES:
     dance-double:
     :
     Hard:
     7:
     0.421,0.420,0.169,0.156,0.020:
00000000
00000000
00000000
00000000
,
00000000
00000000
00000000
00000000
,
00000000
00000000
00000000
00000000
,
00010000
00100000
01000000
10000000
00010000
00000000
00100000
00000000
,
00010000
10000000
01000000
00010000
00001000
00000000
00000100
00000000
,
00000001
00000010
00000100
00001000
00000001
00000000
00000100
00000000
,
00000010
00001000
00000001
00000000
00001100
00000000
00000101
00000000
,
00000010
00001100
00010000
01001000
,
00100000
00000000
10010000
00000000
00100000
01000000
00100000
00000000
,
10000000
01010000
00100000
11000000
,
00010000
10000000
01000000
00000000
00110000
00000000
00001000
00000000
,
00000010
00000001
00000100
00000010
00001000
00000000
00000001
00000000
,
00000100
00000010
00010000
01000000
,
10000000
00100000
01000000
00010000
00100000
00000000
01000000
00000000
,
10000000
00000000
00010000
00000000
01100000
10000000
00010000
00000000
,
11000000
01010000
00100000
00001000
,
00000100
00000000
00000001
00000000
00000010
00000100
00001000
00000000
,
00000101
00000000
00000010
00001000
00000100
00000010
00000001
00000100
,
00000010
00000000
00001000
00000000
00000001
00000010
00000100
00000000
,
00002002
00003003
00000020
00000030
,
00000200
00000300
00002000
00003000
,
00020000
00030000
02000000
03000000
,
20000000
30000000
00020000
00030000
,
00000000
10000000
00010000
01000000
00000000
00100000
10000000
01000000
,
00000000
00010000
00001000
00000100
00000000
00000001
00000010
00000100
,
00000000
00001000
00000001
00001000
00000000
00000010
00000100
00000020
,
00000000
00000000
00000030
00000000
00001000
00000001
00000100
00000000
,
00000010
00001000
00000000
00000001
00000000
00000010
00000000
00000100
,
00000000
00001000
00000000
00000001
00000000
00000100
00000000
00000010
,
00001000
00000100
00000000
00000010
00000001
00000100
00000000
00001000
,
00100000
01000000
00000000
10000000
00010000
01000000
00000000
00010000
,
10000000
00100000
00000000
01000000
00010000
10000000
00000000
01000000
,
00100000
00001000
00000000
00010000
00000100
00000010
00000000
00001000
,
00000001
00000010
00000100
00001000
00000001
00000100
00010000
10000000
,
01000000
00100000
00010000
10000000
00100000
01000000
00010000
10000000
,
00100000
01000000
10000000
00100000
,
00010000
00000010
00000100
00001000
,
00000010
00000100
00000001
00001000
,
00000010
00001000
00010000
00100000
,
10000000
01000000
00000000
00000000
00100000
00000000
00010000
00000000
10000000
00000000
00000000
00000000
00100000
00000000
00000000
01000000
,
00000000
00010000
10000000
01000000
00100000
00000000
00010000
00000000
,
20000000
00000000
30000000
00200000
00000000
00300000
00010000
00001000
,
00000010
00000001
00000000
00000000
00000100
00000000
00000010
00000000
00001000
00000000
00000001
00000000
00000010
00000000
00000000
00000000
,
00000100
00000000
00000000
00000000
;

//---------------dance-single - ----------------
#NOTES:
     dance-single:
     :
     Beginner:
     1:
     0.160,0.196,0.104,0.000,0.000:
0000
0000
0000
0000
,
0000
0000
0000
0000
,
0000
0000
0000
0000
,
0100
0000
0100
0000
,
0010
0000
0001
0000
,
1000
0000
1000
0000
,
0001
0000
0100
0000
,
0010
0010
0010
0000
,
0000
0001
0000
0000
,
0001
0001
0001
0000
,
0000
0010
0000
0000
,
0001
0000
0001
0000
,
1000
0000
0001
0000
,
0010
0000
0010
0000
,
0001
0000
1000
0000
,
1000
0000
0010
0000
,
0010
0000
0010
0000
,
0001
0001
0000
1000
,
0000
0000
1001
0000
,
1001
0000
0000
0000
,
0110
0000
0000
0000
,
1001
0000
0000
0000
,
0110
0000
0000
0000
,
0001
0000
0001
0000
,
1000
0000
1000
0000
,
0001
0000
0001
0000
,
0010
0000
0100
0000
,
0001
0001
0000
1000
,
0000
0100
0000
1000
,
1000
0000
0001
0000
,
1000
0000
0001
0000
,
1000
0000
1000
0000
,
0001
0000
0001
0000
,
0100
0000
0100
0000
,
0001
0000
0100
0000
,
1001
0000
0001
0000
,
0110
0000
0010
0000
,
0001
0000
1000
0000
,
0001
0000
1000
1000
,
0000
0000
0010
0000
,
0100
0000
0100
0000
,
0001
0001
0000
1000
,
0000
0000
0100
0000
,
0110
0000
0000
0000
;

//---------------dance-single - ----------------
#NOTES:
     dance-single:
     :
     Challenge:
     8:
     0.570,0.588,0.196,0.130,0.293: // measure 1
0000
0000
0000
0000
,  // measure 2
2002
0000
0000
3003
,  // measure 3
1001
0000
0000
0000
0000
0000
0000
0000
0010
0000
0000
1000
0010
0000
1000
0000
,  // measure 4
0100
0010
0100
0010
0100
0010
0100
0010
,  // measure 5
0100
0001
0100
1000
0100
0001
0100
1000
,  // measure 6
0100
0010
0100
0010
0100
0010
0100
0010
,  // measure 7
0100
0001
0100
1000
0100
0001
0100
1000
,  // measure 8
0001
0100
0101
0001
1000
0100
1100
0100
,  // measure 9
0010
0001
0011
0001
1000
0010
1010
0100
,  // measure 10
0001
1000
1001
0010
0100
0001
1001
1000
,  // measure 11
0000
0001
0100
0000
0010
0000
1000
0001
0000
0000
0100
0000
0110
0000
0000
0000
,  // measure 12
1000
0001
0000
0000
0000
0000
1000
0001
0000
0000
0000
0000
0000
0000
0000
0000
,  // measure 13
1000
0001
0000
0000
0000
0000
1000
0001
0010
0000
0110
0000
0110
0000
0000
0000
,  // measure 14
1000
0001
0000
0000
0000
0000
1000
0001
0000
0000
0000
0000
0000
0000
0000
0000
,  // measure 15
1000
0001
0000
0000
0000
0000
1000
0001
0000
0001
1000
0000
0010
1000
0000
0000
,  // measure 16
0001
1000
0000
0000
0000
0000
0001
1000
0000
0000
0000
0000
0000
0000
0000
0000
,  // measure 17
0001
1000
0000
0000
0000
0000
0001
1000
0010
0000
0110
0000
0110
0000
0000
0000
,  // measure 18
0001
1000
0000
0000
0001
1000
0000
0000
0001
1000
0001
1000
0001
1000
0001
1000
,  // measure 19
0000
0000
0000
0000
0000
0000
0000
0000
0000
0010
0000
0010
0000
0010
0000
0000
,  // measure 20
1001
0000
0100
0001
0001
0000
0010
0000
,  // measure 21
0001
0000
1000
0001
0001
0000
0100
0100
,  // measure 22
0100
0000
1000
0001
0001
0000
0010
0010
,  // measure 23
0010
0000
0010
0000
1000
0000
1000
1000
,  // measure 24
0000
1000
0001
0010
0000
1000
0001
0010
,  // measure 25
0000
1000
0001
0010
0000
1000
0001
0010
,  // measure 26
0000
1000
0001
0010
0000
1000
0001
0010
,  // measure 27
0000
0100
0001
0000
1000
0100
0000
1000
0000
0001
0100
0000
0010
1000
0000
0000
,  // measure 28
0001
0100
1000
0100
0001
0100
1000
0100
,  // measure 29
0001
0010
1000
0010
0001
0010
1000
0010
,  // measure 30
0001
0100
0010
1000
0100
0010
1000
0010
,  // measure 31
0001
0100
0010
1000
0001
0100
0010
0001
,  // measure 32
1000
0010
0100
1000
0001
0100
0010
0001
,  // measure 33
0100
1000
0010
0100
1000
0001
0100
0010
,  // measure 34
0001
0001
1000
1000
0010
0010
0100
0100
,  // measure 35
0000
0001
0100
0000
0010
1000
0000
0001
0000
0010
0100
0000
0100
0000
0100
0000
,  // measure 36
0000
0010
0001
2000
0000
3010
0001
0200
,  // measure 37
0000
0301
0100
2000
0000
3010
0100
0002
,  // measure 38
0000
1003
0100
0002
0000
1003
0100
0020
,  // measure 39
0000
1030
0001
0020
0000
1030
0100
0001
,  // measure 40
1000
0001
0000
0000
0010
0000
0010
0000
0010
0000
0000
0000
0100
0000
0000
1000
,  // measure 41
0000
1000
0000
0000
0001
0000
0001
0000
0001
0000
0000
0000
0001
0000
0000
1000
,  // measure 42
0000
0000
0010
0000
0000
0100
0000
0000
0001
0000
0000
1000
0000
0000
0000
0001
,  // measure 43
0000
0010
0100
0000
1000
0000
0001
0010
0200
0000
0000
0000
0000
0300
0000
1001
;
