#TITLE:L'amour et la liberté;
#SUBTITLE:(DDR ver.);
#ARTIST:NAOKI underground;
#TITLETRANSLIT:;
#SUBTITLETRANSLIT:;
#ARTISTTRANSLIT:;
#CREDIT:;
#BANNER:L'amour et la liberte(DDR ver.).png;
#BACKGROUND:L'amour et la liberte(DDR ver.)-bg.png;
#LYRICSPATH:;
#CDTITLE:./CDTITLES/DANCE DANCE REVOLUTION EXTREME.PNG;
#MUSIC:L'amour et la liberte(DDR ver.).mp3;
#OFFSET:-0.052;
#SAMPLESTART:66.690;
#SAMPLELENGTH:15.000;
#SELECTABLE:YES;
#DISPLAYBPM:145.000;
#BPMS:0.000=140.020,32.000=145.010;
#STOPS:;
#BGCHANGES:-0.165=L'amour et la liberte (DDR ver.).avi=1.000=1=1=0,
228.500=L'amour et la liberte (DDR ver.)-bg.png=1.000=0=0=1,
99999=-nosongbg-=1.000=0=0=0 // don't automatically add -songbackground-
;

//---------------dance-single - ----------------
#NOTES:
     dance-single:
     :
     Easy:
     4:
     0.292,0.321,0.173,0.163,0.000:
0000
0000
0000
0000
,
0000
0000
0000
0000
,
0000
0000
0000
0000
,
0000
0000
0000
0000
,
0200
0000
0000
0300
,
0020
0000
0000
0030
,
0100
0000
0001
0000
,
1000
0000
0010
0010
,
1000
1000
0000
0010
,
1000
1000
0000
0001
,
1000
1000
0000
0100
,
1000
1000
0000
0001
,
0001
0001
0000
0010
,
0001
0001
0000
1000
,
0001
0001
0000
0100
,
0001
0001
0000
1000
,
0010
0000
0010
0011
,
0100
0000
0100
1100
,
0001
0000
0001
0011
,
1000
0000
1000
1100
,
0010
0000
0001
0011
,
0100
0000
1000
1100
,
0001
0000
0010
0011
,
1000
0000
0100
1100
,
0010
0001
1000
0010
,
0100
0001
1000
0100
,
0001
0010
1000
0010
,
0001
0100
1000
0100
,
0010
0001
0100
0100
,
0010
1000
0100
0100
,
0010
0001
0010
1000
,
0010
1000
0010
0001
,
0020
0000
0000
1030
,
0200
0000
0000
0301
,
2000
0000
0000
3010
,
0002
0000
0000
0103
,
1000
0010
1000
1001
,
0001
0010
0001
1001
,
0010
1000
0010
1001
,
0010
0001
0010
1001
,
0020
0000
1000
0130
,
0002
0000
0010
1003
,
0200
0000
1000
0310
,
0002
0000
1000
0103
,
0020
0000
0001
0130
,
2000
0000
0010
3001
,
0200
0000
0001
0310
,
2000
0000
0001
3100
,
0010
0001
0010
1100
,
0010
1000
0010
0101
,
0010
0001
0100
0110
,
0010
1000
0100
0110
,
1000
1000
0100
0100
,
0010
0010
0001
0001
,
1000
0100
0010
0001
,
0001
0010
0100
1000
,
2002
0000
0000
0000
,
0000
3003
0000
0000
;

//---------------dance-single - ----------------
#NOTES:
     dance-single:
     :
     Medium:
     6:
     0.377,0.350,0.000,0.153,0.000:
0000
0000
0000
0000
,
0000
0000
0000
0000
,
0000
0000
0000
0000
,
0000
0000
0000
0000
,
0200
0000
0002
0303
,
0020
0000
0000
0000
0000
0000
0030
0001
,
0200
0000
0000
0000
0020
0000
0330
1000
,
0100
0100
0010
0010
,
0001
0000
1000
0000
0000
0010
0100
0000
,
1000
0000
0001
0000
0000
0010
0100
0000
,
0001
0000
0001
0000
0000
1000
0100
0000
,
1000
0000
1000
0000
0000
0001
0100
0000
,
0010
0000
1000
0000
0000
1000
0100
0000
,
0010
0000
0001
0000
0000
0001
0100
0000
,
0010
1000
0100
0001
,
0001
0000
0100
0000
1000
0000
0010
0100
,
0001
0010
0010
0000
0100
0000
1000
0000
,
1000
0010
0010
0000
0100
0000
0001
0000
,
0100
0010
0010
0000
1000
0000
0001
0000
,
0100
0010
0010
0000
0001
0000
1000
0000
,
1000
0001
0001
0000
1000
0000
0100
0000
,
0001
1000
1000
0000
0001
0000
0100
0000
,
0010
0001
0001
0000
0010
0000
0100
0000
,
0100
1000
1000
0000
0100
0000
0010
0000
,
1000
0100
0000
0100
0010
0001
0001
0000
,
0000
1000
0000
1000
0100
0010
0010
0000
,
0000
0001
0000
0001
1000
0100
0100
0000
,
0000
0010
0000
0010
0001
0100
0100
0000
,
0000
0010
0000
1000
1000
0001
0001
0000
,
0000
0010
0000
0001
0001
1000
1000
0000
,
0000
0100
0000
0010
1000
0001
0001
0000
,
0000
0100
0000
0010
0001
1000
1000
0000
,
0020
0000
0000
1000
0000
0000
0130
0000
,
2000
0000
0000
0100
0000
0000
3001
0000
,
0002
0000
0000
0010
0000
0000
1003
0000
,
0200
0000
0000
0001
0000
0000
0310
1000
,
0002
0100
0000
0100
0000
0000
0013
0000
,
2000
0100
0000
0100
0000
0000
3010
0000
,
0002
0100
0000
1000
0000
0000
0013
0000
,
2000
0100
0000
0001
0000
0000
3010
0100
,
0001
1000
0000
1000
0100
0000
0010
0001
,
0000
0100
0000
0100
0010
0000
1000
0001
,
1000
0001
0000
0001
0100
0000
0010
1000
,
0000
0100
0000
0100
0010
0000
0001
1000
,
0010
0010
0000
1000
0100
0000
0001
0001
,
0000
0010
0000
0001
0100
0000
1000
1000
,
0100
0100
0000
0010
0001
0000
1000
1000
,
0000
0100
0000
0010
1000
0001
0001
0000
,
0100
0100
0000
0010
0010
0000
1000
1000
,
0000
0100
0000
0010
0010
0000
0001
0001
,
0010
0010
0000
0001
0001
0000
1000
1000
,
0000
0010
0000
1000
1000
0000
0001
0000
,
1000
0100
0000
0100
0010
0000
0001
0100
,
0000
0010
0000
1000
0100
0000
0001
0100
,
0010
1000
0000
0010
0100
0000
0001
0100
,
0000
0010
0000
1000
0100
0010
0001
0000
,
2000
0000
0000
0002
0000
0000
0000
0000
,
0000
3003
0000
0000
;

//---------------dance-single - ----------------
#NOTES:
     dance-single:
     :
     Hard:
     8:
     0.451,0.496,0.000,0.020,0.642: // measure 1
0000
0000
0000
0000
,  // measure 2
0000
0000
0000
0000
,  // measure 3
0000
0000
0000
0000
,  // measure 4
0000
0000
0000
0000
,  // measure 5
0100
0000
0100
0000
,  // measure 6
0010
0000
0000
0000
0010
0000
0000
1000
,  // measure 7
0100
0000
0000
0000
0100
0000
0000
1000
,  // measure 8
0010
0000
0100
0000
0001
0000
0100
0010
,  // measure 9
1000
0000
0100
0000
0010
0001
0000
0010
0000
0000
0100
0000
0000
0000
1000
0000
,  // measure 10
0000
0000
0010
0000
0100
0001
0000
0010
0000
0000
0100
0000
0000
0000
1000
0000
,  // measure 11
0000
0000
0010
0000
0100
0001
0000
0010
0000
0000
0001
0000
0000
0000
0100
0000
,  // measure 12
0000
0000
0001
0000
0010
0100
0000
1000
0000
0000
0001
0000
0000
0000
0100
0000
,  // measure 13
0000
0000
0010
0000
1000
0001
0010
0000
0000
0000
0100
0000
0000
0000
0001
0000
,  // measure 14
0000
0000
0010
0000
0001
1000
0000
0010
0000
0000
0100
0000
0000
0000
1000
0000
,  // measure 15
0001
0000
0010
0000
0100
1000
0000
0001
0000
0000
0100
0000
0000
0000
0010
0000
,  // measure 16
1000
0000
0010
0000
0100
0001
0000
1000
0000
0000
0100
0000
0010
0000
0001
0000
,  // measure 17
0100
0000
0001
0000
0000
0010
0000
0000
0100
0000
0000
1000
0000
0001
0000
0000
,  // measure 18
0000
0000
1000
0000
0000
0010
0000
0000
0100
0000
0000
0001
0000
1000
0000
0000
,  // measure 19
0000
0000
0100
0000
0000
1000
0000
0000
0001
0000
0000
0010
0000
0100
0000
0000
,  // measure 20
0000
0000
0010
0000
0000
0001
0000
0000
1000
0000
0000
0010
0000
0100
0000
0000
,  // measure 21
0100
0000
0010
0000
0000
0010
0000
0000
1000
0000
0000
0001
0000
1000
0000
0000
,  // measure 22
0000
0000
0100
0000
0000
0100
0000
0000
0001
0000
0000
1000
0000
0001
0000
0000
,  // measure 23
0000
0000
1000
0000
0000
1000
0000
0000
0001
0000
0000
0010
0000
0100
0000
0000
,  // measure 24
0000
0000
0001
0000
0000
0001
0000
0000
1000
0000
0000
0010
0000
0100
0000
0001
,  // measure 25
1000
0000
0100
0000
0000
0010
0000
0000
0100
0000
0000
0001
0000
0001
0000
0000
,  // measure 26
0000
0000
0100
0000
0000
0010
0000
0000
0100
0000
0000
1000
0000
1000
0000
0000
,  // measure 27
0000
0000
0001
0000
0000
0010
0000
0000
0100
0000
0000
1000
0000
1000
0000
0000
,  // measure 28
0000
0000
1000
0000
0000
0010
0000
0000
0100
0000
0000
0001
0000
0001
0000
0100
,  // measure 29
0000
0000
0010
0000
0000
1000
0000
0000
0001
0000
0000
1000
0000
0010
0000
0000
,  // measure 30
0000
0000
0100
0000
0000
1000
0000
0000
0001
0000
0000
1000
0000
0100
0000
0000
,  // measure 31
0000
0000
0010
0000
0000
0001
0000
0000
1000
0000
0000
0001
0000
0010
0000
0000
,  // measure 32
0000
0000
0100
0000
0000
0001
0000
0000
1000
0000
0000
0001
0000
0100
0000
0100
,  // measure 33
0010
1000
0000
0001
,  // measure 34
0010
0000
0000
0000
0001
0000
0000
0000
0000
0000
0000
1000
0000
0000
1000
0000
,  // measure 35
0010
1000
0000
0001
,  // measure 36
0010
0000
0000
0000
0001
0000
0000
0000
0000
0000
0000
1000
0001
0000
1000
0000
,  // measure 37
0010
1000
0010
0000
0001
1000
0001
0000
,  // measure 38
0100
1000
0100
0000
0001
1000
0001
0000
,  // measure 39
0010
0001
0010
0000
1000
0001
1000
0000
,  // measure 40
0100
0000
0001
0000
0100
0000
0000
0100
0000
0010
0000
0100
0010
0000
1000
0000
,  // measure 41
0010
0000
1000
0000
0000
0100
0000
0000
0010
0000
0000
0001
0000
1000
0000
1000
,  // measure 42
0000
0000
0001
0000
0000
0100
0000
0000
0010
0000
0000
1000
0000
0001
0000
0001
,  // measure 43
0100
0000
0010
0000
0000
1000
0000
0000
0001
0000
0000
0010
0000
0100
0000
0100
,  // measure 44
0000
0000
0010
0000
0000
0001
0000
0000
1000
0000
0000
0001
0000
0100
0000
0100
,  // measure 45
0010
0000
1000
0000
0000
0001
0000
0000
0100
0000
0010
0000
0000
1000
0000
0100
,  // measure 46
0000
0000
0001
0000
0000
1000
0000
0000
0100
0000
0000
0010
0000
0001
0000
0100
,  // measure 47
0010
0000
1000
0000
0000
0100
0000
0000
0010
0000
0000
0100
0000
1000
0000
0001
,  // measure 48
0010
0000
0001
0000
0000
0100
0000
0000
0010
0100
0000
0001
0000
1000
0000
0100
,  // measure 49
0010
0000
0010
0000
0000
0001
0000
0000
1000
0000
0000
0010
0001
0100
0000
0100
,  // measure 50
0001
0000
0000
0010
0000
0000
0100
0000
1000
0000
0000
0010
0001
0000
0100
0000
,  // measure 51
0010
0000
0010
0000
0000
1000
0000
0000
0001
0000
0000
0010
1000
0100
0000
0100
,  // measure 52
1000
0000
0010
0000
0000
0000
0100
0000
0001
0000
0000
0010
1000
0000
0100
0000
,  // measure 53
0010
0000
0000
0001
0000
1000
0000
1000
0001
0000
0000
1000
0000
0100
0000
0100
,  // measure 54
0010
0000
0001
0000
0100
0000
0000
0000
0010
0000
1000
0000
0100
1000
0100
0000
,  // measure 55
0010
0001
0000
0001
0000
0000
0100
0000
0010
0000
0000
0010
1000
0000
0100
0000
,  // measure 56
0010
0000
0000
0001
0000
0000
0100
0000
1000
0000
0000
0001
0000
0000
1000
0000
,  // measure 57
0002
0000
0000
2000
0000
0000
0000
0000
,  // measure 58
0000
3003
0000
0000
;

//---------------dance-double - ----------------
#NOTES:
     dance-double:
     :
     Easy:
     4:
     0.247,0.292,0.010,0.061,0.000:
00000000
00000000
00000000
00000000
,
00000000
00000000
00000000
00000000
,
00000000
00000000
00000000
00000000
,
00000000
00000000
00000000
00000000
,
00100000
00000000
00000000
00000000
,
00010000
00000000
00000000
00000000
,
00001000
00000000
00000000
00000000
,
00000100
00000000
00000000
00000000
,
00000010
00000001
00000000
00001000
,
00000010
00010000
00000000
00001000
,
00100000
10000000
00000000
00010000
,
00100000
00001000
00000000
00010000
,
00000100
00000001
00000000
00001000
,
00000100
00010000
00000000
00001000
,
01000000
10000000
00000000
00010000
,
01000000
00001000
00001000
00010000
,
00001000
00000100
00001000
00000000
,
00010000
01000000
00010000
00000000
,
00001000
00000010
00001000
00000000
,
00010000
00100000
00010000
00000000
,
00001000
00000010
00000001
00000100
,
00000001
00000010
00000100
00010000
,
00010000
00100000
10000000
01000000
,
10000000
00100000
01000000
00001000
,
00000010
00000001
00001000
00000000
,
00000010
00000100
00000000
00010000
,
00100000
10000000
00010000
00000000
,
00100000
01000000
00000000
00001000
,
00000010
00000001
00000100
00000010
,
00010000
00001000
01000000
00100000
,
10000000
01000000
00100000
00001000
,
00010000
00000010
00000100
00000001
,
00000020
00000000
00000000
00000030
,
00000200
00000000
00000000
00000300
,
00020000
00000000
00000000
00030000
,
00002000
00000000
00000000
00003000
,
01000000
01000000
00000000
00100000
,
00001000
00001000
00000000
00010000
,
00000100
00000100
00000000
00000010
,
00000001
00000001
00001000
00001000
,
00000001
00000000
00001000
00000100
,
00000010
00000000
00010000
00001000
,
00100000
00000000
00010000
01000000
,
10000000
00000000
01000000
00100000
,
00001000
01000000
00100000
10000000
,
01000000
00100000
00001000
00010000
,
00000010
00000100
00000001
00001000
,
00000100
00010000
00001000
01000000
,
00100000
10000000
01000000
00010000
,
00001000
00000100
00000001
00000010
,
00000010
00000001
00000100
00001000
,
00010000
00100000
10000000
01000000
,
00100000
00001000
00010000
00000100
,
00000010
00000001
00000100
00000010
,
00010000
00001000
00100000
01000000
,
10000000
00100000
01000000
00001000
,
00022000
00000000
00000000
00000000
,
00000000
00033000
00000000
00000000
;

//---------------dance-double - ----------------
#NOTES:
     dance-double:
     :
     Medium:
     6:
     0.351,0.379,0.000,0.061,0.000:
00000000
00000000
00000000
00000000
,
00000000
00000000
00000000
00000000
,
00000000
00000000
00000000
00000000
,
00000000
00000000
00000000
00000000
,
00100000
00000000
01000000
00000000
,
00010000
00000000
00001000
00000000
,
00000010
00000000
00000100
00000000
,
00001000
00010000
00001000
00010000
,
00100000
10000000
01000000
10000000
,
00100000
00010000
00001000
00000100
,
00000010
00000001
00000100
00000001
,
00000100
00001000
00010000
00100000
,
10000000
01000000
00100000
00010000
,
00001000
00000100
00000010
00000001
,
00000001
00000010
00000100
00001000
,
00010000
00100000
01000000
10000000
,
00100000
01000000
00010000
00000000
00001000
00000000
00010000
00000000
,
00000010
00000100
00001000
00000000
00010000
00000000
00001000
00000000
,
01000000
00100000
00010000
00000000
00001000
00000000
00010000
00000000
,
00000100
00000010
00001000
00000000
00010000
00000000
00001000
00000000
,
00100000
10000000
00010000
00000000
01000000
00000000
00001000
00000000
,
00000010
00000001
00001000
00000000
00000100
00000000
00010000
00000000
,
01000000
10000000
00010000
00000000
00100000
00000000
00001000
00000000
,
00000100
00000001
00001000
00000000
00000010
00000000
00010000
00000000
,
00000100
00000010
00001000
00000000
00010000
00000000
00001000
00000000
,
01000000
00100000
00010000
00000000
00001000
00000000
00010000
00000000
,
00000010
00000100
00001000
00000000
00010000
00000000
00001000
00000000
,
00100000
01000000
00010000
00000000
00001000
00000000
00010000
00000000
,
00000100
00000001
00001000
00000000
00000010
00000000
00010000
00000000
,
01000000
10000000
00010000
00000000
00100000
00000000
00001000
00000000
,
00000010
00000001
00001000
00000000
00000100
00000000
00010000
00000000
,
00100000
10000000
00010000
00000000
01000000
00000000
00001000
00000000
,
00200000
00000000
00000000
00300000
,
00002000
00000000
00000000
00013000
,
00000020
00000000
00000000
00000030
,
00020000
00000000
00000000
00031000
,
00100000
00010000
00001000
00000000
00010000
00000000
00010000
00000000
,
00000010
00001000
00010000
00000000
00001000
00000000
00001000
00000000
,
01000000
00010000
00001000
00000000
00010000
00000000
00010000
00000000
,
00000100
00001000
00010000
00000000
00001000
00010000
00001000
00000000
,
00000010
00001000
00010000
01000000
,
00100000
00001000
00010000
00000100
,
00000010
00001000
00000010
00000000
00001000
00010000
00001000
00000000
,
00010000
01000000
00010000
00000000
00001000
00000010
00001000
00000000
,
00000010
00000001
00000010
00000000
00000100
00010000
00001000
00000000
,
00010000
00001000
01000000
00000000
00100000
10000000
00100000
00000000
,
01000000
10000000
01000000
00000000
00100000
00001000
00010000
00000000
,
00001000
00010000
00000010
00000000
00000100
00000001
00000100
00000000
,
00000001
00001000
00000010
00000000
00000100
00000000
00001000
00000000
,
00010000
00000000
00100000
00000000
01000000
00010000
10000000
00000000
,
10000000
00010000
01000000
00000000
00100000
00000000
00010000
00000000
,
00001000
00000000
00000100
00000000
00000010
00001000
00000001
00000000
,
00000001
00001000
00000000
00000010
00000100
00000000
00001000
00000000
,
00010000
00000000
00100000
00000000
01000000
00010000
10000000
00000000
,
00100000
01000000
00000000
00001000
00100000
00000000
00001000
00000000
,
00000010
00000100
00000000
00010000
00000010
00000000
00010000
00000000
,
00002000
00000000
00020000
00000000
,
00000000
00033000
00000000
00000000
;

//---------------dance-double - ----------------
#NOTES:
     dance-double:
     :
     Hard:
     7:
     0.428,0.496,0.000,0.041,0.250:
00000000
00000000
00000000
00000000
,
00000000
00000000
00000000
00000000
,
00000000
00000000
00000000
00000000
,
00000000
00000000
00000000
00000000
,
00000010
00000000
00001000
00000000
,
00100000
00000000
00010000
00000000
,
00000100
00000000
00001000
00000000
,
00100000
00010000
00001000
00000100
,
00000010
00000001
00001000
00000100
00000000
00000001
00000000
00000100
,
00000000
00001000
00010000
00001000
00000000
01000000
00000000
00100000
,
00000000
10000000
00010000
01000000
00000000
10000000
00000000
01000000
,
00000000
00010000
00001000
00010000
00000000
00000100
00000000
00000010
,
00000000
00001000
00000100
00000010
00000000
00000001
00000000
00000100
,
00000000
00001000
00010000
00001000
00000000
00100000
00000000
01000000
,
00000000
00010000
01000000
00100000
00000000
10000000
00000000
01000000
,
00000000
00100000
00001000
00010000
00000000
00000100
00000010
00000001
,
00000000
00001000
00000100
00000000
00000010
00000001
00001000
00000000
,
00000000
00000010
00010000
00000000
00001000
00100000
00010000
00000000
,
00000000
00010000
01000000
00000000
00100000
10000000
00010000
00000000
,
00000000
00100000
00001000
00000000
00010000
00000010
00001000
00000000
,
00010000
00000100
00000010
00000000
00000001
00001000
00000100
00000000
,
00000000
00010000
00001000
00000000
01000000
00100000
10000000
00000000
,
00000000
01000000
00100000
00000000
10000000
00010000
01000000
00000000
,
00000000
00001000
00010000
00000000
00000100
00000010
00000001
00000000
,
00001000
00000000
00000001
00000000
00000000
00000100
00000000
00000000
00000010
00000000
00000000
00010000
00000000
00001000
00000000
00000000
,
00000000
00000000
00000010
00000000
00000000
00000001
00000000
00000000
00000100
00000000
00000000
00000010
00000000
00010000
00000000
00000000
,
00000000
00000000
00001000
00000000
00000000
00100000
00000000
00000000
01000000
00000000
00000000
10000000
00000000
00010000
00000000
00000000
,
00000000
00000000
01000000
00000000
00000000
00001000
00000000
00000000
00100000
00000000
00000000
00001000
00000000
01000000
00000000
00000000
,
00010000
00000000
10000000
00000000
00000000
01000000
00000000
00000000
00100000
00000000
00000000
00001000
00000000
00010000
00000000
00000000
,
00000000
00000000
00100000
00000000
00000000
10000000
00000000
00000000
01000000
00000000
00000000
00100000
00000000
00001000
00000000
00000000
,
00000000
00000000
00010000
00000000
00000000
00000010
00000000
00000000
00000100
00000000
00000000
00000001
00000000
00001000
00000000
00000000
,
00000000
00000000
00000100
00000000
00000000
00010000
00000000
00000000
00000010
00000000
00000000
00010000
00000000
00000100
00000000
00000000
,
00000002
00001000
00000000
00000103
,
00001000
00000000
00000000
00000000
00010000
00000000
00000000
00000000
00000000
00000000
00000000
00100000
00000000
00000000
10000000
00000000
,
20000000
00010000
00000000
31000000
,
00010000
00000000
00000000
00000000
00001000
00000000
00000000
00000000
00000000
00000000
00000000
00001000
00000010
00000000
00000001
00000000
,
00001000
00000001
00000100
00000000
00000010
00010000
00001000
00000000
,
00100000
00010000
10000000
00000000
01000000
00100000
00001000
01000000
,
00010000
10000000
01000000
00000000
00100000
00001000
00010000
00000000
,
00000010
00000000
00001000
00000000
00000001
00000000
00000000
00000100
00000001
00000000
00001000
00000000
00000010
00000000
00000100
00000000
,
00000001
00000010
00000100
00001000
,
00010000
00100000
01000000
10000000
,
00010000
00000000
10000000
00000000
00000000
01000000
00000000
00000000
10000000
00000000
00000000
01000000
00000000
00010000
00000000
00001000
,
00000000
00000000
00000100
00000000
00000000
00000010
00000000
00000000
00001000
00000000
00000001
00000000
00000000
00000100
00000000
00000010
,
00001000
00000000
00000001
00000000
00000000
00000100
00000000
00000000
00000001
00000000
00000000
00000100
00000000
00001000
00000000
00010000
,
00000000
00000000
01000000
00000000
00000000
00100000
00000000
00000000
00010000
00000000
10000000
00000000
00000000
01000000
00000000
00100000
,
00010000
00000000
01000000
00000000
00000000
00001000
00000000
00000000
00010000
00000000
00000000
00000010
00000000
00000100
00000000
00000001
,
00001000
00000000
00000100
00000000
00000000
00010000
00000000
00000000
00001000
00000000
00000000
00100000
00000000
01000000
00000000
10000000
,
00010000
01000000
00100000
10000000
01000000
00100000
00001000
00010000
,
00000100
00000010
00000001
00000100
00000010
00010000
00001000
01000000
,
00100000
10000000
01000000
00010000
00001000
00010000
01000000
10000000
,
01000000
00010000
00001000
00000010
00001000
00010000
01000000
00010000
,
00001000
00000010
00000001
00001000
00000100
00000010
00000001
00000100
,
00000010
00010000
00001000
00000100
00000010
00001000
00000001
00000100
,
00000001
00000010
00000100
00001000
00000010
00000100
00001000
00010000
,
00100000
01000000
00010000
10000000
01000000
00100000
00001000
00000000
,
00020000
00000000
00000000
00002000
00000000
00000000
00000000
00000000
,
00000000
00033000
00000000
00000000
;

//---------------dance-single - ----------------
#NOTES:
     dance-single:
     :
     Beginner:
     1:
     0.157,0.171,0.051,0.000,0.000:
0000
0000
0000
0000
,
0000
0000
0000
0000
,
0000
0000
0000
0000
,
0000
0000
0000
0000
,
0100
0000
0000
0000
,
0010
0000
0000
0000
,
0100
0000
0001
0000
,
1000
0000
0010
0010
,
0000
1000
0000
0010
,
0000
1000
0000
0001
,
0000
1000
0000
0100
,
0000
1000
0000
0001
,
0001
0001
0000
0010
,
0000
0001
0000
1000
,
0000
0001
0000
0100
,
0000
0001
0000
1000
,
0000
0010
0000
0100
,
0100
0000
0100
0000
,
0001
0000
0001
0000
,
1000
0000
1000
1000
,
0000
0001
0000
0100
,
0000
0100
0000
1000
,
0000
0010
0000
1000
,
1000
0000
0010
0010
,
0000
1000
0000
0001
,
0000
0100
0000
1000
,
0000
0001
0000
1000
,
0000
0010
0000
0010
,
0010
0000
0100
0100
,
0000
1000
0000
0100
,
0000
0001
0000
1000
,
0000
1000
0000
0001
,
0000
0000
0000
1000
,
0000
0000
0000
0001
,
0000
0000
0000
0010
,
0000
0000
0000
0100
,
0000
0010
0000
1001
,
0000
0010
0000
1001
,
0000
1000
0000
1001
,
0000
0001
0000
1001
,
0000
1000
0000
0000
,
0001
0000
0010
0000
,
0100
0000
1000
0000
,
0001
0000
1000
0000
,
0010
0000
0001
0000
,
1000
0000
0010
0000
,
0100
0000
0001
0000
,
1000
0000
0001
0000
,
0000
0100
0000
0000
,
0010
0000
0001
0000
,
1000
0000
0100
0000
,
0010
0000
0100
0000
,
1000
1000
0000
0100
,
0000
0010
0000
0001
,
0000
0100
0000
0001
,
0001
0000
1000
0000
,
1001
0000
0000
0000
;

//---------------dance-single - ----------------
#NOTES:
     dance-single:
     :
     Challenge:
     8:
     0.492,0.572,0.020,0.050,0.362: // measure 1
0000
0000
0000
0000
,  // measure 2
0000
0000
0000
0000
0000
0000
0000
0001
,  // measure 3
0001
0000
0001
0000
,  // measure 4
1000
0000
0000
0000
1000
0000
0000
0001
,  // measure 5
0001
0000
0001
0000
,  // measure 6
1000
0000
0000
0000
1000
0000
0000
0001
,  // measure 7
0001
0000
0000
0000
0001
0000
0000
0001
,  // measure 8
0001
0000
0000
0000
0001
0000
0000
0000
0001
0000
1000
0000
0001
1000
0001
1000
,  // measure 9
0001
0100
0001
0100
0010
1000
0010
1000
,  // measure 10
0100
1000
0100
1000
0100
0010
0001
0100
,  // measure 11
0010
1000
0010
1000
0100
1000
0100
1000
,  // measure 12
0001
0010
0001
0010
0100
1000
0010
0100
,  // measure 13
1000
0100
1000
0100
0001
0100
0001
0100
,  // measure 14
0010
0100
0010
0100
0001
1000
0010
0100
,  // measure 15
0001
0010
0100
1000
0100
0001
0100
1000
,  // measure 16
0020
0000
0000
0000
0000
0000
0030
0000
0100
0001
0100
0001
0100
0001
0100
0001
,  // measure 17
0100
0100
0100
0010
1000
0000
0001
0000
,  // measure 18
0010
0010
0010
0100
1000
0000
0001
0000
,  // measure 19
1000
1000
1000
0010
0100
0000
1000
0000
,  // measure 20
0100
0100
0100
0001
0010
0000
0001
0000
,  // measure 21
0010
0010
0010
0001
0100
0000
1000
0000
,  // measure 22
0100
0100
0100
0010
1000
0000
0100
0000
,  // measure 23
0010
0010
0010
0100
0001
0000
0100
0000
,  // measure 24
1000
1000
1000
0001
0010
0010
0100
1000
,  // measure 25
0001
0000
0001
0100
0010
0000
1000
0100
,  // measure 26
0010
0000
0010
0100
0001
0000
0100
1000
,  // measure 27
0010
0000
0010
0100
0001
0000
1000
0100
,  // measure 28
0010
0000
0000
0000
0000
0000
0000
0000
0000
0000
0000
0000
0001
0000
0000
0000
0000
0000
0100
0000
0000
0000
0000
0000
1000
0000
0000
0000
0000
0000
0000
0000
0000
0100
0000
0000
0000
0000
0000
0000
0001
0000
0000
0000
0000
1000
0000
0000
,  // measure 29
0010
0000
0000
0000
0000
0000
0100
0000
0000
0000
0000
0000
0000
0000
0000
0001
0000
0000
0000
0000
0000
0000
0000
0000
0010
0000
0000
0000
0000
0000
0000
0000
0000
0100
0000
0000
0000
0000
0000
0000
0100
0000
0000
0000
0000
0000
0000
0000
,  // measure 30
0000
0000
0000
0000
0000
0000
1000
0000
0000
0000
0000
0000
0000
0000
0000
0001
0000
0000
0000
0000
0000
0000
0000
0000
0100
0000
0000
0000
0000
0000
0000
0000
0000
0010
0000
0000
0000
0000
0000
0000
0010
0000
0000
0000
0000
0000
0000
0000
,  // measure 31
0000
0000
0000
0000
0000
0000
1000
0000
0000
0000
0000
0000
0000
0000
0000
0010
0000
0000
0000
0000
0000
0000
0000
0000
0100
0000
0000
0000
0000
0000
0000
0000
0000
0001
0000
0000
0000
0000
0000
0000
0001
0000
0000
0000
0000
0000
0000
0000
,  // measure 32
0000
0000
0000
0000
0000
0000
0010
0000
0000
0000
0000
0000
0000
0000
0000
0100
0000
0000
0000
0000
0000
0000
0000
0000
1000
0000
0000
0000
0000
0000
0000
0000
0000
0001
0000
0000
0000
0000
0000
0000
0001
0000
0000
0000
0000
0001
0000
0000
,  // measure 33
0100
0010
0000
0010
,  // measure 34
0000
0000
0000
0000
0010
0000
0000
0000
0000
0000
0000
0010
0000
0000
0010
0000
,  // measure 35
0000
0010
0000
0010
,  // measure 36
0000
0000
0000
0000
0010
0000
0000
0000
0000
0000
0000
0010
1000
0000
1000
0001
,  // measure 37
0010
0000
0100
0000
1000
0010
0100
0000
,  // measure 38
0001
0100
0001
0100
0001
0000
0100
0001
0100
0001
0100
0000
0010
1000
0010
1000
,  // measure 39
0010
0000
1000
0000
0100
0010
0001
0000
,  // measure 40
1000
0100
1000
0100
1000
0000
0100
1000
0100
1000
0000
0001
0010
0001
0010
0000
,  // measure 41
0002
0000
0000
0000
,  // measure 42
2000
0000
0000
3003
,  // measure 43
0100
0010
0100
0011
,  // measure 44
1000
0000
0000
0000
0000
0000
0000
0000
0000
0000
0000
0000
0101
0000
0000
0000
0000
0000
0000
0000
0000
0000
0000
0000
0010
0000
0000
0000
0000
0000
0000
0000
0000
1000
0000
0000
0000
0000
0000
0000
0100
0000
0000
0000
0000
0001
0000
0000
,  // measure 45
0100
0000
0000
0000
0000
0000
0010
0000
0000
0000
0000
0000
0000
0000
0000
0001
0000
0000
0000
0000
0000
0000
0000
0000
0100
0000
0000
0000
0000
0000
0000
0000
0000
0001
0000
0000
0000
0000
0000
0000
1000
0000
0000
0000
0000
0000
0000
0000
,  // measure 46
0000
0000
0000
0000
0000
0000
0010
0000
0000
0000
0000
0000
0000
0000
0000
0010
0000
0000
0000
0000
0000
0000
0000
0000
0100
0000
0000
0000
0000
0000
0000
0000
0000
0100
0000
0000
0000
0000
0000
0000
0001
0000
0000
0000
0000
1000
0000
0000
,  // measure 47
0100
0000
0000
0000
0000
0000
0010
0000
0000
0000
0000
0000
0000
0000
0000
0001
0000
0000
0000
0000
0000
0000
0000
0000
1000
0000
0000
0000
0000
0000
0000
0000
0000
0010
0000
0000
0000
0000
0000
0000
0001
0000
0000
0000
0000
0000
0000
0000
,  // measure 48
0000
0000
1000
0000
0000
1000
0000
0000
0010
0000
1000
0100
1000
0100
1000
0100
,  // measure 49
0010
0001
0010
0001
0100
0010
1000
0010
,  // measure 50
0100
0001
0010
0100
1000
0100
1000
0001
,  // measure 51
0010
0000
1000
0000
0010
0000
0001
1000
0001
0000
0100
0000
0010
0000
1000
0001
,  // measure 52
1000
0100
0010
0100
1000
0001
0010
0000
,  // measure 53
0100
0000
0000
0000
0000
0000
1000
0000
0000
0000
0000
0000
0000
0000
0000
0001
0000
0000
0000
0000
0000
0000
0000
0000
0100
0000
0000
0000
0000
0000
0000
0000
0000
1000
0000
0000
0000
0000
0000
0000
1000
0000
0000
0000
0000
0000
0000
0000
,  // measure 54
0100
0000
0000
0000
0000
0000
0010
0000
0000
0000
0000
0000
0000
0000
0000
0001
0000
0000
0000
0000
0000
0000
0000
0000
0010
0000
0000
0000
0000
0000
0000
0000
0000
0001
0000
0000
0000
0000
0000
0000
0001
0000
0000
0000
0000
0001
0000
0000
,  // measure 55
0010
0000
0000
0000
0000
0000
1000
0000
0000
0000
0000
0000
0000
0000
0000
0100
0000
0000
0000
0000
0000
0000
0000
0000
0001
0000
0000
0000
0000
0000
0000
0000
0000
1000
0000
0000
0000
0000
0000
0000
0010
0000
0000
0000
0000
0100
0000
0000
,  // measure 56
1000
0000
0000
0000
0000
0000
0001
0000
0000
0000
0000
0000
0000
0000
0000
0100
0000
0000
0000
0000
0000
0000
0000
0000
0001
0000
0000
0010
0000
0000
0000
0000
0000
0001
0000
0000
0000
0000
0000
0000
0010
0000
0000
0000
0000
0010
0000
0000
,  // measure 57
0002
0000
0000
2000
0000
0000
0000
0000
,  // measure 58
3003
0000
0000
0000
;
