#TITLE:功夫LOVE;
#SUBTITLE:;
#ARTIST:DJ YOSHITAKA feat. 張瑶;
#TITLETRANSLIT:Kung Fu LOVE;
#SUBTITLETRANSLIT:;
#ARTISTTRANSLIT:DJ YOSHITAKA feat. Zhang Yao;
#CREDIT:;
#BANNER:MAX LOVE (Chinese).png;
#BACKGROUND:MAX LOVE (Chinese)-bg.png;
#LYRICSPATH:;
#CDTITLE:./CDTITLES/beatmaniaIIDX.png;
#MUSIC:MAX LOVE (Chinese).ogg;
#OFFSET:0.000;
#SAMPLESTART:38.200;
#SAMPLELENGTH:15.000;
#SELECTABLE:YES;
#DISPLAYBPM:180.000;
#BPMS:0.000=180.000,4.000=180.000;
#STOPS:;
#BGCHANGES:;

//---------------dance-single - ----------------
#NOTES:
     dance-single:
     :
     Beginner:
     3:
     0.167,0.252,0.022,0.087,0.000:
0000
0000
0000
0000
,
0000
0000
0000
0000
,
0000
0000
0000
0000
,
0000
0000
0000
0000
,
0000
0000
0000
0000
,
0001
0000
0001
0000
,
1000
0000
1000
0000
,
0001
0000
0000
0000
,
1000
0000
0000
0000
,
0010
0000
0010
0000
,
0100
0000
0100
0000
,
0010
0000
0000
0000
,
0010
0010
0010
0000
,
1000
0000
0000
0000
,
0001
0001
0001
0000
,
1000
0000
0000
0000
,
0001
0001
0001
0000
,
1000
0000
0100
0000
,
1000
0000
0100
0000
,
0001
0000
0010
0000
,
0001
0000
0000
0000
,
1001
0000
0000
0000
,
0010
0000
0000
0000
,
1001
0000
0000
0000
,
0010
0000
0000
0000
,
0001
0000
0001
0000
,
0100
0000
0100
0000
,
1000
0000
1000
0000
,
0001
0001
0001
0000
,
2000
0000
3000
0000
,
0002
0000
0003
0000
,
0200
0000
0300
0000
,
0020
0000
0030
0000
,
1000
0000
1000
0000
,
0100
0000
0100
0000
,
0010
0000
0010
0000
,
0001
0000
0001
0000
,
1000
0000
0000
0000
,
0001
0000
0000
0000
,
1000
0000
0000
0000
,
0001
0000
0000
0000
,
0010
0010
0010
0000
,
1000
1000
1000
0000
,
0001
0001
0001
0000
,
0010
0010
0010
0000
,
2000
0000
3000
0000
,
0002
0000
0003
0000
,
0200
0000
0300
0000
,
0020
0000
0030
0000
,
1000
0000
1000
0000
,
0100
0000
0100
0000
,
0010
0000
0010
0000
,
0001
0000
0001
0000
,
1000
0000
0000
0000
,
0001
0000
0000
0000
,
1000
0000
0000
0000
,
0001
0000
0000
0000
,
0000
0000
0000
0000
,
1000
0000
0001
0000
,
0000
0000
0000
0000
,
0001
0000
1000
0000
,
0000
0000
0000
0000
,
1000
0000
0001
0000
,
0000
0000
0000
0000
,
1001
0000
0000
0000
,
0000
0000
0010
0010
,
0000
0000
1000
1000
,
0000
0000
0001
0001
,
0000
0000
0100
0100
,
0000
0000
0010
0010
,
0000
0000
0001
0001
,
0000
0000
1000
1000
,
0000
0000
0000
0000
,
0001
0000
0000
0000
,
0001
0000
0000
0000
,
1000
0000
0000
0000
,
1000
0000
0000
0000
,
0010
0000
0000
0000
,
0010
0000
0000
0000
,
0100
0000
0000
0000
,
0100
0000
0000
0000
,
1000
0000
0000
0000
,
0001
0000
0000
0000
,
1000
0000
0000
0000
,
0001
0000
0000
0000
,
0010
0010
0010
0000
,
1000
1000
1000
0000
,
0001
0001
0001
0000
,
0010
0010
0010
0000
,
2000
0000
3000
0000
,
0002
0000
0003
0000
,
0200
0000
0300
0000
,
0020
0000
0030
0000
,
1000
0000
1000
0000
,
0100
0000
0100
0000
,
0010
0000
0010
0000
,
0001
0000
0001
0000
,
1000
0000
0000
0000
,
0001
0000
0000
0000
,
1000
0000
0000
0000
,
0001
0000
0000
0000
,;

//---------------dance-single - ----------------
#NOTES:
     dance-single:
     :
     Easy:
     6:
     0.333,0.327,0.022,0.022,0.000:
0000
0000
0000
0000
,
0000
0000
0000
0000
,
0000
0000
0000
0000
,
0000
0000
0000
0000
,
0000
0000
0000
0000
,
0001
0001
1000
1000
,
0010
0010
1000
1000
,
0001
0010
1000
0100
,
0001
0100
0010
0000
,
0010
1000
0001
0000
,
0010
0001
1000
0000
,
0010
1000
0001
0000
,
2000
0000
0000
3000
,
0100
0100
0010
0000
,
0001
1000
1001
0000
,
0100
0100
0010
0000
,
1000
0001
1001
0000
,
0100
0001
0100
1000
,
0100
0010
0100
0010
,
0100
1000
0001
0010
,
0100
0010
0100
0000
,
0001
0100
0000
0000
,
0001
0010
0001
0010
,
1000
0100
0000
0000
,
1000
0010
1000
0010
,
0100
0100
0001
0000
,
0100
0100
1000
0000
,
0100
0001
0010
1000
,
0001
1000
0001
0000
,
1000
0010
0100
0010
,
0001
0010
0100
0010
,
0001
0100
0010
0100
,
1000
0010
0100
0000
,
1000
0100
0001
1000
,
0001
0100
1000
0001
,
0100
0010
1000
0010
,
0100
1000
0010
0000
,
1000
0100
1000
0000
,
0001
0100
0001
0000
,
1000
0010
1000
0000
,
0001
0010
0001
0000
,
1000
0001
0100
0100
,
0001
1000
0100
0100
,
0001
0100
1000
0010
,
0001
0010
1000
0000
,
0001
0010
0100
0010
,
1000
0010
0100
0010
,
1000
0100
0010
0100
,
0001
0010
0100
0000
,
0001
0001
0100
0100
,
1000
1000
0010
0010
,
0100
0010
0001
0010
,
0100
0001
0010
0000
,
0001
0100
0001
0000
,
1000
0100
1000
0000
,
0001
0010
0001
0000
,
1000
0000
0000
0000
,
1000
1000
0100
0000
,
0100
0100
0001
0000
,
0001
0001
0010
0000
,
0010
0010
1000
0000
,
1000
1000
0100
0000
,
0100
0100
0001
0000
,
0001
0001
0010
0000
,
0220
0000
0000
0330
,
0000
1000
0010
1000
,
0000
0010
1000
0010
,
0001
0010
1000
0100
,
0010
0001
0100
0000
,
0100
0100
1000
1000
,
0010
0010
0001
0001
,
0100
1000
0010
0001
,
1000
0001
1000
0000
,
0100
0010
0000
0010
,
0000
0010
0000
0010
,
0001
0010
0000
0010
,
1000
0010
0000
0010
,
0100
0010
0000
0010
,
0100
0010
0000
0010
,
0001
0010
1000
0010
,
0100
0010
0100
0010
,
0001
0100
0001
0000
,
1000
0100
1000
0000
,
0001
0010
0001
0000
,
1000
0010
1000
0000
,
0001
1000
0100
0100
,
1000
0001
0100
0100
,
1000
0100
0001
0010
,
1000
0010
0001
0000
,
1000
0010
0100
0010
,
0001
0010
0100
0010
,
0001
0100
0010
0100
,
1000
0010
0100
0000
,
1000
1000
0100
0100
,
0001
0001
0010
0010
,
0100
0010
1000
0010
,
0100
1000
0010
0000
,
1000
0100
1000
0000
,
0001
0100
0001
0000
,
1000
0010
1000
0000
,
0001
0000
0000
0010
,;

//---------------dance-single - ----------------
#NOTES:
     dance-single:
     :
     Medium:
     8:
     0.398,0.400,0.094,0.058,0.000:
0000
0000
0000
0000
,
0000
0000
0000
0000
,
0000
0000
0000
0000
,
0000
0000
0000
0000
,
0000
0000
0000
0000
,
0100
1000
0100
0001
,
0100
1000
0100
0001
,
1000
0010
0001
0100
,
1000
0000
0100
0000
0010
0000
0010
0100
,
0000
0000
0010
0000
0010
1000
0000
0001
,
0000
0000
1000
0000
1000
0100
0000
0010
,
0000
0000
0010
0000
0001
1000
0000
0000
,
0001
1000
0001
1001
,
0100
0100
0010
0010
,
1000
0101
1000
0101
,
0100
0100
0010
0010
,
0001
1100
0001
1100
,
0100
1000
0100
0001
,
0100
0010
0100
0010
,
0100
0001
1000
0010
,
0100
0010
0110
0000
,
2001
0000
3100
0000
0000
0000
0000
0001
,
0000
0010
1000
0010
,
1002
0000
0103
0000
0000
0000
0000
1000
,
0000
0010
0001
0010
,
0100
0100
1000
1000
,
0010
0010
0001
0001
,
0100
1000
0010
0001
,
1000
0001
1000
1001
,
0001
0010
0100
0010
,
1000
0010
0100
0010
,
1000
0100
0010
0100
,
0001
0010
0100
1000
,
0001
0100
1000
0001
,
1000
0100
0001
1000
,
0100
0010
0001
0010
,
0100
0000
0001
0000
0010
0000
0001
0100
,
0000
0000
0001
0000
0001
0100
0000
1000
,
0000
0000
0100
0000
1000
0100
0000
0010
,
0000
0000
0001
0000
0010
0001
0000
1000
,
0000
0010
1000
1000
,
0001
1000
0100
0100
,
1000
0001
0100
0100
,
1000
0100
0001
0010
,
1000
0010
0001
0000
,
1000
0010
0100
0010
,
0001
0010
0100
0010
,
0001
0100
0010
0100
,
1000
0010
0100
0001
,
2000
0100
0001
3100
,
0002
0100
1000
0103
,
0100
0010
1000
0010
,
0100
0000
1000
0000
0010
0000
1000
0100
,
0000
0000
1000
0000
1000
0100
0000
0001
,
0000
0000
0100
0000
0001
0100
0000
0010
,
0000
0000
1000
0000
0010
1000
0000
0001
,
0000
0000
0000
0000
0000
0000
0001
0010
,
0000
0001
0100
0100
,
1000
1000
0010
0010
,
0001
0001
0100
0100
,
1000
1000
0010
0010
,
0001
0001
0100
0100
,
1000
1000
0010
0010
,
0001
0001
0100
0100
,
0220
0000
0000
0000
0330
0000
0001
1000
,
0000
0000
0001
0000
0010
0000
0001
1000
,
0000
0010
0001
0010
,
1000
0010
0001
0100
,
0010
1001
0100
1001
,
0100
0100
0001
0001
,
0010
0010
1000
1000
,
0100
0001
0010
1000
,
0001
1000
0001
1001
,
0100
0010
0000
0010
,
0000
0010
0000
0010
,
1000
0010
0000
0010
,
0001
0010
0000
0010
,
0100
0010
0000
0010
,
0100
0010
0000
0010
,
1000
0010
0001
0010
,
0100
0000
0010
0000
0100
0000
0010
0100
,
0000
0000
0001
0000
0001
0100
0000
1000
,
0000
0000
0100
0000
1000
0100
0000
0010
,
0000
0000
0001
0000
0010
0001
0000
1000
,
0000
0010
1000
1000
,
0001
1000
0100
0100
,
1000
0001
0100
0100
,
1000
0100
0001
0010
,
1000
0010
0001
0000
,
1000
0010
0100
0010
,
0001
0010
0100
0010
,
0001
0100
0010
0100
,
1000
0010
0100
0001
,
2000
0100
0001
3100
,
0002
0100
1000
0103
,
0100
0010
1000
0010
,
0100
0000
1000
0000
0010
0000
1000
0100
,
0000
0000
1000
0000
1000
0100
0000
0001
,
0000
0000
0100
0000
0001
0100
0000
0010
,
0000
0000
1000
0000
0010
1000
0000
0001
,
0000
0000
0000
0000
0000
0000
0010
0100
,;

//---------------dance-single - ----------------
#NOTES:
     dance-single:
     :
     Hard:
     11:
     0.525,0.546,0.375,0.029,0.000:
0000
0000
0000
0000
,
0000
0000
0000
0000
,
0000
0000
0000
0000
,
0000
0000
0000
0000
,
0000
0000
0000
0000
,
0010
1000
0100
0000
0010
0001
0100
0000
,
0010
1000
0100
0000
0010
0001
0100
0000
,
1000
0000
0010
0000
1000
0001
0010
0001
,
0000
1000
0010
0000
0010
0100
0010
0100
,
0000
0001
0100
0000
0100
0001
0000
1010
,
0000
0001
0010
0000
0010
0001
0000
0110
,
0000
1000
0100
0000
1000
0001
0000
1000
,
0010
0001
1000
1001
,
0010
0000
0010
0000
0100
1000
0100
0000
,
0101
1100
0101
1100
,
0010
0000
0010
0000
0100
0001
0100
0000
,
1100
0101
1100
0101
,
0010
0100
0001
0000
0010
0100
1000
0000
,
0010
1000
0100
0000
0010
0001
0100
0000
,
0010
0000
1000
0000
0001
0010
0100
1000
,
0100
0100
0010
1001
,
0021
0000
0130
0000
0000
0000
0000
1000
,
0000
0001
0010
0000
0001
1000
0010
0000
,
1020
0000
0130
0000
0000
0000
0000
0001
,
0000
1000
0010
0000
1000
0001
0010
0000
,
0010
0001
0010
0000
0001
0100
0001
0000
,
0100
1000
0100
0000
1000
0010
1000
0000
,
0010
0001
0100
1000
,
0001
1000
0001
0110
,
1000
0010
0100
0010
0000
0010
0100
0000
,
0001
0010
0100
0010
0000
0010
0100
0000
,
0001
0100
0010
0100
0000
0100
0010
0000
,
1000
0100
0010
0001
,
1000
0001
0010
0001
0000
0001
1000
0000
,
0001
1000
0010
1000
0000
1000
0001
0000
,
0001
0010
0100
0000
1000
0010
0100
0000
,
0010
0000
1000
0000
0100
0000
1000
1010
,
0000
0000
1010
0000
1000
0010
0000
0011
,
0000
0000
0011
0000
0001
0010
0000
0101
,
0000
0000
0101
0000
0001
0100
0000
1100
,
0000
0000
1100
0000
1000
0100
1000
0000
,
0001
0000
1000
0000
0010
0100
0010
0000
,
1000
0000
0001
0000
0010
0100
0010
0000
,
1000
0010
0001
0100
,
1000
0100
0001
0100
,
0001
0010
0100
0010
0000
0010
0100
0000
,
1000
0010
0100
0010
0000
0010
0100
0000
,
1000
0100
0010
0100
0000
0100
0010
0000
,
0001
0100
0010
1000
,
0001
1000
0010
0000
1000
0001
0010
0000
,
0001
1000
0010
0000
1000
0001
0010
0000
,
1000
0100
0001
0100
,
0010
0000
0001
0000
0100
0000
0001
0011
,
0000
0000
0011
0000
0001
0010
0000
1010
,
0000
0000
1010
0000
1000
0010
0000
1100
,
0000
0000
1100
0000
1000
0100
0000
0101
,
0000
0000
0000
0000
0000
0000
1000
0100
,
0000
0100
1000
0000
0010
1000
0010
0000
,
0001
0010
0001
0000
0100
0001
0100
0000
,
1000
0100
1000
0000
0010
1000
0010
0000
,
0001
0010
0001
0000
0100
0001
0100
0000
,
1000
0100
1000
0000
0010
1000
0010
0000
,
0001
0010
0001
0000
0100
0001
0100
0000
,
1000
0100
1000
0000
0010
1000
0010
0000
,
0220
0000
0000
0000
0330
0000
1000
0001
,
0000
0001
1000
0000
0100
0000
1000
0001
,
0000
0010
0100
0000
1000
0001
0100
0000
,
0001
0100
1000
0010
,
0110
1001
0110
1001
,
0010
1000
0010
0000
1000
0100
1000
0000
,
0001
0100
0001
0000
0010
0001
0010
0000
,
1000
0100
0001
0010
,
1000
0001
1000
1001
,
0010
0100
0000
0100
,
0000
0100
0000
0100
,
0001
0100
0000
0100
,
1000
0100
0000
0100
,
0010
0100
0000
0100
,
0010
0100
0000
0100
,
0001
0100
1000
0100
,
0010
0000
0100
0000
0010
0000
0100
1010
,
0000
0000
1010
0000
1000
0010
0000
0011
,
0000
0000
0011
0000
0001
0010
0000
0101
,
0000
0000
0101
0000
0001
0100
0000
1100
,
0000
0000
1100
0000
1000
0100
1000
0000
,
0001
0000
1000
0000
0010
0100
0010
0000
,
1000
0000
0001
0000
0010
0100
0010
0000
,
1000
0010
0001
0100
,
1000
0100
0001
0100
,
0001
0010
0100
0010
0000
0010
0100
0000
,
1000
0010
0100
0010
0000
0010
0100
0000
,
1000
0100
0010
0100
0000
0100
0010
0000
,
0001
0100
0010
1000
,
0001
1000
0010
0000
1000
0001
0010
0000
,
0001
1000
0010
0000
1000
0001
0010
0000
,
1000
0100
0001
0100
,
0010
0000
0001
0000
0100
0000
0001
0011
,
0000
0000
0011
0000
0001
0010
0000
1010
,
0000
0000
1010
0000
1000
0010
0000
1100
,
0000
0000
1100
0000
1000
0100
0000
0101
,
0000
0000
0000
0000
0000
0000
0010
1001
;

//---------------dance-single - ----------------
#NOTES:
     dance-single:
     :
     Challenge:
     13:
     0.617,0.764,0.346,0.029,0.029:
0000
0000
0000
0000
,
0000
0000
0000
0000
,
0000
0000
0000
0000
,
0000
0000
0000
0000
,
0000
0000
0000
0000
,
0001
0100
1000
0001
0010
1000
0001
0100
,
1000
0001
0010
1000
0001
0100
1000
0100
,
0001
0010
0100
0010
0001
0010
1000
0010
,
0000
0010
0001
1000
0010
0100
0001
0101
,
0000
1000
0100
0010
0100
1000
0000
0011
,
0000
1000
0010
0100
0010
1000
0100
0110
,
0000
0001
0100
0010
0100
0001
0000
0010
,
0001
1000
0001
1001
,
0010
0000
0010
0000
0100
0001
0100
0000
,
1100
0101
1100
0101
,
0010
0000
0010
0000
0100
1000
0100
0000
,
0101
1100
0101
1100
,
0010
0100
1000
0000
0010
0100
0001
0000
,
0010
0001
0100
0000
0010
1000
0100
0000
,
0010
0000
0001
0000
1000
0010
0100
0001
,
0100
0000
0100
0000
0010
0100
1001
0000
,
1020
0000
0130
0000
0000
0000
0000
0001
,
0000
1000
0010
0001
0010
1000
0001
0000
,
0021
0000
0130
0000
0000
0000
0000
1000
,
0000
0001
0010
1000
0010
0001
1000
0000
,
0010
1000
0010
0000
1000
0100
1000
0000
,
0100
0001
0100
0000
0001
0010
0001
0000
,
0010
1000
0010
0100
0001
0010
0100
1000
,
0001
1000
0001
0110
,
0001
0100
1000
0100
0000
0100
1000
0100
,
0001
0100
1000
0100
0000
0100
1000
0100
,
0001
0010
1000
0010
0000
0010
1000
0010
,
0001
0010
0100
0010
0001
1000
0010
0000
,
1000
0100
0001
0100
0000
0100
0001
0100
,
1000
0100
0001
0100
0000
0100
0001
0100
,
1000
0010
0001
0010
0100
0010
1000
0001
,
0000
0010
0001
0010
0100
1000
0100
0011
,
0000
0000
0011
0000
0001
0010
0000
1010
,
0000
0000
1010
0000
1000
0010
0000
1100
,
0000
0000
1100
0000
1000
0100
0000
0101
,
0000
0000
0101
0000
0001
0100
0001
0000
,
0001
0100
1000
0100
0010
0100
0010
0000
,
1000
0100
0001
0100
0010
0100
0010
0000
,
0001
1000
0010
0100
0001
1000
0100
0010
,
0001
1000
0001
1000
,
0001
0100
1000
0100
0000
0100
1000
0100
,
0001
0100
1000
0100
0000
0100
1000
0100
,
0001
0010
1000
0010
0000
0010
1000
0010
,
0001
0010
0100
0010
0001
1000
0010
0000
,
1000
0100
0001
1000
0010
0001
1000
0100
,
0001
1000
0010
0001
1000
0100
0001
0000
,
1000
0010
0001
0010
0100
0010
0001
1000
,
0000
0010
0100
0010
1000
0100
1000
0110
,
0000
0000
0110
0000
0001
0100
0000
0110
,
0000
0000
0110
0000
1000
0100
0000
0110
,
0000
0000
0110
0000
0001
0100
0000
0010
,
0000
0000
0000
0000
0000
0000
0001
0100
,
0000
0100
0001
0000
0010
0001
0010
0000
,
1000
0010
1000
0000
0100
1000
0100
0000
,
0001
0100
0001
0000
0010
0001
0010
0000
,
1000
0010
1000
0000
0100
1000
0100
0000
,
0001
0100
0001
0000
0010
0001
0010
0000
,
1000
0010
1000
0000
0100
1000
0100
0000
,
0001
0100
0001
0000
0010
0001
0010
0000
,
0220
0000
0000
0000
0330
0000
0001
1000
,
0000
0010
0100
0000
0001
0010
0001
1000
,
0000
0010
0100
0000
0001
1000
0100
0000
,
1000
0001
1000
0100
0010
0001
1000
0010
,
0100
0001
1000
0100
,
0010
0001
0010
1000
0010
0100
0010
0100
,
0010
0001
0010
1000
0010
0100
0010
0100
,
0001
0000
0000
0000
0000
0000
0000
0000
0000
0000
0000
0000
0000
0000
0000
0000
0100
0000
0000
0000
0000
0000
0000
0000
0000
0000
0000
0000
0000
0000
0000
0000
0010
0000
0000
0000
0000
0000
0000
0000
0000
0000
0000
0000
0000
0000
0000
0000
1000
0000
0000
0000
0000
0000
0000
0000
0000
0000
0000
0000
0000
0000
0000
0000
0010
0000
0000
0000
0000
0000
0000
0000
0000
0000
0000
0000
0000
0000
0000
0000
0100
0000
0000
0000
0000
0000
0000
0000
0000
0000
0000
0000
0000
0000
0000
0000
0001
0000
0000
0000
0000
0000
0000
0000
0000
0000
0000
0000
0000
0000
0000
0000
0010
0000
0000
0000
0000
0000
0000
0000
0000
0000
0000
0000
0000
0000
0000
0000
0100
0000
0000
0000
0000
0000
0000
0000
0000
0000
0000
0000
0000
0000
0000
0000
1000
0000
0000
0000
0000
0000
0000
0000
0000
0000
0000
0000
0000
0000
0000
0000
0100
0000
0000
0000
0000
0000
0000
0000
0000
0000
0000
0000
0000
0000
0000
0000
0010
0000
0000
0000
0000
0000
0000
0000
0000
0000
0000
0000
0000
0000
0000
0000
,
0001
1000
0001
1001
,
0010
0100
0000
0100
,
0000
0100
0000
0100
,
1000
0100
0000
0100
,
0001
0100
0000
0100
,
0010
0100
0000
0100
,
0010
0100
0000
0100
,
1000
0100
0001
0100
,
0010
0000
0100
0000
0010
0000
0100
1010
,
0000
0000
1010
0000
1000
0010
0000
0011
,
0000
0000
0011
0000
0001
0010
0000
0101
,
0000
0000
0101
0000
0001
0100
0000
1100
,
0000
0000
1100
0000
1000
0100
1000
0000
,
1000
0100
0001
0100
0010
0100
0010
0000
,
0001
0100
1000
0100
0010
0100
0010
0000
,
1000
0001
0010
0100
1000
0001
0100
0010
,
1000
0001
1000
0001
,
1000
0100
0001
0100
0000
0100
0001
0100
,
1000
0100
0001
0100
0000
0100
0001
0100
,
1000
0010
0001
0010
0000
0010
0001
0010
,
1000
0010
0100
0010
1000
0001
0010
0000
,
0001
0100
1000
0001
0010
1000
0001
0100
,
1000
0001
0010
1000
0001
0100
1000
0000
,
0001
0010
1000
0010
0100
0010
1000
0001
,
0000
0010
0100
0010
0001
0100
0001
0110
,
0000
0000
0110
0000
1000
0100
0000
0110
,
0000
0000
0110
0000
0001
0100
0000
0110
,
0000
0000
0110
0000
1000
0100
0000
0110
,
0000
0000
0000
0000
0000
0000
0010
1001
,;

//---------------dance-double - ----------------
#NOTES:
     dance-double:
     :
     Easy:
     7:
     0.319,0.327,0.007,0.022,0.000:
00000000
00000000
00000000
00000000
,
00000000
00000000
00000000
00000000
,
00000000
00000000
00000000
00000000
,
00000000
00000000
00000000
00000000
,
00000000
00000000
00000000
00000000
,
00001000
00001000
00000001
00000000
,
00000001
00000001
00001000
00000000
,
00000010
00010000
00001000
01000000
,
00010000
10000000
01000000
00000000
,
00100000
00010000
10000000
00000000
,
00100000
10000000
00010000
00000000
,
01000000
00010000
00001000
00000000
,
00020000
00000000
00000000
00030000
,
00000100
00000100
00000010
00000000
,
00001000
00000001
00001000
00000000
,
00000100
00000100
00000010
00000000
,
00000001
00001000
00000001
00000000
,
00000100
00001000
00010000
00100000
,
00010000
00001000
00010000
00000000
,
01000000
10000000
00010000
01000000
,
00100000
00100000
00100000
00000000
,
10000000
01000000
00000000
00000000
,
00010000
00001000
00000010
00000001
,
00001000
00000001
00000000
00000000
,
00000001
00001000
00000010
00000100
,
00001000
00000100
00001000
00000000
,
00010000
00001000
00010000
00000000
,
00100000
01000000
00010000
00100000
,
00010000
10000000
00010000
00000000
,
10000000
01000000
00100000
01000000
,
10000000
01000000
00010000
00001000
,
00000010
00000001
00000100
00000001
,
00001000
00000010
00000100
00000000
,
00000001
00000100
00001000
00000000
,
00001000
00000100
00000001
00000000
,
00000100
00000010
00010000
00001000
,
00100000
00010000
00100000
00000000
,
10000000
01000000
10000000
00000000
,
00010000
01000000
00010000
00000000
,
10000000
00100000
10000000
00000000
,
00010000
00100000
00010000
00000000
,
00001000
00001000
00000100
00000100
,
00000001
00000001
00000100
00000100
,
00001000
00001000
00000100
00000100
,
00000001
00000001
00000010
00000000
,
00000001
00000100
00000010
00000100
,
00000001
00000100
00001000
00010000
,
00100000
10000000
01000000
10000000
,
00010000
00100000
01000000
00000000
,
10000000
01000000
00010000
00000000
,
00010000
01000000
10000000
00000000
,
01000000
00100000
00001000
00010000
,
00000010
00001000
00000010
00000000
,
00000001
00000100
00000001
00000000
,
00001000
00000100
00001000
00000000
,
00000001
00000010
00000001
00000000
,
00001000
00000000
00000000
00000000
,
00000001
00000001
00000100
00000000
,
00000100
00000100
00001000
00000000
,
00001000
00001000
00010000
00000000
,
00010000
00010000
01000000
00000000
,
01000000
01000000
10000000
00000000
,
10000000
10000000
00100000
00000000
,
00100000
00100000
00010000
00000000
,
00022000
00000000
00000000
00033000
,
00000000
00000010
00000100
00000010
,
00000000
00001000
00000001
00000100
,
00000000
00001000
00010000
00001000
,
00000000
00100000
00010000
01000000
,
00100000
00100000
10000000
10000000
,
01000000
01000000
00100000
00100000
,
00001000
00010000
00001000
00000100
,
00000001
00001000
00000001
00000000
,
00000100
00000010
00000000
00000010
,
00000000
00000010
00000000
00000010
,
00001000
00000010
00000000
00000010
,
00000001
00000010
00000000
00000010
,
00000100
00001000
00000000
00001000
,
00010000
00100000
00000000
00100000
,
10000000
00010000
01000000
00001000
,
00010000
00000100
00001000
00000000
,
00000001
00000100
00000001
00000000
,
00001000
00000100
00001000
00000000
,
00000001
00000010
00000001
00000000
,
00001000
00000010
00001000
00000000
,
00010000
00010000
01000000
01000000
,
10000000
10000000
01000000
01000000
,
00010000
00010000
01000000
01000000
,
10000000
10000000
00100000
00000000
,
10000000
01000000
00100000
01000000
,
10000000
01000000
00010000
00001000
,
00000010
00000001
00000100
00000001
,
00001000
00000010
00000100
00000000
,
00000001
00000100
00001000
00000000
,
00001000
00000100
00000001
00000000
,
00000100
00000010
00010000
00001000
,
00100000
00010000
00100000
00000000
,
10000000
01000000
10000000
00000000
,
00010000
01000000
00010000
00000000
,
10000000
00100000
10000000
00000000
,
00010000
00000000
00000000
00100000
;

//---------------dance-double - ----------------
#NOTES:
     dance-double:
     :
     Medium:
     8:
     0.394,0.400,0.094,0.029,0.000:
00000000
00000000
00000000
00000000
,
00000000
00000000
00000000
00000000
,
00000000
00000000
00000000
00000000
,
00000000
00000000
00000000
00000000
,
00000000
00000000
00000000
00000000
,
01000000
00010000
00100000
00010000
,
01000000
00001000
00010000
00000100
,
00000010
00000001
00000100
00000001
,
00001000
00000000
00000010
00000000
00000100
00000000
00000100
00000010
,
00000000
00000000
00000100
00000000
00001000
00010000
00000000
00100000
,
00000000
00000000
10000000
00000000
00010000
01000000
00000000
00100000
,
00000000
00000000
10000000
00000000
01000000
10000000
00000000
00000000
,
00010000
00010000
00010000
10010000
,
01000000
01000000
00010000
00010000
,
00100000
00011000
01000000
00011000
,
00000010
00000010
00000100
00000100
,
00000010
00001001
00000100
00001001
,
00000010
00000001
00000100
00001000
,
00010000
01000000
10000000
00100000
,
01000000
10000000
00010000
00100000
,
01000000
00100000
01100000
00000000
,
00102000
00000000
00013000
00000000
00000000
00000000
00000000
00001000
,
00000000
00000100
00000010
00001000
,
00020010
00000000
00031000
00000000
00000000
00000000
00000000
00010000
,
00000000
01000000
00100000
00010000
,
01000000
01000000
00010000
00010000
,
00100000
00100000
10000000
10000000
,
01000000
00010000
00001000
00000010
,
00000001
00001000
00000001
00001001
,
00000100
00001000
00010000
00001000
,
00000100
00001000
00010000
00001000
,
00000010
00001000
00010000
01000000
,
10000000
00100000
01000000
00010000
,
10000000
01000000
00010000
01000000
,
10000000
01000000
00010000
01000000
,
00100000
00001000
00010000
00000010
,
00001000
00000000
00000001
00000000
00000010
00000000
00000100
00000010
,
00000000
00000000
00000001
00000000
00001000
00000010
00000000
00000100
,
00000000
00000000
00001000
00000000
00010000
00100000
00000000
01000000
,
00000000
00000000
00100000
00000000
10000000
00010000
00000000
01000000
,
00000000
00100000
00010000
00001000
,
00000010
00001000
00010000
00001000
,
00000010
00000001
00000100
00000010
,
00001000
00010000
01000000
00100000
,
10000000
00010000
10000000
00000000
,
01000000
00010000
00001000
00010000
,
01000000
00010000
00001000
00010000
,
00100000
00010000
00001000
00000100
,
00000001
00000010
00000100
00001000
,
00000001
00000001
00000100
00000100
,
00001000
00001000
00000100
00000100
,
00000010
00010000
00001000
00100000
,
00010000
00000000
10000000
00000000
00100000
00000000
01000000
00100000
,
00000000
00000000
10000000
00000000
00010000
00100000
00000000
01000000
,
00000000
00000000
00010000
00000000
00001000
00000010
00000000
00000100
,
00000000
00000000
00000010
00000000
00000001
00001000
00000000
00000010
,
00000000
00000000
00000000
00000000
00000000
00000000
00000100
00000010
,
00000000
00001000
00000001
00000001
,
00000100
00000100
00001000
00001000
,
00010000
00010000
00100000
00100000
,
10000000
10000000
01000000
01000000
,
00010000
00010000
00001000
00001000
,
00000010
00000010
00000001
00000001
,
00000100
00000100
00001000
00001000
,
00022000
00000000
00000000
00000000
00033000
00000000
01000000
00100000
,
00000000
00000000
00010000
00000000
00100000
00000000
00010000
10000000
,
00000000
00100000
01000000
00100000
,
00010000
00001000
00000100
00000001
,
00000010
00001001
00000100
00001001
,
00000010
00000010
00001000
00001000
,
00010000
00010000
01000000
01000000
,
00100000
10000000
00010000
01000000
,
00100000
01000000
00100000
01100000
,
10000000
01000000
00000000
01000000
,
00000000
01000000
00000000
01000000
,
00010000
00001000
00000000
00001000
,
00010000
00001000
00000000
00001000
,
00000100
00000010
00000000
00000010
,
00000100
00000010
00000000
00000010
,
00001000
00000010
00000001
00000010
,
00001000
00000000
00010000
00000000
00100000
00000000
01000000
00100000
,
00000000
00000000
10000000
00000000
00010000
00100000
00000000
01000000
,
00000000
00000000
00010000
00000000
00001000
00000010
00000000
00000100
,
00000000
00000000
00000010
00000000
00000001
00001000
00000000
00000100
,
00000000
00000010
00001000
00010000
,
00100000
00010000
00001000
00010000
,
00100000
10000000
01000000
00100000
,
00010000
00001000
00000100
00000010
,
00000001
00001000
00000001
00000000
,
00000100
00001000
00010000
00001000
,
00000100
00001000
00010000
00001000
,
00000010
00001000
00010000
01000000
,
10000000
00100000
01000000
00010000
,
10000000
10000000
01000000
01000000
,
00010000
00010000
01000000
01000000
,
00100000
00001000
00010000
00000010
,
00001000
00000000
00000001
00000000
00000010
00000000
00000100
00000010
,
00000000
00000000
00000001
00000000
00001000
00000010
00000000
00000100
,
00000000
00000000
00001000
00000000
00010000
00100000
00000000
01000000
,
00000000
00000000
00100000
00000000
10000000
00010000
00000000
00100000
,
00000000
00000000
00000000
00000000
00000000
00000000
01000000
00100000
;

//---------------dance-double - ----------------
#NOTES:
     dance-double:
     :
     Hard:
     11:
     0.506,0.546,0.216,0.058,0.000:
00000000
00000000
00000000
00000000
,
00000000
00000000
00000000
00000000
,
00000000
00000000
00000000
00000000
,
00000000
00000000
00000000
00000000
,
00000000
00000000
00000000
00000000
,
00000010
00000001
00000100
00000000
00000010
00001000
00000100
00000000
,
00010000
00001000
01000000
00000000
00100000
10000000
01000000
00000000
,
00010000
00000000
01000000
00000000
10000000
00010000
00100000
00010000
,
00000000
01000000
00001000
00000000
00010000
00000100
00000010
00000100
,
00000000
00001000
00000010
00000000
00000100
00000001
00000000
00000011
,
00000000
00000100
00000010
00000000
00001000
00010000
00000000
00011000
,
00000000
00100000
10000000
00000000
00010000
01000000
00000000
00100000
,
01000000
01000000
01000000
10010000
,
00100000
00000000
00100000
00000000
10000000
01000000
10000000
00000000
,
10020000
01030000
20010000
31000000
,
00010000
00000000
00010000
00000000
00001000
00000010
00001000
00000000
,
00001002
00000103
00002001
00003100
,
00000010
00000100
00001000
00000000
00000010
00010000
00001000
00000000
,
00100000
00010000
01000000
00000000
00100000
10000000
01000000
00000000
,
00100000
00000000
00010000
00000000
10000000
01000000
00100000
01000000
,
00010000
00001000
00011000
00000000
,
00001020
00000000
00000130
00000000
00000000
00000000
00000000
00000001
,
00000000
00001000
00000010
00000000
00001000
00000001
00000010
00000000
,
00002010
00000000
00013000
00000000
00000000
00000000
00000000
01000000
,
00000000
10000000
00010000
00000000
01000000
00100000
10000000
00000000
,
01000000
00100000
01000000
00000000
00010000
00001000
00010000
00000000
,
00000100
00000010
00000100
00000000
00000010
00000001
00000010
00000000
,
00000001
00001000
00000010
00000100
,
00001000
00010000
00001000
00011000
,
00010000
01000000
10000000
01000000
00000000
00100000
01000000
00000000
,
10000000
00100000
01000000
00100000
00000000
10000000
00100000
00000000
,
01000000
00001000
00010000
00001000
00000000
00000100
00000010
00000000
,
00001000
00000100
00000010
00000001
,
00001000
00000001
00000010
00000001
00000000
00001000
00000100
00000000
,
00000010
00000100
00010000
00001000
00000000
00100000
00010000
00000000
,
10000000
00100000
01000000
00000000
00010000
00100000
01000000
00000000
,
00010000
00000000
01000000
00000000
10000000
00000000
00100000
10100000
,
00000000
00000000
01000000
00000000
00001000
00010000
00000000
00011000
,
00000000
00000000
00000010
00000000
00001000
00000100
00000000
00001100
,
00000000
00000000
00000001
00000000
00000100
00000010
00000000
00001001
,
00000000
00000000
00000010
00000000
00000001
00001000
00000100
00000000
,
00000010
00000000
00001000
00000000
00010000
00001000
00010000
00000000
,
01000000
00000000
10000000
00000000
00010000
01000000
00010000
00000000
,
00100000
00001000
00010000
00100000
,
10000000
01000000
00010000
00010000
,
00001000
00000100
00000001
00000100
00000000
00000010
00000100
00000000
,
00000001
00000010
00000100
00000010
00000000
00000001
00000010
00000000
,
00000100
00010000
00001000
00010000
00000000
01000000
00100000
00000000
,
00010000
01000000
00100000
10000000
,
00010000
10000000
00100000
00000000
10000000
00010000
01000000
00000000
,
00100000
01000000
00001000
00000000
00010000
00000010
00001000
00000000
,
00000001
00000010
00001000
00000100
,
00001000
00000000
00000010
00000000
00000001
00000000
00000010
00000011
,
00000000
00000000
00000100
00000000
00010000
00001000
00000000
00011000
,
00000000
00000000
00100000
00000000
00010000
01000000
00000000
01010000
,
00000000
00000000
10000000
00000000
01000000
00100000
00000000
10010000
,
00000000
00000000
00000000
00000000
00000000
00000000
01000000
00100000
,
00000000
10000000
01000000
00000000
10000000
00100000
00010000
00000000
,
00010000
00001000
00000100
00000000
00000100
00000001
00000010
00000000
,
00000010
00001000
00010000
00000000
00010000
01000000
10000000
00000000
,
10000000
00100000
00010000
00000000
00010000
00001000
00000100
00000000
,
00000100
00000001
00000010
00000000
00000010
00001000
00010000
00000000
,
00010000
01000000
10000000
00000000
10000000
00100000
00010000
00000000
,
00010000
00001000
00000100
00000000
00000100
00000001
00000010
00000000
,
00000220
00000000
00000000
00000000
00000330
00000000
00000001
00001000
,
00000000
00000001
00000100
00000000
00000010
00000000
00010000
00001000
,
00000000
00100000
00010000
00000000
10000000
00100000
01000000
00000000
,
00100000
10000000
01000000
00010000
,
00001000
00000010
00000001
00000100
,
00000010
00001000
00000100
00000000
00000010
00000100
00001000
00000000
,
00000010
00010000
00001000
00000000
00100000
00010000
01000000
00000000
,
10000000
01000000
00010000
00100000
,
00001000
00010000
00001000
00011000
,
00000010
00000100
00000000
00000100
,
00000000
00000100
00000000
00000100
,
00001000
00000100
00000000
00000100
,
00000001
00000100
00000000
00000100
,
00001000
00010000
00000000
00010000
,
00000010
00010000
00000000
00010000
,
00000100
00010000
00000010
00010000
,
00001000
00000000
00000100
00000000
00000001
00000000
00000010
00000011
,
00000000
00000000
00000100
00000000
00010000
00001000
00000000
00011000
,
00000000
00000000
00100000
00000000
00010000
01000000
00000000
01010000
,
00000000
00000000
10000000
00000000
01000000
00100000
00000000
10010000
,
00000000
00000000
00100000
00000000
10000000
00010000
01000000
00000000
,
00100000
00000000
00010000
00000000
00001000
00010000
00001000
00000000
,
00000100
00000000
00000001
00000000
00001000
00000100
00001000
00000000
,
00000010
00010000
00001000
00000010
,
00000001
00000100
00001000
00001000
,
00010000
01000000
10000000
01000000
00000000
00100000
01000000
00000000
,
10000000
00100000
01000000
00100000
00000000
10000000
00100000
00000000
,
01000000
00001000
00010000
00001000
00000000
00000100
00000010
00000000
,
00001000
00000100
00000010
00000001
,
00001000
00000001
00000010
00000000
00000001
00001000
00000100
00000000
,
00000010
00000100
00010000
00000000
00001000
00100000
00010000
00000000
,
10000000
00100000
00010000
01000000
,
00010000
00000000
00100000
00000000
10000000
00000000
00100000
10100000
,
00000000
00000000
01000000
00000000
00001000
00010000
00000000
00011000
,
00000000
00000000
00000010
00000000
00001000
00000100
00000000
00001100
,
00000000
00000000
00000001
00000000
00000100
00000010
00000000
00001001
,
00000000
00000000
00000000
00000000
00000000
00000000
00000010
00001001
;

//---------------dance-double - ----------------
#NOTES:
     dance-double:
     :
     Challenge:
     13:
     0.593,0.727,0.296,0.043,0.029:
00000000
00000000
00000000
00000000
,
00000000
00000000
00000000
00000000
,
00000000
00000000
00000000
00000000
,
00000000
00000000
00000000
00000000
,
00000000
00000000
00000000
00000000
,
10000000
01000000
00100000
01000000
10000000
00010000
00100000
00001000
,
00010000
00000010
00000100
00000010
00001000
00000100
00000010
00000000
,
00000001
00000100
00001000
00000100
00000010
00000100
00000001
00000010
,
00000000
00000100
00010000
00001000
00100000
01000000
10000000
11000000
,
00000000
00010000
01000000
00100000
01000000
00010000
00000000
00110000
,
00000000
00010000
10000000
00100000
01000000
00001000
00010000
00011000
,
00000000
00000100
00010000
00000010
00001000
00000100
00000000
00000010
,
00000001
00001000
00000001
00001001
,
00000010
00000000
00000010
00000000
00000001
00000100
00002000
00000000
,
00010000
00000100
00010000
00003100
,
00010000
00000000
00010000
00000000
00100000
01000000
00020000
00000000
,
00100000
00001000
00100000
00031000
,
00100000
01000000
10000000
00000000
00100000
01000000
00010000
00000000
,
00100000
00001000
00010000
00000000
00000010
00001000
00000100
00000000
,
00000010
00000000
00000001
00000000
00001000
00000010
00000100
00000001
,
00001000
00000100
00000010
00001001
,
00020010
00000000
00031000
00000000
00000000
00000000
00000000
00100000
,
00000000
01000000
00010000
10000000
01000000
00100000
00010000
00000000
,
10020000
00000000
01030000
00000000
00000000
00000000
00000000
00100000
,
00000000
00010000
00001000
00100000
00010000
00001000
00000100
00000000
,
00000010
00000001
00000010
00000000
00000001
00000100
00000001
00000000
,
00000100
00001000
00000100
00000000
00001000
00010000
00001000
00000000
,
00100000
00010000
01000000
00001000
00100000
00010000
01000000
00100000
,
10000000
00010000
10000000
01100000
,
10000000
01000000
00010000
01000000
00000000
01000000
00010000
00001000
,
00000010
00000001
00000100
00000010
00000000
00000100
00000001
00001000
,
00000100
00010000
00001000
00100000
00000000
00010000
10000000
01000000
,
10000000
00100000
01000000
00100000
10000000
00010000
00100000
00000000
,
00001000
00010000
00001000
00000100
00000000
00000010
00010000
00001000
,
00000010
00000001
00000100
00000001
00000000
00001000
00000100
00000001
,
00000100
00000010
00001000
00010000
01000000
00100000
00010000
10000000
,
00000000
00100000
10000000
00100000
01000000
00010000
01000000
10100000
,
00000000
00000000
00110000
00000000
00001000
00010000
00000000
00011000
,
00000000
00000000
00001100
00000000
00000010
00000100
00000000
00000011
,
00000000
00000000
00000101
00000000
00000010
00000100
00000000
00011000
,
00000000
00000000
00110000
00000000
01000000
10000000
01000000
00000000
,
10000000
00000000
00010000
00000000
00100000
01000000
00100000
00000000
,
00010000
00000000
10000000
00000000
00100000
01000000
00100000
00000000
,
10000000
01000000
00010000
01000000
00010000
00001000
00010000
00001000
,
00000010
00000001
00001000
00000010
,
00000001
00000100
00001000
00000100
00000000
00000100
00001000
00010000
,
00100000
10000000
01000000
00100000
00000000
01000000
10000000
00010000
,
01000000
00001000
00010000
00000010
00000000
00001000
00000001
00000100
,
00000001
00000010
00000100
00000010
00000001
00001000
00000010
00000000
,
00010000
00001000
00010000
00100000
00010000
00100000
10000000
01000000
,
10000000
00010000
01000000
00010000
00100000
01000000
10000000
00000000
,
01000000
00000000
00010000
00000000
00001000
00000000
00000010
00000001
,
00000000
00001000
00000001
00000010
00000100
00001000
00000100
00000011
,
00000000
00000000
00001010
00000000
00010000
00001000
00000000
00011000
,
00000000
00000000
01010000
00000000
00100000
01000000
00000000
10100000
,
00000000
00000000
11000000
00000000
00100000
01000000
00000000
00011000
,
00000000
00000000
00000000
00000000
00000000
00000000
00000010
00000100
,
00000000
00000001
00001000
00000000
00000100
00000010
00000100
00000000
,
00010000
00001000
00010000
00000000
00100000
01000000
00100000
00000000
,
10000000
00010000
10000000
00000000
01000000
00100000
01000000
00000000
,
00010000
00001000
00010000
00000000
00000010
00000100
00000010
00000000
,
00001000
00000001
00001000
00000000
00000100
00000010
00000100
00000000
,
00010000
00001000
00010000
00000000
01000000
00100000
01000000
00000000
,
10000000
00010000
10000000
00000000
00100000
01000000
00100000
00000000
,
02200000
00000000
00000000
00000000
03300000
00000000
10000000
00010000
,
00000000
01000000
00100000
00000000
10000000
01000000
00010000
00001000
,
00000000
00100000
00001000
00000000
00000010
00000100
00001000
00000000
,
00000010
00010000
00000100
00000010
00000100
00010000
00000010
00000000
,
00000100
00000001
00000010
00000001
,
00001000
00000100
00000010
00000100
00010000
00001000
00100000
00010000
,
00100000
00001000
00010000
01000000
00100000
00010000
10000000
00000000
,
00010000
01000000
00100000
01000000
00010000
00100000
01000000
00100000
00010000
10000000
00100000
01000000
,
00010000
10000000
00010000
10010000
,
00100000
01000000
00000000
01000000
,
00000000
01000000
00000000
01000000
,
00010000
00001000
00000000
00001000
,
00010000
00001000
00000000
00001000
,
00000010
00000001
00000000
00000001
,
00001000
00000100
00000000
00000100
,
00000001
00000100
00001000
00000100
,
00000010
00000000
00000100
00000000
00000010
00000000
00000100
00000011
,
00000000
00000000
00001010
00000000
00010000
00001000
00000000
00011000
,
00000000
00000000
01010000
00000000
00100000
01000000
00000000
10100000
,
00000000
00000000
11000000
00000000
00100000
01000000
00000000
00011000
,
00000000
00000000
00001010
00000000
00000100
00000001
00000100
00000000
,
00000001
00000000
00001000
00000000
00000010
00000100
00000010
00000000
,
00001000
00000000
00000001
00000000
00000010
00000100
00000010
00000000
,
00000001
00000100
00001000
00000100
00001000
00010000
00001000
00010000
,
00100000
10000000
00010000
00100000
,
10000000
01000000
00010000
01000000
00000000
01000000
00010000
00001000
,
00000010
00000001
00000100
00000010
00000000
00000100
00000001
00001000
,
00000100
00010000
00001000
00100000
00000000
00010000
10000000
01000000
,
10000000
00100000
01000000
00100000
10000000
00010000
00100000
00000000
,
00001000
00010000
00001000
00000010
00001000
00000010
00000001
00000100
,
00000001
00001000
00000100
00001000
00000010
00000100
00000001
00000000
,
00000100
00000000
00001000
00000000
00010000
00000000
00100000
10000000
,
00000000
00010000
10000000
00100000
01000000
00010000
01000000
10100000
,
00000000
00000000
00110000
00000000
00001000
00010000
00000000
00011000
,
00000000
00000000
00001100
00000000
00000010
00000100
00000000
00000011
,
00000000
00000000
00000101
00000000
00000010
00000100
00000000
00011000
,
00000000
00000000
00000000
00000000
00000000
00000000
00100000
01100000
;

//---------------dance-double - ----------------
#NOTES:
     dance-double:
     :
     Edit:
     13:
     0.739,0.765,0.397,0.591,0.076: // measure 1
00000000
00000000
00000000
00000000
,  // measure 2
00000000
00000000
00000000
00000000
,  // measure 3
00000000
00000000
00000000
00000000
,  // measure 4
00000000
00000000
00000000
00000000
,  // measure 5
00000000
00000000
00000000
00000000
,  // measure 6
00000001
00000010
00000100
00000010
00000001
00001000
00000100
00010000
,  // measure 7
00001000
01000000
00100000
01000000
00010000
00100000
01000000
10000000
,  // measure 8
00100000
00010000
00100000
01000000
00100000
10000000
01000000
00200000
,  // measure 9
00300000
00001000
00010000
00000100
00000010
00000001
00000100
00000102
,  // measure 10
00000000
00001003
00000010
00000100
00000010
00001000
00000000
00001200
,  // measure 11
00000000
00001300
00000001
00000100
00000010
00010000
00001000
00012000
,  // measure 12
00000000
00103000
00001000
01000000
00010000
00100000
00000000
02000000
,  // measure 13
00000000
00000000
10000000
00000000
00010000
00000000
13000000
00010000
,  // measure 14
00000000
00000000
10010000
00000000
10000000
00100000
00020000
00001000
,  // measure 15
00000000
00100000
00000000
00001000
00000000
00000000
00030000
00011000
,  // measure 16
00000000
00000000
00001000
00000000
00000100
00000010
00002000
00000100
,  // measure 17
00000000
00010000
00000000
00000100
00000000
00000000
00003000
00000000
,  // measure 18
00010100
00000010
00000001
00000000
00000100
00000010
00001000
00000000
,  // measure 19
00001100
00010000
00001000
00000000
01000000
00010000
00100000
00000000
,  // measure 20
01100000
10000000
01010000
00100000
,  // measure 21
10010000
00010000
00100000
00000000
01000000
10000000
00010000
00100000
,  // measure 22
01002000
00000000
00013000
00000000
00000100
00000010
00001000
00000002
,  // measure 23
00000000
00000023
00000230
00001300
,  // measure 24
00002001
00000000
00003010
00000000
00000100
00001000
00010000
00000200
,  // measure 25
00000000
00002300
00023000
00230000
,  // measure 26
01300000
10000000
00100000
00010000
00001000
00010000
00100000
10000000
,  // measure 27
00000000
00100000
00010000
00001000
00010000
00000100
00001000
00000010
,  // measure 28
00010000
00000100
00001000
00000010
00000100
00000001
00000010
00000100
,  // measure 29
00020000
00000000
00000000
00000000
00032000
00000000
00000000
00000000
00003010
00000000
00000001
00000010
00000001
00000000
00000100
00000000
,  // measure 30
00000001
00000010
00001000
00000010
00000001
00000010
00001000
00010000
,  // measure 31
01000000
10000000
00100000
01000000
00100000
10000000
00010000
00100000
,  // measure 32
00001000
00010000
00000100
00001000
00000001
00000010
00000001
00000100
,  // measure 33
00000010
00000100
00000001
00001000
00000100
00010000
00001000
00010000
,  // measure 34
00100000
01000000
00001000
00010000
01000000
10000000
00100000
10000000
,  // measure 35
00010000
00100000
10000000
00100000
01000000
00010000
00001000
00000010
,  // measure 36
00000100
00010000
00000010
00001000
00000100
00010000
00000010
00002020
,  // measure 37
00000000
00003030
00001001
00000000
00000100
00000001
00000010
00000202
,  // measure 38
00000000
00000303
00001100
00000000
00010000
00001000
00010000
00022000
,  // measure 39
00000000
00033000
00110000
00000000
01000000
00100000
10000000
22000000
,  // measure 40
00000000
33000000
10100000
00000000
02000000
00000000
03100000
00022000
,  // measure 41
00000000
00033000
00000200
00000000
00020300
00000000
00032000
00000000
,  // measure 42
00003010
00000001
00000010
00000001
00001000
00000100
00000000
00000010
,  // measure 43
00000000
00000100
00001000
00000001
00000100
00000010
00000100
00000001
,  // measure 44
00000010
00001000
00010000
01000000
10000000
00100000
00010000
00001000
,  // measure 45
00011000
00110000
10100000
11000000
,  // measure 46
10000000
00100000
00010000
00100000
01000000
00100000
00010000
00001000
,  // measure 47
00000100
00000001
00000010
00000100
00000010
00000001
00001000
00000010
,  // measure 48
00010000
00001000
01000000
00010000
10000000
00100000
10000000
01000000
,  // measure 49
00100000
01000000
10000000
00010000
01000000
00001000
00010000
00001000
,  // measure 50
00000100
00000100
00001000
00000100
00000100
00000001
00000010
00000010
,  // measure 51
00000001
00001000
00001000
00000010
00001000
00001000
00000100
00000010
,  // measure 52
00000001
00000010
00001000
00010000
01000000
10000000
00010000
10000000
,  // measure 53
00000000
01000000
00100000
00000000
00010000
00100000
01000000
22000000
,  // measure 54
00000000
33000000
01010000
00000000
00001000
00010000
00001000
00022000
,  // measure 55
00000000
00033000
00001010
00000000
00000100
00000010
00000001
00000202
,  // measure 56
00000000
00000303
00000011
00000000
00000100
00000010
00000000
00022000
,  // measure 57
00033000
00000000
00000000
00000000
00000000
00000000
01100000
10010000
,  // measure 58
00000000
10000000
00010000
00100000
00000000
01000000
00100000
00001000
,  // measure 59
00000000
00010000
00001000
00000100
00000000
00000010
00000100
00000001
,  // measure 60
00000000
00001000
00000001
00000010
00000000
00000100
00000010
00001000
,  // measure 61
00000000
00010000
00001000
01000000
00000000
00100000
01000000
00010000
,  // measure 62
00000000
10000000
00010000
00100000
00000000
01000000
00100000
00001000
,  // measure 63
00000000
00010000
00001000
00000010
00000000
00000100
00000010
00000001
,  // measure 64
00000000
00001000
00000001
00000100
00000000
00000010
00000100
00000001
,  // measure 65
00000200
00000000
00000010
00000000
00000010
00000000
00000310
00002000
,  // measure 66
00000000
00003010
00000100
00000002
00000000
00000013
00001000
00010000
,  // measure 67
00000100
00010000
01000000
00100000
00010000
01000000
00001000
00100000
,  // measure 68
01000000
00100000
00001000
01000000
00100000
10000000
01000000
10000000
,  // measure 69
00010000
00000000
00100000
01000000
00000000
00100000
00001000
00000000
00010000
00000100
00000000
00001000
00000100
00000000
00010000
00000000
,  // measure 70
00001000
00000010
00000100
00001000
00000001
00000010
00001000
00010000
,  // measure 71
00100000
10000000
00100000
00010000
00001000
00000010
00000001
00000100
,  // measure 72
00000001
00000010
00000100
00010000
00000100
00000010
00000001
00000010
00000100
00001000
00000100
00000010
,  // measure 73
00000001
00000000
00000000
00000000
00001000
00000000
00000000
00000000
00000001
00000000
00000010
00000001
00000010
00000000
00000100
00000000
,  // measure 74
00002002
00000000
00000000
00000000
,  // measure 75
00000000
00000000
00000000
00003000
,  // measure 76
00000003
00000000
00000020
00002030
,  // measure 77
00023000
00000000
02030000
00000000
23000000
00000000
30020000
00200000
,  // measure 78
00000000
00000000
00030000
00000000
,  // measure 79
00020000
00000000
00300000
00000000
,  // measure 80
20030000
00000000
30020000
00000000
,  // measure 81
02030000
00000000
03020000
00000000
20030000
00000000
30100000
22000000
,  // measure 82
00000000
33000000
01010000
00000000
00001000
00010000
00001000
00022000
,  // measure 83
00000000
00033000
00001010
00000000
00000100
00000010
00000001
00000202
,  // measure 84
00000000
00000303
00000011
00000000
00000200
00000000
00000310
00022000
,  // measure 85
00000000
00033000
00002000
00000000
02003000
00000000
03200000
00000000
,  // measure 86
10300000
00100000
10000000
00010000
01000000
00100000
00000000
01000000
,  // measure 87
00000000
00010000
10000000
01000000
00100000
01000000
10000000
00100000
,  // measure 88
00010000
00001000
00000100
00000001
00000010
00001000
00010000
00001000
,  // measure 89
00001010
00000011
00000101
00000011
,  // measure 90
00000001
00000010
00001000
00000010
00000001
00000010
00001000
00010000
,  // measure 91
01000000
00000000
10000000
00000000
00100000
00000000
01000000
00000000
00100000
10000000
00010000
00000000
00100000
00000000
00001000
00000000
,  // measure 92
00010000
00000100
00001000
00000001
00000010
00000001
00000100
00000010
,  // measure 93
00000100
00000000
00000001
00000000
00001000
00000000
00000100
00000000
00010000
00001000
00010000
00000000
01000000
00000000
00010000
00000000
,  // measure 94
01000000
00000000
10000000
00100000
10000000
00000000
00010000
00000000
00100000
00010000
01000000
00000000
00100000
00000000
10000000
00100000
,  // measure 95
00010000
00000000
00001000
00000000
00000100
00000001
00001000
00000000
00000001
00000000
00000100
00000010
00001000
00000000
00000010
00000000
,  // measure 96
00000100
00000001
00000010
00001000
00010000
01000000
10000000
02000000
,  // measure 97
00000000
03010000
00000200
00000000
00010300
00000010
00001000
00000202
,  // measure 98
00000000
00000303
00001100
00000000
00010000
00001000
00010000
00022000
,  // measure 99
00000000
00033000
00110000
00000000
01000000
00100000
10000000
22000000
,  // measure 100
00000000
33000000
10100000
00000000
01000000
00100000
00000000
00022000
,  // measure 101
00033000
00000000
00000000
00000000
00000000
00000000
00001001
00000220
,  // measure 102
00000000
00000330
00000000
00000000
00000000
00000000
00000000
00000000
00000000
00000000
00000000
00000000
00000000
00000000
00000000
00000000
;
