#TITLE:KUNG FU FIGHTING;
#SUBTITLE:(MIAMI BOOTY MIX);
#ARTIST:BUS STOP feat. CARL DOUGLAS;
#TITLETRANSLIT:;
#SUBTITLETRANSLIT:;
#ARTISTTRANSLIT:;
#CREDIT:;
#BANNER:KUNG FU FIGHTING (MIAMI BOOTY MIX).png;
#BACKGROUND:KUNG FU FIGHTING (MIAMI BOOTY MIX)-bg.png;
#LYRICSPATH:;
#CDTITLE:Dance Dance Revolution Solo.png;
#MUSIC:KUNG FU FIGHTING (MIAMI BOOTY MIX).ogg;
#OFFSET:0.000;
#SAMPLESTART:15.764;
#SAMPLELENGTH:15.000;
#SELECTABLE:YES;
#DISPLAYBPM:116.000;
#BPMS:0.000=116.090;
#STOPS:;
#BGCHANGES:;

//---------------dance-single - ----------------
#NOTES:
     dance-single:
     :
     Easy:
     2:
     0.182,0.210,0.163,0.000,0.000:
0000
0000
0000
0000
,
0000
0000
0000
0000
,
0000
0000
0000
0000
,
0000
0000
0000
0000
,
0000
0010
0000
0001
,
0000
0010
0000
1000
,
0000
0010
0000
1001
,
0010
0000
1001
0000
,
0000
0000
0010
0100
,
1001
0000
0000
0000
,
0000
0000
0010
0100
,
1001
0000
0000
0000
,
0000
0000
0010
0100
,
1001
0000
0000
0000
,
0000
0000
0010
0100
,
1001
0000
0000
0000
,
0010
0010
0001
0000
,
1000
1000
0100
0000
,
0010
1000
0100
0000
,
0010
0001
0100
0000
,
1000
0010
0001
0000
,
0001
1000
0001
0000
,
0001
0010
1000
0000
,
1000
0001
0100
0000
,
0010
1000
0100
0001
,
0001
0100
1000
0010
,
0010
1000
0100
0001
,
0001
0100
1000
0010
,
0010
1000
0100
0001
,
0001
0100
1000
0010
,
0000
0000
0000
0000
,
1001
1001
0100
0010
,
0000
0000
0001
1000
,
1001
0010
0001
0000
,
0000
0000
1000
0001
,
1001
0010
1000
0000
,
0000
0010
0100
0001
,
1001
0100
0100
0000
,
0000
0010
0100
1000
,
1001
0100
0100
1001
,
0000
0010
0000
1000
,
0000
0001
0000
1000
,
0000
1001
0000
0010
,
1001
0000
0000
0000
;

//---------------dance-single - ----------------
#NOTES:
     dance-single:
     :
     Medium:
     6:
     0.345,0.397,0.250,0.000,0.000:
0000
0000
0000
0000
,
0000
0000
0000
0000
,
0000
0000
0000
0000
,
0000
0000
0000
0000
,
0100
0100
1001
0000
0100
0100
1001
0000
,
0100
0100
1001
0000
0100
0100
1001
0000
,
1000
0001
1000
0001
1000
0001
1000
0000
,
1000
0001
1000
0000
0001
0100
0001
0000
,
1000
0000
0010
1000
0001
0000
0010
0001
,
1000
0000
1001
0000
,
0001
0000
0010
0001
1000
0000
0010
1000
,
0001
0000
1001
0000
,
0110
1000
0110
1000
,
1001
0000
1001
0000
,
0110
0001
0110
0001
,
1001
0000
0000
0000
,
0100
0000
0100
0001
0100
0001
0010
0000
,
0100
0000
0100
1000
0100
1000
0010
0000
,
0100
0001
0100
0001
0100
0100
0100
0000
,
0010
1000
0010
1000
0100
0100
0100
0000
,
1000
0000
1000
0001
1000
0100
0100
0000
,
1000
0000
1000
0001
1000
0100
0100
0000
,
0010
0100
0010
0001
0010
0001
0100
0000
,
0010
0100
0010
1000
0010
1000
0100
0000
,
0010
0001
0000
0100
0010
0000
1000
0000
,
1000
0100
0001
0000
0100
0000
0100
0000
,
0010
0001
0100
0000
0001
0010
0001
0000
,
0010
0001
0100
0000
0010
1000
0010
0000
,
0010
1000
0100
0000
1000
0000
1000
0000
,
0001
0100
1000
0000
0010
0000
0010
0000
,
0010
0100
0010
0000
1000
0001
1000
0000
,
1001
0000
1001
0000
0100
0100
0100
0000
,
0010
0100
0001
0000
0010
0100
0010
0000
,
1001
0000
0110
0000
,
0010
0100
0001
0000
0010
0100
0010
0000
,
1001
0000
0110
0000
,
0100
0001
0100
0001
0100
0001
0100
0001
,
0001
0000
1001
0000
,
0100
1000
0100
1000
0100
1000
0100
1000
,
1000
0000
0000
0000
,
0100
1000
0010
0000
0100
0001
0010
0000
,
0100
0000
0010
0000
0001
0100
1000
0000
,
1000
0100
0001
0000
0101
0000
1100
0000
,
1001
0000
0000
0000
;

//---------------dance-single - ----------------
#NOTES:
     dance-single:
     :
     Hard:
     7:
     0.416,0.444,0.446,0.000,0.043:
0000
0000
0000
0000
,
0000
0000
0000
0000
,
0000
0000
0000
0000
,
0000
0000
0000
0000
,
0001
1000
0110
0000
0001
1000
0110
0000
,
0001
1000
0110
0000
0001
1000
0110
0000
,
0001
1000
0110
0000
0001
1000
1100
0000
,
0011
0110
1001
0000
,
0010
0001
0010
1000
,
0110
0000
0000
0101
1100
0000
0000
0000
,
0010
1000
0010
0001
,
0110
0000
0000
1100
0101
0000
0000
0000
,
0010
0001
1000
0001
1000
0001
1000
0010
,
1001
0000
0000
0110
0101
0000
0000
0000
,
0010
1000
0001
1000
0001
1000
0001
0010
,
1001
0000
0000
0100
0100
0000
0000
0000
,
1000
0001
0010
0000
0001
1000
0010
0000
,
1000
0001
0100
0000
0001
1000
0100
0000
,
0100
1000
0100
1000
0100
0000
0100
0000
0100
0000
1000
0000
0010
0000
0000
0000
,
0100
0001
0100
0001
0100
0000
0100
0000
0100
0000
0001
0000
0100
0000
0000
0000
,
0010
0100
0001
0001
,
0010
0100
1000
1000
,
0100
1000
0100
1000
0100
0000
0100
0000
0100
0000
1000
0000
0010
0000
0000
0000
,
0100
0001
0100
0001
0100
0000
0100
0000
0100
0000
0001
0000
0010
0000
0000
0000
,
0100
0010
0001
1000
0100
0010
0001
1000
,
0100
0010
0001
1000
0100
0010
0001
1000
,
0010
0100
0001
1000
0010
0100
0001
1000
,
0010
0100
0001
1000
0010
0100
0001
0010
,
0100
1000
1010
0000
1000
0001
1000
0001
,
0001
0100
0110
0000
0001
1000
0001
1000
,
0001
1000
0100
0010
0001
1000
0100
0010
,
1001
0000
1001
0001
0001
0001
0001
1000
,
0001
1000
0011
0110
,
1001
0000
0000
0100
0100
0000
0000
0000
,
0001
1000
0101
0110
,
1001
0000
0000
0010
0010
0000
0000
0000
,
1100
1001
0110
1001
,
1001
0000
0100
0001
1000
0000
0000
0000
,
0011
1100
0110
1000
,
1001
0000
0001
0100
1000
0000
1001
0000
,
0100
0010
0001
1000
0100
0010
0001
1000
,
0100
0010
0001
1000
0100
0010
0001
0100
,
1000
0000
0100
0001
0001
0000
1001
0000
,
1001
0000
0000
0000
;

//---------------dance-solo - ----------------
#NOTES:
     dance-solo:
     :
     Easy:
     3:
     0.182,0.210,0.163,0.000,0.000:
000000
000000
000000
000000
,
000000
000000
000000
000000
,
000000
000000
000000
000000
,
000000
000000
000000
000000
,
000000
000010
000000
000001
,
000000
010000
000000
100000
,
000000
000100
000000
100001
,
000100
000000
010010
000000
,
000000
000000
000100
000010
,
100001
000000
000000
000000
,
000000
000000
000100
010000
,
100001
000000
000000
000000
,
000000
000000
000100
000010
,
100001
000000
000000
000000
,
000000
000000
000100
010000
,
100001
000000
000000
000000
,
000100
000100
000001
000000
,
100000
100000
001000
000000
,
010000
100000
001000
000000
,
000010
000001
001000
000000
,
100000
000100
000001
000000
,
000001
100000
000001
000000
,
000001
000100
100000
000000
,
100000
000001
001000
000000
,
000100
100000
001000
000001
,
000001
001000
100000
000100
,
000100
100000
001000
000001
,
000001
001000
100000
000100
,
000100
100000
001000
000001
,
000001
001000
100000
000100
,
000000
000000
000000
000000
,
010010
100001
001000
000100
,
000000
000000
000001
100000
,
010010
000010
000010
000000
,
000000
000000
100000
000001
,
010010
010000
010000
000000
,
000000
000100
001000
000001
,
100001
001000
001000
000000
,
000000
000100
001000
100000
,
100001
001000
001000
100001
,
000000
000010
000000
010000
,
000000
000010
000000
010000
,
000000
010010
000000
000100
,
100001
000000
000000
000000
;

//---------------dance-solo - ----------------
#NOTES:
     dance-solo:
     :
     Medium:
     7:
     0.387,0.397,0.478,0.000,0.000:
000000
000000
000000
000000
,
000000
000000
000000
000000
,
000000
000000
000000
000000
,
000000
000000
000000
000000
,
001000
001000
100001
000000
001000
001000
100001
000000
,
001000
001000
100001
000000
001000
001000
100001
000000
,
100000
000001
010000
000010
100000
000001
100001
000000
,
100000
000001
100000
000000
000001
001000
000010
000000
,
100000
000000
010000
100000
000001
000000
000010
000001
,
100001
000000
000000
001001
101000
000000
000000
000000
,
000001
000000
000010
000001
100000
000000
010000
100000
,
100001
000000
000000
101000
001001
000000
000000
000000
,
001100
110000
001100
110000
,
100001
000000
000000
001001
101000
000000
000000
000000
,
001100
000011
001100
000011
,
100001
000000
000000
000000
,
001000
000000
001000
000001
001000
000010
000010
000000
,
001000
000000
001000
100000
001000
010000
010000
000000
,
000001
000010
000001
000100
001000
001000
001000
000000
,
100000
010000
100000
000100
001000
001000
001000
000000
,
100000
000000
100000
000001
100000
001000
001000
000000
,
000001
000000
000001
100000
000001
001000
001000
000000
,
000100
001000
000100
100000
000100
010000
010000
000000
,
000100
001000
000100
000001
000100
000010
000010
000000
,
000100
100000
000000
001000
000001
000000
000001
000000
,
000001
001000
100000
000000
000100
000000
000100
000000
,
000100
100000
001000
000000
000001
000010
000001
000000
,
000100
000001
001000
000000
100000
010000
100000
000000
,
000100
100000
001000
000000
000001
000000
000001
000000
,
000001
001000
100000
000000
000100
000000
000100
000000
,
000100
001000
000100
000000
100000
000001
100000
000000
,
010010
000000
100001
000000
001000
001000
001000
000000
,
000100
000010
000001
000000
000101
000110
000101
000000
,
100001
000000
000000
001001
101000
000000
000000
000000
,
000100
010000
100000
000000
100100
010100
100100
000000
,
100001
000000
000000
101000
001001
000000
000000
000000
,
001000
000010
001000
000001
001000
000010
001000
000001
,
100001
000000
000000
001100
100001
000000
000000
000000
,
001000
010000
001000
100000
001000
010000
001000
100000
,
100001
000000
000000
000000
,
001000
000001
000010
000000
001000
100000
010000
000000
,
001000
000000
000010
000000
000001
001000
100000
000000
,
100000
001000
000001
000000
001001
000000
101000
000000
,
100001
000000
000000
000000
;

//---------------dance-solo - ----------------
#NOTES:
     dance-solo:
     :
     Hard:
     8:
     0.441,0.608,0.620,0.000,0.043:
000000
000000
000000
000000
,
000000
000000
000000
000000
,
000000
000000
000000
000000
,
000000
000000
000000
000000
,
000011
110000
001010
000000
000011
110000
011000
000000
,
000011
110000
001010
000000
000011
110000
011000
000000
,
000011
110000
001010
000000
000011
110000
011000
000000
,
000110
010100
100001
000000
,
000100
000010
000100
010000
,
001010
000000
000000
001001
101000
000000
000000
000000
,
000100
010000
000100
000010
,
011000
000000
000000
101000
001001
000000
000000
000000
,
000100
000010
010000
000010
100000
000001
010000
000010
,
100001
000000
000000
011000
001010
000000
000000
000000
,
000100
010000
000010
010000
000001
100000
000010
010000
,
100001
000000
000000
001000
001000
000000
000000
000000
,
100000
000001
000100
000000
000001
100000
000100
000000
,
100000
000001
001000
000000
000001
100000
001000
000000
,
001000
100000
001000
100000
001000
000000
001000
000000
001000
000000
010000
000000
010000
000000
000000
000000
,
001000
100000
001000
100000
001000
000000
001000
000000
001000
000000
010000
000000
010000
000000
000000
000000
,
000100
001000
000001
000001
,
000100
001000
100000
100000
,
001000
000001
001000
000001
001000
000000
001000
000000
001000
000000
000010
000000
000010
000000
000000
000000
,
001000
000001
001000
000001
001000
000000
001000
000000
001000
000000
000010
000000
000010
000000
000000
000000
,
001000
000100
100000
000010
001000
000100
100000
000010
,
001000
000100
100000
000010
001000
000100
100000
000010
,
001000
000100
000001
010000
001000
000100
000001
010000
,
001000
000100
000001
010000
001000
000100
000001
010000
,
100000
010000
100100
000000
100000
000010
100000
000001
,
000001
000010
000101
000000
000001
010000
000001
100000
,
000001
100000
001000
000100
000010
010000
001000
000100
,
010010
000000
100001
000001
000001
000001
000001
100000
,
000011
110000
000110
010100
,
100001
000000
000000
001000
001000
000000
000000
000000
,
000011
110000
001010
011000
,
100001
000000
000000
000100
000100
000000
000000
000000
,
011000
100001
001100
100001
,
010010
000000
001000
000001
100000
000000
000000
000000
,
000101
101000
001100
100000
,
100001
000000
000001
001000
100000
000000
100001
000000
,
001000
000100
100000
000010
001000
000100
100000
000010
,
001000
000100
000001
010000
001000
000100
000001
010000
,
100000
000000
001000
100000
000001
000000
100001
000000
,
010010
000000
000000
000000
;

//---------------dance-double - Edit by silenttype01----------------
#NOTES:
     dance-double:
     Edit by silenttype01:
     Easy:
     3:
     0.137,0.165,0.109,0.000,0.000: // measure 1
00000000
00000000
00000000
00000000
,  // measure 2
00000000
00000000
00000000
00000000
,  // measure 3
00000000
00000000
00000000
00000000
,  // measure 4
00000000
00000000
00000000
00000000
,  // measure 5
00000000
00000100
00000000
00000100
,  // measure 6
00000000
00000100
00000000
00000100
,  // measure 7
00000000
00000100
00000000
00000100
,  // measure 8
00001001
00000000
00000000
00000000
,  // measure 9
00000100
00000000
00000010
00000000
,  // measure 10
00001001
00000000
00000000
00000000
,  // measure 11
00010000
00000000
00001000
00000000
,  // measure 12
00011000
00000000
00000000
00000000
,  // measure 13
01000000
00000000
00100000
00000000
,  // measure 14
10010000
00000000
00000000
00000000
,  // measure 15
00001000
00000000
00010000
00000000
,  // measure 16
00011000
00000000
00000000
00000000
,  // measure 17
01000000
00000000
10000000
00000000
,  // measure 18
00010000
00000000
00100000
00000000
,  // measure 19
01000000
00000000
00100000
00000000
,  // measure 20
00001000
00000000
00100000
00000000
,  // measure 21
00001000
00000000
00010000
00000000
,  // measure 22
00000010
00000000
00010000
00000000
,  // measure 23
00000100
00000000
00001000
00000000
,  // measure 24
00000001
00000000
00000010
00000000
,  // measure 25
00000100
00000100
00000010
00000000
,  // measure 26
00000010
00000010
00001000
00000000
,  // measure 27
00001000
00001000
00010000
00000000
,  // measure 28
00010000
00010000
00100000
00000000
,  // measure 29
01000000
00100000
10000000
00000000
,  // measure 30
00010000
00100000
01000000
00000000
,  // measure 31
00100000
00001000
00010000
00000000
,  // measure 32
00000010
00001000
00000100
00000000
,  // measure 33
00000010
00000000
00000100
00000000
,  // measure 34
00001001
00000000
00000000
00000000
,  // measure 35
00010000
00000000
00001000
00000000
,  // measure 36
00011000
00000000
00000000
00000000
,  // measure 37
01000000
00000000
00100000
00000000
,  // measure 38
10010000
00000000
00000000
00000000
,  // measure 39
00001000
00000000
00010000
00000000
,  // measure 40
00011000
00000000
00000000
00000000
,  // measure 41
00000000
01000000
00000000
00010000
,  // measure 42
00000000
01000000
00000000
10000000
,  // measure 43
00000000
01000000
00000000
00010000
,  // measure 44
00000000
00000000
00011000
00000000
;

//---------------dance-double - Edit by silenttype01----------------
#NOTES:
     dance-double:
     Edit by silenttype01:
     Medium:
     6:
     0.321,0.355,0.239,0.000,0.000: // measure 1
00000000
00000000
00000000
00000000
,  // measure 2
00000000
00000000
00000000
00000000
,  // measure 3
00000000
00000000
00000000
00000000
,  // measure 4
00000000
00000000
00000000
00000000
,  // measure 5
00000010
00010000
00001000
00000000
00100000
00001000
00010000
00000000
,  // measure 6
00000010
00010000
00001000
00000000
00100000
00001000
00010000
00000000
,  // measure 7
00001000
00010000
00011000
00000000
00010000
00001000
00011000
00000000
,  // measure 8
00011000
00000000
00000000
00000000
,  // measure 9
00010000
00000000
01000000
00010000
10000000
00000000
01000000
00010000
,  // measure 10
10000000
00000000
10010000
00000000
,  // measure 11
10000000
00000000
01000000
10000000
00010000
00000000
01000000
10000000
,  // measure 12
00010000
00000000
10010000
00000000
,  // measure 13
01100000
10000000
01100000
00010000
,  // measure 14
00011000
00000000
00011000
00000000
,  // measure 15
00000110
00001000
00000110
00000001
,  // measure 16
00001001
00000000
00000000
00000000
,  // measure 17
00000010
00000000
00000010
00001000
00000010
00001000
00000100
00000000
,  // measure 18
00000010
00000000
00000010
00000001
00000010
00000001
00000100
00000000
,  // measure 19
00000010
00010000
00000010
00010000
00001000
00001000
00001000
00000000
,  // measure 20
01000000
00010000
01000000
00010000
00100000
00100000
00100000
00000000
,  // measure 21
00010000
00000000
00010000
10000000
00010000
10000000
00100000
00000000
,  // measure 22
00010000
00000000
00010000
00001000
00010000
00001000
00000010
00000000
,  // measure 23
00000100
00000010
00000100
00001000
00000001
00000001
00000001
00000000
,  // measure 24
00000100
00000010
00000100
00000001
00001000
00001000
00001000
00000000
,  // measure 25
00000100
00001000
00000010
00000000
00000100
00000000
00000001
00000000
,  // measure 26
00000001
00000010
00001000
00000000
00010000
00000000
00010000
00000000
,  // measure 27
00000100
00010000
00000010
00000000
00010000
00000000
00010000
00000000
,  // measure 28
00001000
01000000
00100000
00000000
10000000
00000000
10000000
00000000
,  // measure 29
01000000
10000000
00100000
00000000
10000000
00000000
10000000
00000000
,  // measure 30
00100000
00010000
00001000
00000000
00010000
00000000
00010000
00000000
,  // measure 31
00000100
00000010
00000100
00000000
00001000
00000000
00000001
00000000
,  // measure 32
00001000
00000010
00001000
00000000
00000010
00000000
00000010
00000000
,  // measure 33
00001000
00000000
00000100
00001000
00000001
00000000
00000100
00001000
,  // measure 34
00000001
00000000
00001001
00000000
,  // measure 35
00000001
00000000
00000100
00000001
00001000
00000000
00000100
00000001
,  // measure 36
00001000
00000000
00001001
00000000
,  // measure 37
00000110
00000001
00000110
00001000
,  // measure 38
00011000
00000000
00011000
00000000
,  // measure 39
01100000
00010000
01100000
10000000
,  // measure 40
10010000
00000000
00000000
00000000
,  // measure 41
00100000
00001000
00010000
00000000
00100000
00001000
00010000
00000000
,  // measure 42
00100000
00000000
00010000
00000000
10000000
00100000
00010000
00000000
,  // measure 43
00000010
00010000
00001000
00000000
00000010
00010000
00001000
00000000
,  // measure 44
00000010
00010000
00011000
00000000
;

//---------------dance-double - Edit by silenttype01----------------
#NOTES:
     dance-double:
     Edit by silenttype01:
     Hard:
     7:
     0.422,0.449,0.478,0.000,0.049: // measure 1
00000000
00000000
00000000
00000000
,  // measure 2
00000000
00000000
00000000
00000000
,  // measure 3
00000000
00000000
00000000
00000000
,  // measure 4
00000000
00000000
00000000
00000000
,  // measure 5
00001000
00000001
00000110
00000000
00001000
00000001
00000110
00000000
,  // measure 6
00001000
00000001
00000110
00000000
00001000
00000001
00000110
00000000
,  // measure 7
00001000
00000001
00000110
00000000
00001000
00000001
00000011
00000000
,  // measure 8
00001100
00000000
00001001
00000000
,  // measure 9
00000100
00001000
01000000
00010000
,  // measure 10
01100000
00000000
00000000
10100000
00110000
00000000
00000000
00000000
,  // measure 11
01000000
00010000
00000100
00001000
,  // measure 12
00000110
00000000
00000000
00000011
00001010
00000000
00000000
00000000
,  // measure 13
00000100
00000001
00001000
00000001
00001000
00000001
00001000
00000100
,  // measure 14
00001001
00000000
00000000
00000110
00000011
00000000
00000000
00000000
,  // measure 15
00000100
00001000
00000001
00001000
00000001
00001000
00000001
00000100
,  // measure 16
00001001
00000000
00000000
00000010
00000010
00000000
00000000
00000000
,  // measure 17
00000001
00001000
00000100
00000000
00001000
00000001
00000100
00000000
,  // measure 18
00000010
00010000
00000010
00000000
00010000
00001000
00010000
00000000
,  // measure 19
00010000
00001000
00010000
00001000
00010000
00000000
00010000
00000000
00010000
00000000
00001000
00000000
01000000
00000000
00000000
00000000
,  // measure 20
00100000
10000000
00100000
10000000
00100000
00000000
00100000
00000000
00100000
00000000
10000000
00000000
00100000
00000000
00000000
00000000
,  // measure 21
01000000
00100000
10000000
10000000
,  // measure 22
01000000
00100000
00001000
00001000
,  // measure 23
00010000
00001000
00010000
00001000
00010000
00000000
00010000
00000000
00010000
00000000
00000100
00000000
00001000
00000000
00000000
00000000
,  // measure 24
00000010
00001000
00000010
00001000
00000010
00000000
00000010
00000000
00000010
00000000
00001000
00000000
00000100
00000000
00000000
00000000
,  // measure 25
00000010
00000100
00001000
00000001
00000010
00000100
00001000
00010000
,  // measure 26
00100000
01000000
10000000
00010000
00100000
01000000
10000000
00010000
,  // measure 27
10000000
01000000
00100000
00010000
10000000
01000000
00100000
00010000
,  // measure 28
00001000
00000100
00000010
00000001
00001000
00000100
00000010
00000001
,  // measure 29
00001000
00000001
00000101
00000000
00000001
00001000
00000001
00001000
,  // measure 30
00001000
00000010
00000110
00000000
00001000
00000001
00001000
00000001
,  // measure 31
00001000
00000001
00000010
00000100
00001000
00010000
00100000
01000000
,  // measure 32
10010000
00000000
10010000
10000000
10000000
10000000
10000000
00010000
,  // measure 33
10000000
00010000
11000000
01100000
,  // measure 34
10010000
00000000
00000000
10100000
00110000
00000000
00000000
00000000
,  // measure 35
00010000
00001000
00000011
00000110
,  // measure 36
00001001
00000000
00000000
00000011
00001010
00000000
00000000
00000000
,  // measure 37
00000011
00001001
00000110
00001001
,  // measure 38
00011000
00000000
00000010
00001000
00010000
00000000
00000000
00000000
,  // measure 39
11000000
00110000
01100000
00010000
,  // measure 40
10010000
00000000
00010000
00100000
10000000
00000000
01100000
00000000
,  // measure 41
01000000
00100000
00010000
10000000
01000000
00100000
00010000
00001000
,  // measure 42
00000100
00000010
00000001
00001000
00000100
00000010
00000001
00000100
,  // measure 43
00001000
00000000
00000100
00000001
00000001
00001000
00000000
00000000
,  // measure 44
00000000
00000000
00001001
00000000
00000000
00000010
00000000
00000000
00001001
00000000
00000000
00000000
00000000
00000000
00000000
00000000
;

//---------------dance-double - Edit by silenttype01----------------
#NOTES:
     dance-double:
     Edit by silenttype01:
     Challenge:
     8:
     0.498,0.520,0.337,0.033,0.326: // measure 1
00000000
00000000
00000000
00000000
,  // measure 2
00000000
00000000
00000000
00000000
,  // measure 3
00000000
00000000
00000000
00000000
,  // measure 4
00000000
00000000
00000000
00000000
,  // measure 5
00000001
00000010
00000M00
00001100
00001100
00001100
00001001
00000000
,  // measure 6
00001000
00000010
00000M00
00000101
00000101
00000101
00001001
00000000
,  // measure 7
00000010
00000100
000000M0
00001001
00001001
00001001
00000110
00000000
,  // measure 8
00001001
00000000
00000000
00000000
00000000
00000000
00000000
00000000
00000100
00000000
00000010
00000000
00000100
00000010
00000100
00000000
,  // measure 9
00000010
00000000
00000000
00000010
00000001
00000000
00000000
00000001
00000010
00000000
00000000
00000000
00000011
00000000
00000000
00000000
,  // measure 10
00000001
00001000
00000001
00001000
00000001
00000000
00000001
00000000
00001000
00000000
00001000
00000000
00000001
00000000
00000000
00000000
,  // measure 11
00000010
00000000
00000000
00000010
00001000
00000000
00000000
00001000
00010000
00000000
00000000
00000000
00010010
00000000
00000000
00000000
,  // measure 12
00011000
00000000
00001000
00010000
00001000
00000000
00010000
00001000
00010000
00000000
00100000
00000000
00100000
00000000
00000000
00000000
,  // measure 13
01000000
00000000
00000000
01000000
00010000
00000000
00000000
00010000
00100000
00000000
00000000
00000000
00110000
00000000
00000000
00000000
,  // measure 14
10000000
00010000
10000000
00010000
10000000
00000000
10000000
00000000
00010000
00000000
00010000
00000000
10000000
00000000
00000000
00000000
,  // measure 15
00100000
00000000
00000000
00100000
00010000
00000000
00000000
00010000
00001000
00000000
00000000
00000000
00101000
00000000
00000000
00000000
,  // measure 16
00011000
00000000
00001000
00000000
00000100
00001000
00000000
00001000
00000100
00000000
00000010
00000000
00000100
00000010
00000100
00000000
,  // measure 17
00000001
00000010
00000100
00001000
00000001
00000010
00001000
00000000
,  // measure 18
00001000
00000010
00000100
00000001
00001000
00000010
00000001
00000000
,  // measure 19
00001000
00001000
00000001
00000001
00000010
00000000
00000010
00000000
00001000
00000000
00001000
00000000
00010000
00000000
00000000
00000000
,  // measure 20
00001000
00001000
00010000
00010000
00100000
00000000
00100000
00000000
10000000
00000000
10000000
00000000
01000000
00000000
00000000
00000000
,  // measure 21
10000000
00100000
01000000
00010000
10000000
00100000
00010000
00000000
,  // measure 22
00010000
00100000
01000000
10000000
00010000
00100000
10000000
00000000
,  // measure 23
00100000
00100000
01000000
01000000
00100000
00000000
00100000
00000000
00010000
00000000
00010000
00000000
00001000
00000000
00000000
00000000
,  // measure 24
00000010
00000010
00000100
00000100
00000010
00000000
00000010
00000000
00000001
00000000
00000002
00000000
00001003
00000100
00001000
00000000
,  // measure 25
00000001
00000000
00000010
00000000
00000100
00000000
00000000
00001000
00000010
00000000
00001000
00000000
00000101
00000000
00000000
00000000
,  // measure 26
00001000
00000000
00000010
00000000
00000100
00000000
00000000
00000001
00000010
00000000
00000001
00000000
00001100
00000000
00000000
00000000
,  // measure 27
00000010
00000000
00001000
00000000
00010000
00000000
00000000
00000010
00010000
00000000
00001000
00000000
00011000
00000000
00010000
00000000
,  // measure 28
00100000
00000000
00010000
00000000
00001000
00000000
00000000
00100000
00001000
00000000
00100000
00000000
01010000
00000000
00010000
00000000
,  // measure 29
10000000
00000000
00100000
00000000
01000000
00000000
00000000
00010000
00100000
00000000
00010000
00000000
01010000
00000000
00000000
00000000
,  // measure 30
00010000
00000000
00100000
00000000
01000000
00000000
00000000
10000000
00100000
00000000
10000000
00000000
10100000
00000000
00000000
00000000
,  // measure 31
10000000
00000000
00100000
00000000
00010000
00000000
00000000
00001000
00010000
00000000
00001000
00000000
00011000
00000000
00000000
00000000
,  // measure 32
00001001
00000000
00000010
00000000
00000010
00000000
00000010
00001000
00000000
00001000
00000001
00000000
00000001
00000000
00000000
00000000
,  // measure 33
00000001
00000000
00000000
00000001
00000010
00000000
00000000
00000010
00001000
00000000
00000000
00001000
00010000
00000000
00000000
00000000
,  // measure 34
00001000
00010000
00001000
00010000
00001000
00000000
00001000
00000000
00010000
00000000
00010000
00000000
00100000
00000000
00000000
00000000
,  // measure 35
10000000
00000000
00000000
10000000
00100000
00000000
00000000
00100000
00010000
00000000
00000000
00010000
00001000
00000000
00000000
00000000
,  // measure 36
00011000
00000000
00001000
00000010
00001000
00000000
00000010
00000001
00000010
00000000
00000001
00000000
00001000
00000000
00000000
00000000
,  // measure 37
00000001
00000000
00000000
00000001
00000100
00000000
00000000
00000100
00001000
00000000
00000000
00001000
00010000
00000000
00000000
00000000
,  // measure 38
00001000
00001000
00010000
00010000
00001000
00000000
01000000
00000000
00010000
00000000
01000000
00000000
00100000
00000000
00000000
00000000
,  // measure 39
10000000
00000000
00000000
10000000
01000000
00000000
00000000
01000000
00010000
00000000
00000000
00010000
00001000
00000000
00000000
00000000
,  // measure 40
00011000
00000000
00000000
00000000
00000110
00000000
00000000
00000100
00000010
00000000
00000100
00000000
00000001
00001000
00000000
00000000
,  // measure 41
00000020
00000000
00000000
00000000
00000000
00000000
00000000
00001000
00001000
00000000
00001000
00000000
00000000
00000000
00000000
00000000
,  // measure 42
00000100
00000000
00000000
00000030
00000000
00000000
00000000
00000000
00000000
00000000
01000000
00000000
00010000
10000000
00000000
00000000
,  // measure 43
00200000
00000000
00000000
00000000
00000000
00000000
00000000
01000000
01000000
00000000
01000000
00000000
00000000
00000000
00000000
00000000
,  // measure 44
00000000
00000000
10300000
00000000
00000000
01000000
00000000
00000000
00000110
00000000
00000000
00000000
00000000
00000000
00000000
00000000
;

//---------------dance-single - Edit by silenttype01----------------
#NOTES:
     dance-single:
     Edit by silenttype01:
     Challenge:
     8:
     0.498,0.520,0.380,0.033,0.304:
0000
0000
0000
0000
,
0000
0000
0000
0000
,
0000
0000
0000
0000
,
0000
0000
0000
0000
,
1000
0100
00M0
0011
0011
0011
1MM1
0000
,
0001
0100
00M0
1010
1010
1010
1MM1
0000
,
0100
0010
0M00
1001
1001
1001
M11M
0000
,
1001
0000
0000
0000
0000
0000
0000
0000
0010
0000
0100
0000
0010
0100
0010
0000
,
0100
0000
0000
0100
1000
0000
0000
1000
0100
0000
0000
0000
1100
0000
0000
0000
,
1000
0001
1000
0001
1000
0000
1000
0000
0001
0000
0001
0000
1000
0000
0000
0000
,
0001
0000
0000
0001
0010
0000
0000
0010
0100
0000
0000
0000
1100
0000
0000
0000
,
1001
0000
0010
1000
0010
0000
0100
0001
0100
0000
0001
0000
0001
0000
0000
0000
,
1000
0000
0000
1000
0001
0000
0000
0001
1000
0000
0000
0000
1001
0000
0000
0000
,
0100
0010
0100
0010
0100
0000
0100
0000
0001
0000
0001
0000
1000
0000
0000
0000
,
0010
0000
0000
0010
0100
0000
0000
0100
0010
0000
0000
0000
0110
0000
0000
0000
,
1001
0000
1000
0000
0001
0100
0000
0100
0001
0000
0100
0000
0010
0100
0010
0000
,
1000
0100
0010
0001
1000
0100
0010
0000
,
0001
0100
0010
1000
0001
0100
0010
0000
,
1000
1000
0001
0001
0100
0000
0100
0000
0001
0000
0001
0000
0100
0000
0000
0000
,
0001
0001
1000
1000
0010
0000
0010
0000
0001
0000
0001
0000
0010
0000
0000
0000
,
1000
0001
0100
0010
1000
0001
0100
0000
,
0001
1000
0010
0100
0001
1000
0010
0000
,
0100
0100
0001
0001
0100
0000
0100
0000
0010
0000
0010
0000
1000
0000
0000
0000
,
0100
0100
1000
1000
0100
0000
0100
0000
0010
0000
0002
0000
1003
0100
1000
0000
,
0001
0000
0100
0000
0010
0000
0000
0100
0001
0000
0010
0000
0101
0000
0000
0000
,
0010
0000
0001
0000
1000
0000
0000
0001
0010
0000
0100
0000
0011
0000
0000
0000
,
1000
0000
0010
0000
0100
0000
0000
0010
1000
0000
0010
0000
1010
0000
1000
0000
,
0100
0000
1000
0000
0001
0000
0000
1000
0100
0000
1000
0000
1100
0000
1000
0000
,
0001
0000
0100
0000
0010
0000
0000
0100
0001
0000
0010
0000
0101
0000
0000
0000
,
0010
0000
0001
0000
1000
0000
0000
0001
0010
0000
0100
0000
0011
0000
0000
0000
,
1000
0000
0010
0000
0100
0000
0000
0010
1000
0000
0100
0000
1010
0000
0000
0000
,
1001
0000
0001
0000
0100
0000
0010
0001
0000
0001
1000
0000
1000
0000
0000
0000
,
0100
0000
0000
0100
0001
0000
0000
0001
0100
0000
0000
0000
0101
0000
0000
0000
,
0010
1000
0010
1000
0010
0000
0100
0000
0100
0000
0001
0000
0001
0000
0000
0000
,
1000
0000
0000
1000
0010
0000
0000
0010
0100
0000
0000
0000
0101
0000
0000
0000
,
1001
0000
1000
0010
1000
0000
0001
0100
0001
0000
1000
0000
1000
0000
0000
0000
,
0001
0000
0000
0001
1000
0000
0000
1000
0001
0000
0000
0000
1001
0000
0000
0000
,
0010
0010
0100
0100
0010
0000
0010
0000
1000
0000
1000
0000
0001
0000
0000
0000
,
0010
0000
0000
0010
0100
0000
0000
0100
0010
0000
0000
0000
0110
0000
0000
0000
,
1001
0000
0000
0000
0110
0000
0000
0100
0010
0000
0100
0000
1000
0001
0000
0000
,
0020
0000
0000
0000
0000
0000
0000
0100
0100
0000
0100
0000
0000
0000
0000
0000
,
0100
0000
0000
0030
0000
0000
0000
0000
0000
0000
0100
0000
1000
0001
0000
0000
,
0020
0000
0000
0000
0000
0000
0000
0100
0100
0000
0100
0000
0000
0000
0000
0000
,
0000
0000
1030
0000
0000
0100
0000
0000
0110
0000
0000
0000
0000
0000
0000
0000
;
