#TITLE:KISS ME;
#SUBTITLE:(KCP REMIX);
#ARTIST:E-ROTIC;
#TITLETRANSLIT:;
#SUBTITLETRANSLIT:;
#ARTISTTRANSLIT:;
#CREDIT:;
#BANNER:KISS ME (KCP REMIX).png;
#BACKGROUND:KISS ME (KCP REMIX)-bg.png;
#LYRICSPATH:;
#CDTITLE:DanceDanceRevolutionSolo2000.png;
#MUSIC:KISS ME (KCP REMIX).ogg;
#OFFSET:0.000;
#SAMPLESTART:47.114;
#SAMPLELENGTH:15.000;
#SELECTABLE:YES;
#DISPLAYBPM:170.000;
#BPMS:0.000=170.012;
#STOPS:;
#BGCHANGES:;

//---------------dance-single - ----------------
#NOTES:
     dance-single:
     :
     Easy:
     2:
     0.210,0.309,0.250,0.000,0.000:
0000
0000
0000
0000
,
0000
0000
0000
0000
,
0000
0000
0000
0000
,
0000
0000
0000
0000
,
0000
0000
0000
0000
,
0000
0000
0000
0000
,
0000
0000
0000
0000
,
0000
0000
0000
0000
,
0000
0000
0000
0000
,
1000
0000
0000
0000
,
0000
0000
0000
0000
,
0010
0000
0000
0000
,
0000
0000
0000
0000
,
1000
0010
0000
0000
,
0010
1000
0000
0000
,
0001
0010
0000
0000
,
0010
0001
0000
0000
,
0001
1000
0000
0000
,
1000
0001
0000
0000
,
0001
0110
0000
0000
,
1000
0110
0000
0000
,
0001
0100
0000
0000
,
1000
0100
0000
0000
,
1001
0110
0000
0000
,
0110
1001
0000
0000
,
0001
0000
1001
0000
,
1000
0000
1001
0000
,
0110
0000
0001
0000
,
0110
0000
1000
0000
,
0110
0000
1001
0000
,
0110
0000
1001
0000
,
0001
0000
1000
0000
,
0010
0001
0010
1000
,
0000
0000
0000
0000
,
0001
1000
0000
0000
,
1000
0001
0000
0000
,
0001
0110
0000
0000
,
1000
0110
0000
0000
,
0001
0100
0000
0000
,
1000
0100
0000
0000
,
0010
0100
0000
0000
,
1001
0010
0100
1001
,
0000
0000
0000
0000
,
0010
0100
0001
1000
,
0001
0000
0000
0000
,
0010
0000
0000
0000
,
0001
0010
0000
0000
,
0010
0001
0000
0000
,
1000
0010
0000
0000
,
0010
1000
0000
0000
,
0001
1000
0000
0000
,
1000
0001
0000
0000
,
0001
0110
0000
0000
,
1000
0110
0000
0000
,
0001
0100
0000
0000
,
1000
0100
0000
0000
,
0010
0100
0000
0000
,
0110
0001
1000
0110
,
0000
0000
0000
0000
,
0010
0100
0010
1001
,
1000
0010
0000
0000
,
0010
1000
0000
0000
,
1000
0010
0000
0000
,
0010
0100
0010
1001
,
1000
0010
1000
0001
,
1000
0010
1000
0001
,
1000
0000
0000
0000
;

//---------------dance-single - ----------------
#NOTES:
     dance-single:
     :
     Medium:
     4:
     0.313,0.378,0.313,0.000,0.000:
0000
0000
0000
0000
,
0000
0000
0000
0000
,
0000
0000
0000
0000
,
0000
0000
0000
0000
,
0000
0000
0000
0000
,
0000
0000
0000
0000
,
0000
0000
0000
0000
,
0000
0000
0000
0000
,
0000
0000
0000
0000
,
1000
0000
0100
0000
,
0100
0000
0001
0000
,
0001
0000
0010
0000
,
0010
0000
1000
0000
,
1000
0000
0101
0000
,
0001
0000
1010
0000
,
0001
0000
1100
0000
,
1000
0000
0011
0000
,
0101
0000
0100
0000
,
0101
0000
0011
0000
,
1100
0000
0100
0000
,
1100
0000
1010
0000
,
1001
0000
0110
0000
,
0011
0000
1010
0000
,
0110
0000
1001
0000
,
1010
0000
0011
0000
,
1000
0010
1000
0010
,
1000
0010
1000
0110
,
0001
0010
0001
0010
,
0001
0010
0001
0110
,
1000
0100
1000
0100
,
1000
0100
1000
0110
,
0001
0100
0001
0100
,
0001
1000
1001
0110
,
0000
0000
1000
0000
,
1000
0100
0100
0001
,
0001
0000
0010
0000
0010
0001
1000
0000
,
1000
0010
0010
0001
,
0001
0000
0100
0000
0100
0001
1000
0000
,
0010
0001
0001
0010
,
0001
0000
1000
0000
1000
0001
0100
0000
,
0110
0010
0000
0000
,
0001
0010
0001
0100
,
0000
0000
0000
0000
,
1000
0010
1000
0000
0001
0010
0001
0000
,
1000
1000
0001
0001
,
1000
0000
0010
0000
,
0001
0000
1100
0000
,
1000
0000
0011
0000
,
1000
0000
0101
0000
,
0001
0000
1010
0000
,
1000
0100
0100
0001
,
0001
0000
0010
0000
0010
0001
1000
0000
,
1000
0010
0010
0001
,
0001
0000
0100
0000
0100
0001
1000
0000
,
1000
0001
0001
0010
,
0010
0000
1000
0000
1000
0001
0100
0000
,
0110
0010
0000
0000
,
0001
0010
0001
0100
,
0000
0000
0000
0000
,
1000
0010
1000
0000
0001
0010
0001
0000
,
0010
1000
0010
0001
,
1000
0000
0010
0000
,
0001
0000
0010
0000
,
0001
0010
0001
0000
1000
0010
1000
0000
,
0010
0001
0010
1000
,
0001
0010
1000
0010
,
0110
0000
0000
0000
;

//---------------dance-single - ----------------
#NOTES:
     dance-single:
     :
     Hard:
     7:
     0.391,0.584,0.208,0.000,0.000:
0000
0000
0000
0000
,
0000
0000
0000
0000
,
0000
0000
0000
0000
,
0000
0000
0000
0000
,
0000
0000
0000
0000
,
0000
0000
0000
0000
,
0000
0000
0000
0000
,
0000
0000
0000
0000
,
0000
0000
0000
0000
,
0100
0000
0000
0000
,
0010
0000
0000
0000
,
0001
0000
1000
0000
,
0010
0000
0100
0000
,
1000
0100
1000
0100
,
0100
1000
0100
1000
,
0001
0100
0001
0100
,
0100
0001
0100
0001
,
1000
0010
0001
0000
,
1000
0010
1001
0010
,
0001
0000
0000
0001
,
0010
1001
0010
1000
,
0100
1001
0100
0000
,
1000
0100
1001
0100
,
0001
0000
0000
0010
,
1001
0100
0100
0000
,
0010
0100
0010
0100
0010
0001
0010
0001
,
0010
1000
0010
1000
0010
0100
0010
0100
,
0010
1000
0001
0000
0010
0100
0010
0100
,
0010
1000
0010
1000
0010
0001
0010
0001
,
0100
0001
0100
0001
0100
0010
0100
0010
,
1000
0100
1000
0100
0001
0100
0001
0100
,
0010
0100
0010
0000
1000
0010
1000
0000
,
1000
0010
1000
0001
0010
0001
0010
0000
,
0000
0000
0000
0000
,
1000
0010
0001
1000
,
0010
0000
0001
0000
1000
0001
1000
0000
,
1010
1010
0011
0011
,
1010
0000
0011
0000
0001
1000
0001
0000
,
1000
0100
0001
1001
,
0100
0000
0001
0000
1000
0001
1000
0000
,
0001
0010
0000
0000
,
1000
0010
1000
0000
0010
1000
0010
1000
,
0000
0000
0000
0000
,
1000
0010
1000
0010
0100
0001
0100
0001
,
1000
1000
0001
0001
,
0000
0000
0000
0000
,
1000
0100
1000
0100
,
0100
1000
0100
1000
,
0001
0100
0001
0100
,
0100
0001
0100
0001
,
1000
0010
0001
1000
,
0010
0000
0001
0000
1000
0001
1000
0000
,
1100
0110
0011
0101
,
0011
0000
0101
0000
0001
1000
0001
0000
,
1000
0100
0001
1010
,
0100
0000
0001
0000
1000
0001
1000
0000
,
0010
1000
0001
0000
0000
0000
0000
0000
,
1000
0100
1000
0000
0100
1000
0100
1000
,
0000
0000
0000
0000
,
1000
0010
0100
0001
0010
0001
1000
0100
,
1000
1000
0001
0001
,
1000
0000
0001
0000
,
1000
0010
0100
0001
,
1000
0010
0100
0001
0010
0001
1000
0100
,
1000
1000
0001
0001
,
1000
0010
0100
0001
,
1001
0000
0000
0000
;

//---------------dance-solo - ----------------
#NOTES:
     dance-solo:
     :
     Easy:
     3:
     0.210,0.309,0.250,0.000,0.000:
000000
000000
000000
000000
,
000000
000000
000000
000000
,
000000
000000
000000
000000
,
000000
000000
000000
000000
,
000000
000000
000000
000000
,
000000
000000
000000
000000
,
000000
000000
000000
000000
,
000000
000000
000000
000000
,
000000
000000
000000
000000
,
100000
000000
000000
000000
,
000000
000000
000000
000000
,
010000
000000
000000
000000
,
000000
000000
000000
000000
,
100000
010000
000000
000000
,
010000
100000
000000
000000
,
000001
000010
000000
000000
,
000010
000001
000000
000000
,
000001
010000
000000
000000
,
100000
000010
000000
000000
,
000001
001100
000000
000000
,
100000
001100
000000
000000
,
000001
001000
000000
000000
,
100000
001000
000000
000000
,
100001
001100
000000
000000
,
001100
100001
000000
000000
,
000001
000000
100001
000000
,
100000
000000
100001
000000
,
001100
000000
000010
000000
,
001100
000000
010000
000000
,
010010
000000
100001
000000
,
010010
000000
001100
000000
,
000001
000000
100000
000000
,
000010
000001
010000
100000
,
000000
000000
000000
000000
,
000001
010000
000000
000000
,
100000
000010
000000
000000
,
000001
001100
000000
000000
,
100000
001100
000000
000000
,
000001
001000
000000
000000
,
100000
001000
000000
000000
,
000100
001000
000000
000000
,
100001
000100
001000
100001
,
000000
000000
000000
000000
,
000100
001000
000010
010000
,
000001
000000
000000
000000
,
000010
000000
000000
000000
,
000001
000010
000000
000000
,
000010
000001
000000
000000
,
100000
010000
000000
000000
,
010000
100000
000000
000000
,
000001
010000
000000
000000
,
100000
000010
000000
000000
,
000001
001100
000000
000000
,
100000
001100
000000
000000
,
000001
001000
000000
000000
,
100000
001000
000000
000000
,
000100
001000
000000
000000
,
001100
000001
100000
001100
,
000000
000000
000000
000000
,
000100
001000
000010
100001
,
100000
010000
000000
000000
,
010000
100000
000000
000000
,
100000
010000
000000
000000
,
000100
001000
010000
100001
,
100000
010000
100000
000001
,
100000
010000
100000
000001
,
010000
000000
000000
000000
;

//---------------dance-solo - ----------------
#NOTES:
     dance-solo:
     :
     Medium:
     5:
     0.313,0.378,0.313,0.000,0.000:
000000
000000
000000
000000
,
000000
000000
000000
000000
,
000000
000000
000000
000000
,
000000
000000
000000
000000
,
000000
000000
000000
000000
,
000000
000000
000000
000000
,
000000
000000
000000
000000
,
000000
000000
000000
000000
,
000000
000000
000000
000000
,
100000
000000
001000
000000
,
001000
000000
000001
000000
,
000001
000000
000100
000000
,
000100
000000
100000
000000
,
100000
000000
001001
000000
,
000001
000000
100100
000000
,
000001
000000
101000
000000
,
100000
000000
000101
000000
,
000011
000000
001000
000000
,
001001
000000
000101
000000
,
110000
000000
001000
000000
,
101000
000000
100100
000000
,
000011
000000
110000
000000
,
000101
000000
100100
000000
,
110000
000000
000011
000000
,
100100
000000
000101
000000
,
100000
000100
100000
000100
,
100000
000100
100000
001100
,
000001
000100
000001
000100
,
000001
000100
000001
001100
,
100000
001000
100000
001000
,
100000
001000
100000
001100
,
000001
001000
000001
001000
,
000001
100000
010010
001100
,
000000
000000
100000
000000
,
100000
001000
001000
000001
,
000001
000000
000100
000000
000100
000001
100000
000000
,
100000
000100
000100
000001
,
000001
000000
001000
000000
001000
000001
010000
000000
,
010000
000001
000001
000010
,
000010
000000
100000
000000
100000
000001
001000
000000
,
001100
000100
000000
000000
,
000001
000010
000001
001000
,
000000
000000
000000
000000
,
100000
000100
010000
000000
000001
000100
000010
000000
,
100000
100000
000001
000001
,
010000
000000
000010
000000
,
000001
000000
101000
000000
,
100000
000000
000101
000000
,
100000
000000
001001
000000
,
000001
000000
100100
000000
,
100000
001000
001000
000001
,
000001
000000
000100
000000
000100
000010
100000
000000
,
100000
000100
000100
000001
,
000001
000000
001000
000000
001000
000010
010000
000000
,
010000
000001
000001
000010
,
000010
000000
100000
000000
100000
000010
001000
000000
,
001100
000100
000000
000000
,
000001
000010
000001
001000
,
000000
000000
000000
000000
,
100000
000100
010000
000000
000001
000100
000010
000000
,
010000
100000
000010
000001
,
100000
000000
010000
000000
,
000001
000000
000010
000000
,
000001
000100
000010
000000
100000
000100
010000
000000
,
000010
000001
010000
100000
,
000001
000010
100000
010000
,
001100
000000
000000
000000
;

//---------------dance-solo - ----------------
#NOTES:
     dance-solo:
     :
     Hard:
     7:
     0.393,0.584,0.219,0.000,0.000:
000000
000000
000000
000000
,
000000
000000
000000
000000
,
000000
000000
000000
000000
,
000000
000000
000000
000000
,
000000
000000
000000
000000
,
000000
000000
000000
000000
,
000000
000000
000000
000000
,
000000
000000
000000
000000
,
000000
000000
000000
000000
,
010000
000000
000000
000000
,
000010
000000
000000
000000
,
000001
000000
100000
000000
,
000100
000000
001000
000000
,
100000
001000
100000
001000
,
001000
100000
001000
100000
,
000001
001000
000001
001000
,
001000
000001
001000
000001
,
100000
000100
000001
000000
,
100000
000100
100001
000100
,
000001
000000
000000
000001
,
000100
100001
000100
100000
,
001000
100001
001000
000000
,
100000
001000
100001
001000
,
000001
000000
000000
000100
,
010010
001000
001000
000000
,
000100
001000
000100
001000
000010
000001
000010
000001
,
000100
001000
000100
001000
010000
100000
010000
100000
,
000100
100000
000100
000000
010000
100000
010000
100000
,
000100
010000
000100
010000
000010
000100
000010
000100
,
000001
000010
000001
000010
000001
000100
000001
000100
,
001000
100000
001000
100000
000001
001000
000001
001000
,
000100
001000
000100
000000
100000
000100
100000
000000
,
100000
010000
100000
000010
000100
000001
000010
000000
,
000000
000000
000000
000000
,
010000
000100
000010
010000
,
000100
000000
000010
000000
100000
000001
100000
000000
,
100100
100100
000101
000101
,
100100
000000
000101
000000
000010
010000
000010
000000
,
100000
001000
000001
100001
,
001000
000000
000001
000000
010000
000010
010000
000000
,
000010
010000
000000
000000
,
100000
010000
100000
000000
010000
100000
010000
100000
,
000000
000000
000000
000000
,
100000
000100
100000
000100
001000
000001
001000
000001
,
100000
100000
000001
000001
,
000000
000000
000000
000000
,
100000
001000
100000
001000
,
001000
100000
001000
100000
,
000001
001000
000001
001000
,
001000
000001
001000
000001
,
010000
000100
000010
010000
,
000100
000000
000010
000000
100000
000001
100000
000000
,
110000
010100
000110
000011
,
000110
000000
000011
000000
000010
010000
000010
000000
,
110000
001000
000001
100100
,
001000
000000
000001
000000
010000
000010
010000
000000
,
000100
010000
000010
000000
000000
000000
000000
000000
,
100000
001000
100000
000000
001000
100000
001000
100000
,
000000
000000
000000
000000
,
100000
000100
001000
000001
000100
000001
100000
001000
,
100000
100000
000001
000001
,
010000
000000
000010
000000
,
100000
000100
001000
000001
,
100000
000100
001000
000001
000100
000001
100000
001000
,
100000
100000
000001
000001
,
100000
000100
001000
000001
,
010010
000000
000000
000000
;

//---------------dance-double - Edit by silenttype01----------------
#NOTES:
     dance-double:
     Edit by silenttype01:
     Easy:
     3:
     0.171,0.275,0.156,0.083,0.000: // measure 1
00000000
00000000
00000000
00000000
,  // measure 2
00000000
00000000
00000000
00000000
,  // measure 3
00000000
00000000
00000000
00000000
,  // measure 4
00000000
00000000
00000000
00000000
,  // measure 5
00000000
00000000
00000000
00000000
,  // measure 6
00000000
00000000
00000000
00000000
,  // measure 7
00000000
00000000
00000000
00000000
,  // measure 8
00000000
00000000
00000000
00000000
,  // measure 9
00000000
00000000
00000000
00000000
,  // measure 10
00000002
00000000
00000000
00000000
,  // measure 11
00000003
00000000
00000000
00000000
,  // measure 12
00000200
00000000
00000000
00000000
,  // measure 13
00000300
00000000
00000000
00000000
,  // measure 14
00020000
00000000
00000000
00000000
,  // measure 15
00030000
00000000
00000000
00000000
,  // measure 16
02000000
00000000
00000000
00000000
,  // measure 17
03000000
00000000
00000000
00000000
,  // measure 18
10000000
00000000
00010000
00000000
,  // measure 19
00001000
00000000
00000001
00000000
,  // measure 20
00000001
00000000
00001000
00000000
,  // measure 21
00001000
00000000
00000001
00000000
,  // measure 22
00001000
00000000
00000010
00000000
,  // measure 23
00010000
00000000
00000100
00000000
,  // measure 24
00011000
00000000
00011000
00000000
,  // measure 25
00011000
00000000
00000000
00000000
,  // measure 26
00010000
00000000
10010000
00000000
,  // measure 27
10000000
00000000
10010000
00000000
,  // measure 28
01000000
00000000
00011000
00000000
,  // measure 29
00000100
00000000
00001001
00000000
,  // measure 30
00000010
00000000
00000110
00000000
,  // measure 31
00000100
00000000
00011000
00000000
,  // measure 32
01000000
00000000
01100000
00000000
,  // measure 33
00100000
01000000
00100000
01000000
,  // measure 34
00100000
00000000
00000000
00000000
,  // measure 35
10000000
00000000
00010000
00000000
,  // measure 36
00010000
00000000
00001000
00000000
,  // measure 37
00001000
00000000
00000001
00000000
,  // measure 38
00000001
00000000
00001000
00000000
,  // measure 39
00001000
00000000
00010000
00000000
,  // measure 40
00010000
00000000
10000000
00000000
,  // measure 41
10000000
00000000
00010000
00000000
,  // measure 42
10010000
00000000
10010000
00000000
,  // measure 43
20000000
00000000
00000000
00000000
,  // measure 44
30000000
00000000
00000000
00000000
,  // measure 45
02000000
00000000
00000000
00000000
,  // measure 46
03000000
00000000
00000000
00000000
,  // measure 47
00002000
00000000
00000000
00000000
,  // measure 48
00003000
00000000
00000000
00000000
,  // measure 49
00000200
00000000
00000000
00000000
,  // measure 50
00000300
00000000
00000000
00000000
,  // measure 51
00000001
00000000
00000100
00000000
,  // measure 52
00000100
00000000
00001000
00000000
,  // measure 53
00001000
00000000
00010000
00000000
,  // measure 54
00010000
00000000
01000000
00000000
,  // measure 55
00100000
00000000
10000000
00000000
,  // measure 56
10000000
00000000
01000000
00000000
,  // measure 57
01000000
00000000
00010000
00000000
,  // measure 58
00011000
00000000
00011000
00000000
,  // measure 59
00011000
00000000
00000000
00000000
,  // measure 60
00001000
00000000
00000010
00000000
,  // measure 61
00000001
00000000
00000100
00000000
,  // measure 62
00001000
00000000
00010000
00000000
,  // measure 63
00100000
00000000
10000000
00000000
,  // measure 64
01000000
00000000
00010000
00000000
,  // measure 65
00001000
00000000
00000010
00000000
,  // measure 66
00001000
00001000
00000010
00000010
,  // measure 67
00000001
00000000
00000000
00000000
;

//---------------dance-double - Edit by silenttype01----------------
#NOTES:
     dance-double:
     Edit by silenttype01:
     Medium:
     5:
     0.318,0.378,0.333,0.021,0.000: // measure 1
00000000
00000000
00000000
00000000
,  // measure 2
00000000
00000000
00000000
00000000
,  // measure 3
00000000
00000000
00000000
00000000
,  // measure 4
00000000
00000000
00000000
00000000
,  // measure 5
00000000
00000000
00000000
00000000
,  // measure 6
00000000
00000000
00000000
00000000
,  // measure 7
00000000
00000000
00000000
00000000
,  // measure 8
00000000
00000000
00000000
00000000
,  // measure 9
00000000
00000000
00000000
00000000
,  // measure 10
00000001
00000000
00000010
00000000
,  // measure 11
00000010
00000000
00001000
00000000
,  // measure 12
00001000
00000000
01000000
00000000
,  // measure 13
01000000
00000000
00010000
00000000
,  // measure 14
00010000
00000000
10100000
00000000
,  // measure 15
10000000
00000000
01010000
00000000
,  // measure 16
10000000
00000000
00110000
00000000
,  // measure 17
00010000
00000000
11000000
00000000
,  // measure 18
10100000
00000000
10100000
00000000
,  // measure 19
00110000
00000000
00110000
00000000
,  // measure 20
00011000
00000000
00011000
00000000
,  // measure 21
00001010
00000000
00001010
00000000
,  // measure 22
00000011
00000000
00000011
00000000
,  // measure 23
00000101
00000000
00000101
00000000
,  // measure 24
00001100
00000000
00001100
00000000
,  // measure 25
00011000
00000000
00011000
00000000
,  // measure 26
00010000
01000000
00010000
10000000
,  // measure 27
00010000
01000000
00010000
01100000
,  // measure 28
00001000
00100000
00001000
00010000
,  // measure 29
00001000
00100000
00001000
00011000
,  // measure 30
00010000
00000100
00010000
00001000
,  // measure 31
00010000
00000100
00010000
00000110
,  // measure 32
00001000
00000010
00001000
00000001
,  // measure 33
00001000
00000010
00001001
00000110
,  // measure 34
00000000
00000000
00001000
00000000
,  // measure 35
00000001
00000010
00000010
00001000
,  // measure 36
00001000
00000000
00000100
00000000
00000100
00001000
00000001
00000000
,  // measure 37
00000001
00000100
00000100
00001000
,  // measure 38
00001000
00000000
00000010
00000000
00000010
00001000
00000001
00000000
,  // measure 39
00000100
00001000
00001000
00010000
,  // measure 40
00001000
00000000
00010000
00000000
00010000
00001000
00100000
00000000
,  // measure 41
01100000
01000000
00000000
00000000
,  // measure 42
10000000
01000000
10000000
00200000
,  // measure 43
00000000
00000000
00300000
00000000
,  // measure 44
00010000
01000000
00010000
00000000
10000000
01000000
10000000
00000000
,  // measure 45
00010000
00010000
10000000
10000000
,  // measure 46
00010000
00000000
00001000
00000000
,  // measure 47
00000001
00000000
00000011
00000000
,  // measure 48
00000001
00000000
00001100
00000000
,  // measure 49
00000001
00000000
00001010
00000000
,  // measure 50
00001000
00000000
00000101
00000000
,  // measure 51
00000001
00000010
00000010
00001000
,  // measure 52
00001000
00000000
00000100
00000000
00000100
00001000
00000001
00000000
,  // measure 53
00000001
00000100
00000100
00001000
,  // measure 54
00001000
00000000
00000010
00000000
00000010
00001000
00000001
00000000
,  // measure 55
00000100
00001000
00001000
00010000
,  // measure 56
00001000
00000000
00010000
00000000
00010000
00001000
00100000
00000000
,  // measure 57
01100000
01000000
00000000
00000000
,  // measure 58
10000000
01000000
10000000
00200000
,  // measure 59
00000000
00000000
00300000
00000000
,  // measure 60
00010000
01000000
00010000
00000000
10000000
01000000
10000000
00000000
,  // measure 61
00010000
00010000
10000000
10000000
,  // measure 62
00010000
00000000
00001000
00000000
,  // measure 63
00000001
00000000
00000100
00000000
,  // measure 64
00000001
00000100
00000001
00000000
00001000
00000100
00001000
00000000
,  // measure 65
00000100
00010000
00001000
00100000
,  // measure 66
00001000
01000000
00010000
01000000
,  // measure 67
01100000
00000000
00000000
00000000
;

//---------------dance-double - Edit by silenttype01----------------
#NOTES:
     dance-double:
     Edit by silenttype01:
     Hard:
     7:
     0.400,0.584,0.208,0.063,0.000: // measure 1
00000000
00000000
00000000
00000000
,  // measure 2
00000000
00000000
00000000
00000000
,  // measure 3
00000000
00000000
00000000
00000000
,  // measure 4
00000000
00000000
00000000
00000000
,  // measure 5
00000000
00000000
00000000
00000000
,  // measure 6
00000000
00000000
00000000
00000000
,  // measure 7
00000000
00000000
00000000
00000000
,  // measure 8
00000000
00000000
00000000
00000000
,  // measure 9
00000000
00000000
00000000
00000000
,  // measure 10
00000020
00000000
00000000
00000030
,  // measure 11
00000200
00000000
00000000
00000300
,  // measure 12
00002000
00003000
00000002
00000003
,  // measure 13
00000200
00000300
00000020
00000030
,  // measure 14
00010000
00000010
00010000
00000010
,  // measure 15
00000010
00010000
00000010
00010000
,  // measure 16
00001000
00100000
00001000
00100000
,  // measure 17
00100000
00001000
00100000
00001000
,  // measure 18
00010000
01000000
10000000
00000000
,  // measure 19
00010000
01000000
10010000
01000000
,  // measure 20
10000000
00000000
00000000
10000000
,  // measure 21
01000000
10010000
01000000
00010000
,  // measure 22
00100000
10010000
00100000
00000000
,  // measure 23
00001000
00000010
00001001
00000010
,  // measure 24
00000001
00000000
00000000
00000100
,  // measure 25
00001001
00000010
00000010
00000000
,  // measure 26
00000100
00000010
00000100
00000010
00000100
00001000
00000100
00001000
,  // measure 27
01000000
00010000
01000000
00010000
01000000
00100000
01000000
00100000
,  // measure 28
01000000
00010000
10000000
00000000
01000000
00100000
01000000
00100000
,  // measure 29
01000000
00010000
01000000
00010000
01000000
10000000
01000000
10000000
,  // measure 30
00100000
10000000
00100000
10000000
00100000
01000000
00100000
01000000
,  // measure 31
00001000
00010000
00001000
00010000
00000100
00001000
00000100
00001000
,  // measure 32
00000001
00000010
00001000
00000000
00001000
00000100
00001000
00000000
,  // measure 33
00001000
00000100
00001000
00000001
00000100
00000001
00000100
00000000
,  // measure 34
00000000
00000000
00000000
00000000
,  // measure 35
00000001
00000100
00001000
00000001
,  // measure 36
00000100
00000000
00001000
00000000
00000001
00001000
00000001
00000000
,  // measure 37
00000101
00000101
00001100
00001100
,  // measure 38
01001000
00000000
00001100
00000000
00001000
00010000
00001000
00000000
,  // measure 39
00010000
00100000
10000000
10010000
,  // measure 40
00100000
00000000
10000000
00000000
00010000
10000000
00010000
00000000
,  // measure 41
10000000
01000000
00000000
00000000
,  // measure 42
10000000
01000000
10000000
00000000
01000000
10000000
01000000
10000000
,  // measure 43
00000000
00000000
00000000
00000000
,  // measure 44
00010000
01000000
00010000
01000000
00100000
10000000
00100000
10000000
,  // measure 45
00010000
00010000
00001000
00001000
,  // measure 46
00000000
00000000
00000000
00000000
,  // measure 47
00000001
00000010
00000001
00000010
,  // measure 48
00000010
00000001
00000010
00000001
,  // measure 49
00001000
00000010
00001000
00000010
,  // measure 50
00000010
00001000
00000010
00001000
,  // measure 51
00000001
00000100
00001000
00000001
,  // measure 52
00000100
00000000
00001000
00000000
00000001
00001000
00000001
00000000
,  // measure 53
00000011
00000110
00010100
00011000
,  // measure 54
00010100
00000000
00001010
00000000
00001000
00000001
00001000
00000000
,  // measure 55
00000001
00000010
00001000
01010000
,  // measure 56
00100000
00000000
10000000
00000000
00010000
10000000
00010000
00000000
,  // measure 57
01000000
00010000
10000000
00000000
00000000
00000000
00000000
00000000
,  // measure 58
00010000
00100000
00010000
00000000
00100000
00010000
00100000
00010000
,  // measure 59
00000000
00000000
00000000
00000000
,  // measure 60
10000000
01000000
00100000
00010000
01000000
00010000
10000000
00100000
,  // measure 61
10000000
10000000
00010000
00010000
,  // measure 62
00001000
00000000
00000001
00000000
,  // measure 63
00001000
00000100
00000010
00000001
,  // measure 64
00001000
00000100
00000010
00000001
00000100
00000001
00001000
00000010
,  // measure 65
00001000
00001000
00000001
00000001
,  // measure 66
00001000
00000100
00000010
00000001
,  // measure 67
00001001
00000000
00000000
00000000
;

//---------------dance-double - Edit by silenttype01----------------
#NOTES:
     dance-double:
     Edit by silenttype01:
     Challenge:
     8:
     0.510,0.619,0.677,0.198,0.005: // measure 1
00000000
00000000
00000000
00000000
,  // measure 2
00000000
00000000
00000000
00000000
,  // measure 3
00000000
00000000
00000000
00000000
,  // measure 4
00000000
00000000
00000000
00000000
,  // measure 5
00000000
00000000
00000000
00000000
,  // measure 6
00000000
00000000
00000000
00000000
,  // measure 7
00000000
00000000
00000000
00000000
,  // measure 8
00000000
00000000
00000000
00000000
,  // measure 9
00000000
00000000
00000000
00000000
,  // measure 10
00000011
00000000
00000011
00000000
00000001
00000010
00001000
00010000
,  // measure 11
00000000
00001000
00000000
00000010
00000000
00000001
00000100
00000000
,  // measure 12
00000101
00000000
00000101
00000000
00000010
00000100
00000010
00010000
,  // measure 13
00000000
00001000
00000000
00000010
00000000
00001000
00010000
00000000
,  // measure 14
00011000
00000000
00011000
00000000
00010000
00001000
00000010
00001000
,  // measure 15
00000000
00010000
00000000
00100000
00000000
01000000
00100000
00000000
,  // measure 16
11000000
00000000
11000000
00000000
01000000
10000000
00100000
00010000
,  // measure 17
00000000
00001000
00000000
00010000
00000000
00100000
10000000
00000000
,  // measure 18
00010000
00100000
01000000
11000000
,  // measure 19
10000000
00000000
00100000
00000000
00010000
00000000
00100000
00010000
,  // measure 20
00100000
01000000
00001000
01001000
,  // measure 21
01000000
00000000
00001000
00000000
00010000
00001000
00010000
00001000
,  // measure 22
00010000
00001000
00000010
00001010
,  // measure 23
00001000
00000000
00000010
00000000
00000001
00000000
00000010
00000001
,  // measure 24
00000010
00000100
00001000
00001001
,  // measure 25
00002002
00000000
00000000
00003003
,  // measure 26
00000000
00000001
00000010
00001000
00000000
00000001
00000010
00001000
,  // measure 27
00000000
00000001
00000010
00000100
00000000
00001000
00000010
00000100
,  // measure 28
00000000
00000010
00010000
00001000
00000000
00010000
00001000
00100000
,  // measure 29
00000000
01000000
00100000
00010000
00000000
01000000
00100000
10000000
,  // measure 30
00000000
00010000
00100000
10000000
00000000
00010000
00100000
10000000
,  // measure 31
00000000
01000000
10000000
00100000
00000000
01000000
00010000
00100000
,  // measure 32
00000000
00000100
00001000
00000010
00000000
00000100
00000001
00000010
,  // measure 33
00000000
00000100
00001000
00000100
00000000
00010000
00000010
00000001
,  // measure 34
00000200
00000000
00000300
00000000
,  // measure 35
00000110
00000110
00001001
00001001
,  // measure 36
00000101
00001010
00001100
00000011
,  // measure 37
00010100
00010100
00010010
00010010
,  // measure 38
00011000
00101000
00011000
00010010
,  // measure 39
00101000
00101000
01100000
01100000
,  // measure 40
11000000
00110000
01010000
10100000
,  // measure 41
10010000
10010000
01100000
01100000
,  // measure 42
10000000
00000000
00100000
00000000
01000000
00000000
00010000
00000000
10000000
00000000
00000000
00100000
00000000
00000000
01000000
00000000
,  // measure 43
10100000
00000000
10100000
00000000
10000000
00100000
00010000
00001000
,  // measure 44
00000000
00010000
00000000
00100000
00000000
10000000
01000000
00000000
,  // measure 45
11000000
00000000
11000000
00000000
00100000
01000000
00100000
00001000
,  // measure 46
00000000
00010000
00000000
00100000
00000000
00010000
00001000
00000000
,  // measure 47
00011000
00000000
00011000
00000000
00001000
00010000
00100000
00010000
,  // measure 48
00000000
00001000
00000000
00000010
00000000
00000100
00000010
00000000
,  // measure 49
00000101
00000000
00000101
00000000
00000100
00000001
00000010
00001000
,  // measure 50
00000000
00010000
00000000
00001000
00000000
00000010
00000001
00000000
,  // measure 51
00001001
00001001
00000011
00000110
,  // measure 52
00000100
00010000
00001000
00000000
01000000
00001000
00010000
00000000
,  // measure 53
00011000
00011000
01001000
01100000
,  // measure 54
00100000
10000000
00010000
00000000
10000000
00010000
00100000
00000000
,  // measure 55
00110000
00110000
01100000
11000000
,  // measure 56
10000000
01000000
00100000
00000000
01000000
00100000
00010000
00000000
,  // measure 57
00110000
00110000
00011000
00001100
,  // measure 58
00000100
00000010
00000100
00001000
00000100
00000010
00000100
00000001
,  // measure 59
00002000
00000000
00003002
00000000
,  // measure 60
00000023
00000000
00000000
00000000
00000230
00000000
00000000
00001000
,  // measure 61
00002300
00000000
00003002
00000000
,  // measure 62
00000023
00000000
00000000
00000000
00000000
00001000
00000000
00000000
,  // measure 63
00002030
00000000
00023000
00000000
,  // measure 64
00230000
00000000
00000000
00000000
00320000
00000000
00000000
00001000
,  // measure 65
00032000
00000000
00003020
00000000
,  // measure 66
00002030
00000000
00000000
00023000
00000000
00000000
00032000
00000000
,  // measure 67
00013000
00000000
00000000
00000000
;

//---------------dance-single - Edit by silenttype01----------------
#NOTES:
     dance-single:
     Edit by silenttype01:
     Challenge:
     8:
     0.510,0.619,0.677,0.198,0.005:
0000
0000
0000
0000
,
0000
0000
0000
0000
,
0000
0000
0000
0000
,
0000
0000
0000
0000
,
0000
0000
0000
0000
,
0000
0000
0000
0000
,
0000
0000
0000
0000
,
0000
0000
0000
0000
,
0000
0000
0000
0000
,
0011
0000
0011
0000
0001
0010
0100
1000
,
0000
1000
0000
0100
0000
0100
0010
0000
,
0011
0000
0011
0000
0010
0001
1000
0100
,
0000
0100
0000
0010
0000
0010
0001
0000
,
1010
0000
1010
0000
1000
0010
0100
0001
,
0000
0001
0000
0100
0000
0100
0010
0000
,
1010
0000
1010
0000
0010
1000
0001
0100
,
0000
0100
0000
0010
0000
0010
1000
0000
,
0001
0100
0010
0110
,
0100
0000
0010
0000
1000
0000
0100
1000
,
0100
0010
0001
0011
,
0010
0000
0100
0000
1000
0100
0001
0100
,
1000
0100
0010
0110
,
0100
0000
0010
0000
0001
0000
0100
0001
,
0100
0010
1000
1010
,
2002
0000
0000
3003
,
0000
1000
0100
1000
0000
0100
0001
0100
,
0000
0001
0010
0001
0000
0010
1000
0010
,
0000
1000
0100
1000
0000
0100
0001
0100
,
0000
0001
0010
0001
0000
0010
1000
0010
,
0000
1000
0100
0010
0000
0001
0100
0010
,
0000
1000
0100
0001
0000
1000
0010
0001
,
0000
0100
1000
0001
0000
0010
1000
0001
,
0000
1000
0100
0010
0000
0001
0100
0010
,
0200
0000
0300
0000
,
0110
0110
1001
1001
,
0101
1010
1100
0011
,
1001
1001
0110
0110
,
1100
0011
0101
1010
,
0101
0101
0011
0011
,
1100
0101
1100
0101
,
1100
1100
0011
0011
,
0001
0000
0100
0000
1000
0000
0100
0000
0001
0000
0000
0010
0000
0000
0001
0000
,
0011
0000
0011
0000
0001
0010
0100
1000
,
0000
1000
0000
0100
0000
0100
0010
0000
,
0011
0000
0011
0000
0010
0001
1000
0100
,
0000
0100
0000
0010
0000
0010
0001
0000
,
1010
0000
1010
0000
1000
0010
0100
0001
,
0000
0001
0000
0100
0000
0100
0010
0000
,
1010
0000
1010
0000
0010
1000
0001
0100
,
0000
0100
0000
0010
0000
0010
1000
0000
,
1010
1010
0101
1001
,
1000
0100
0001
0000
0001
0100
1000
0000
,
0011
0011
1100
1001
,
0001
0100
1000
0000
1000
0100
0001
0000
,
0110
1001
0110
1001
,
1000
0100
0010
0000
0100
0010
0001
0000
,
0011
0101
1100
1010
,
0010
0001
1000
0100
0001
0100
1000
0001
,
2000
0000
3002
0000
,
0023
0000
0000
0000
0230
0000
0000
1000
,
2300
0000
3002
0000
,
0023
0000
0000
0000
0000
0001
0000
0000
,
0032
0000
2003
0000
,
3020
0000
0000
0000
2030
0000
0000
0001
,
3002
0000
0023
0000
,
0032
0000
0000
2003
0000
0000
3002
0000
,
1003
0000
0000
0000
;
