#TITLE:KEEP ON MOVIN';
#SUBTITLE:;
#ARTIST:N.M.R;
#TITLETRANSLIT:;
#SUBTITLETRANSLIT:;
#ARTISTTRANSLIT:;
#CREDIT:;
#BANNER:KEEP ON MOVIN'.png;
#BACKGROUND:KEEP ON MOVIN'-bg.png;
#LYRICSPATH:;
#CDTITLE:Dance Dance Revolution 3rd Mix.png;
#MUSIC:KEEP ON MOVIN'.ogg;
#OFFSET:0.000;
#SAMPLESTART:9.099;
#SAMPLELENGTH:15.000;
#SELECTABLE:YES;
#DISPLAYBPM:132.000;
#BPMS:0.000=132.191,12.000=132.029;
#STOPS:;
#BGCHANGES:;

//---------------dance-single - ----------------
#NOTES:
     dance-single:
     :
     Beginner:
     1:
     0.133,0.183,0.212,0.000,0.000:
0000
0000
0000
0000
,
0000
0000
0000
0000
,
0000
0000
0000
0000
,
0000
0000
0000
0000
,
0000
0000
0000
0000
,
1000
0000
1000
0000
,
0001
0000
0001
0000
,
1001
0000
1001
0000
,
1000
0000
0001
0000
,
0010
0000
0010
0000
,
0100
0000
0100
0000
,
0110
0000
0110
0000
,
0010
0000
0100
0000
,
1001
0000
0000
0000
,
1001
0000
0000
0000
,
1000
0000
0000
0000
,
0001
0000
0000
0000
,
0010
0000
0000
0000
,
0100
0000
0000
0000
,
0110
0000
0000
0000
,
1001
0000
0000
0000
,
1000
0000
0000
0000
,
1000
0000
0000
0000
,
0001
0000
0000
0000
,
0001
0000
0000
0000
,
0010
0000
0000
0000
,
0010
0000
0000
0000
,
1001
0000
1001
0000
,
0010
0000
0100
0000
,
1000
0000
1000
0000
,
0001
0000
0001
0000
,
1001
0000
1001
0000
,
1000
0000
0001
0000
,
0010
0000
0010
0000
,
0100
0000
0100
0000
,
0110
0000
0110
0000
,
0010
0000
0100
0000
,
1001
0000
0000
0000
;

//---------------dance-single - ----------------
#NOTES:
     dance-single:
     :
     Easy:
     4:
     0.256,0.287,0.240,0.000,0.000:
0000
0000
0000
0000
,
0000
0000
0000
0000
,
0000
0000
0000
0000
,
0000
0000
0000
0000
,
0000
0000
0000
0000
,
1000
0100
0100
1000
,
1001
0000
0100
0100
,
0100
0000
0010
1000
,
0100
1000
0010
0100
,
0001
0010
0010
0001
,
1001
0000
0100
0100
,
0010
1001
0000
0000
,
1000
0001
0010
0100
,
1001
1000
0001
1000
,
0110
0000
0000
0000
,
0100
0000
0010
0010
,
0001
1000
0110
0000
,
1000
0100
0001
1000
,
0001
0000
0000
0000
,
1001
0100
0001
0000
,
0110
1000
1000
1000
,
0001
0100
0001
0100
,
1000
1001
0001
1001
,
1000
0100
1000
0100
,
0010
1001
0100
1001
,
0010
1000
0010
0001
,
0100
0010
1001
0110
,
0100
0010
0000
0000
,
0000
1000
1000
0000
1000
0000
1001
0000
,
0100
1000
0100
0001
,
0010
0001
0010
0001
,
0100
0000
0000
0000
,
0001
0001
0001
0001
,
1000
0010
1000
0010
,
1000
0100
1000
0010
,
0100
1001
0010
0010
,
0100
0100
0100
0100
,
1001
0000
0000
0000
;

//---------------dance-single - ----------------
#NOTES:
     dance-single:
     :
     Medium:
     5:
     0.314,0.365,0.226,0.000,0.000:
0000
0000
0000
0000
,
0000
0000
0000
0000
,
0000
0000
0000
0000
,
0000
0000
0000
0000
,
0000
0000
0000
0000
,
1000
0100
0001
0100
,
0001
1000
0001
0000
0001
1000
0100
0000
,
0001
0000
0010
0001
,
0001
1000
1000
0100
,
0001
0100
1000
0100
,
0001
1000
0001
0000
0001
1000
0100
0000
,
0001
0000
0110
0000
0100
0100
0100
0000
,
0010
0010
0100
0100
,
1001
0000
1000
0100
0001
0000
1000
0000
,
1001
0000
0000
0000
,
0100
0000
0000
0000
0010
0100
0010
0000
,
0001
0001
1000
1000
0001
0000
0000
0000
,
1000
0100
0001
1000
,
0001
0000
0000
0000
,
1001
0100
0001
0000
,
0110
1000
0100
0001
,
1000
0000
1000
1000
0001
0000
0001
0001
,
0100
0100
0100
0000
0010
0010
0010
0000
,
1000
0000
1000
0000
0100
1000
0100
0000
,
0001
0000
0001
0000
0100
0001
0100
0000
,
0010
0000
0010
0000
0010
0100
0001
0000
,
0010
0000
0010
0000
0010
0100
1000
0000
,
0100
0000
0100
0000
0001
1000
0001
1000
,
0000
0010
0010
0000
0100
0000
0110
0000
,
1010
1100
0101
0011
,
0001
0010
0001
0000
1000
0001
0010
0000
,
0100
0000
0000
0100
,
1000
1000
0001
0001
,
1010
0011
0101
1100
,
1000
0100
1000
0000
0001
1000
0010
0000
,
0100
1001
0010
0010
,
0001
0100
0010
0100
,
1001
0000
0000
0000
;

//---------------dance-single - ----------------
#NOTES:
     dance-single:
     :
     Hard:
     6:
     0.393,0.391,0.169,0.000,0.000:
0000
0000
0000
0000
,
0000
0000
0000
0000
,
0000
0000
0000
0000
,
0000
0000
0000
0000
,
0000
0000
0000
0000
,
1000
0100
1000
0100
1000
0100
1000
0100
,
1000
0001
1000
0000
1000
0001
0100
1000
,
0100
0000
0010
0100
,
0001
0000
1000
0000
0001
0001
0100
0000
,
0001
0100
0001
0100
0001
0100
0001
0100
,
0001
1000
0001
0000
0001
1000
0100
0001
,
0100
0000
1001
0000
0100
0100
0100
0000
,
0010
0010
0100
0100
,
1000
0100
1000
0000
0100
0001
0100
0000
,
1000
0000
0000
0001
0001
1000
0001
0000
,
0100
0000
0000
0000
0100
0100
0100
0000
,
0001
1000
0001
0010
0100
0000
0100
0000
,
0000
1001
0000
0100
0001
1000
0100
0001
,
1000
0001
0000
0001
,
1000
0100
1000
0000
0001
0100
0001
0000
,
0010
0010
0010
0000
0100
1000
0001
0000
,
1000
0000
0100
0100
1000
0000
0001
0001
,
0100
1000
0001
0000
0100
0001
1000
0000
,
0010
0000
1001
0000
0010
0100
1000
0100
,
0001
0000
1001
0000
0010
0100
0001
0100
,
1000
0000
1001
0000
1000
0001
0010
0100
,
0010
0000
0010
0000
0010
0100
0010
0100
,
0010
0000
0010
0000
0010
0100
0010
0100
,
0000
0010
0010
0000
1100
0000
0101
0000
,
1000
0100
0010
0001
0100
1000
0001
0010
,
1000
0001
1000
0000
1000
0001
0010
0100
,
1000
0000
0001
0010
0100
0000
0100
0000
,
1000
1000
0001
0001
,
1000
0001
0100
0010
1000
0001
0100
0010
,
1000
0001
1000
0000
1000
0001
0010
0100
,
1000
0110
1001
0110
,
1000
0100
0110
0010
,
1001
0000
0000
0000
;

//---------------dance-double - ----------------
#NOTES:
     dance-double:
     :
     Easy:
     4:
     0.248,0.287,0.141,0.000,0.000:
00000000
00000000
00000000
00000000
,
00000000
00000000
00000000
00000000
,
00000000
00000000
00000000
00000000
,
00000000
00000000
00000000
00000000
,
00000000
00000000
00000000
00000000
,
10000000
00010000
00001000
00000001
,
00000001
00001000
00010000
10000000
,
00100000
00000000
00100000
00010000
,
00001000
00010000
00100000
00000000
,
00010000
00001000
00000001
00001000
,
00010000
00001000
00010000
10000000
,
00010000
00011000
00000000
00000000
,
00000010
00001000
00000001
00000100
,
00001000
00010000
00100000
01000000
,
01100000
00000000
00000000
00000000
,
10000000
00010000
00001000
00000100
,
00001001
00000000
00000000
00000000
,
00000001
00001000
00010000
01000000
,
10010000
00000000
00000000
00000000
,
00100000
01000000
00010000
00001000
,
00011000
00000000
00001000
00010000
,
00010000
00001000
00100000
00001000
,
00100000
00010000
10000000
00010000
,
10000000
01000000
10000000
00010000
,
00100000
00010000
00100000
00001000
,
00010000
00001000
00010000
00000100
,
00001000
00000100
00001000
00000001
,
00000100
00000010
00010000
00001000
,
00000000
00001000
00010000
00000000
00011000
00000000
00011000
00000000
,
00100000
00010000
00001000
00000100
,
00000001
00001000
00010000
10000000
,
01100000
00000000
00000000
00001000
,
00000001
00001000
00010000
10000000
,
01000000
00010000
00001000
00000010
,
00000001
00000001
00010000
00010000
,
00001000
00011000
00010000
00001000
,
00100000
00000010
01000000
00000100
,
00011000
00000000
00000000
00000000
;

//---------------dance-double - ----------------
#NOTES:
     dance-double:
     :
     Medium:
     6:
     0.353,0.391,0.183,0.000,0.000:
00000000
00000000
00000000
00000000
,
00000000
00000000
00000000
00000000
,
00000000
00000000
00000000
00000000
,
00000000
00000000
00000000
00000000
,
00000000
00000000
00000000
00000000
,
00010000
01000000
00010000
01000000
00010000
01000000
00010000
01000000
,
00100000
01000000
00100000
00000000
00100000
01000000
00010000
00000000
,
00000100
00000000
00000010
00000001
,
00001000
00000001
00001000
00000100
,
00001000
00000100
00001000
00000100
00001000
00000100
00001000
00000100
,
00000010
00000100
00000010
00000000
00000010
00000100
00001000
00000000
,
01000000
11000000
00000000
00000000
,
10000000
00010000
00001000
00000001
,
00000001
00000100
00000001
00000000
00001000
00000100
00001000
00000000
,
00000100
00000000
00000000
00000000
00100000
00010000
00100000
00000000
,
10000000
00000000
00000000
00000000
01000000
01000000
01000000
00000000
,
00010000
01000000
00010000
00001000
00010000
00000000
00001000
00000000
,
00010000
00001000
00000001
00000001
,
00000100
00000100
00000100
00000100
,
00001000
00000000
00001000
00000000
00010000
10000000
00010000
00000000
,
00000000
00000000
00010000
00000000
00001000
00010000
00001000
00000000
,
00100000
00100000
01000000
01000000
,
10000000
00010000
00001000
00000010
,
00000100
00000000
00001001
00000000
00000001
00000100
00000001
00000100
,
00000000
00000000
00001001
00000000
00001000
00000100
00001000
00000100
,
00000000
00000000
00011000
00000000
00010000
00001000
00010000
00001000
,
00000000
00000000
10010000
00000000
00010000
01000000
00010000
01000000
,
00000000
00000000
10010000
00000000
10000000
01000000
10000000
01000000
,
00000000
10000000
00010000
00000000
00011000
00000000
10010000
00000000
,
00100000
10000000
00100000
10000000
00100000
10000000
00100000
10000000
,
00010000
01000000
00010000
00000000
00001000
00010000
00000010
00000100
,
00000010
00000000
00001000
00010000
,
00010000
00001000
00001000
00000001
,
00000010
00000001
00000010
00000001
00000010
00000001
00000010
00000001
,
00001000
00000100
00001000
00000000
00010000
00001000
00100000
01000000
,
00100000
10010000
00010000
00001000
,
00000001
00001001
00011000
10010000
,
01100000
00000000
00000000
00000000
;

//---------------dance-double - ----------------
#NOTES:
     dance-double:
     :
     Hard:
     7:
     0.349,0.418,0.127,0.000,0.099:
00000000
00000000
00000000
00000000
,
00000000
00000000
00000000
00000000
,
00000000
00000000
00000000
00000000
,
00000000
00000000
00000000
00000000
,
00000000
00000000
00000000
00000000
,
00010000
00001000
00100000
00001000
00010000
00001000
01000000
00001000
,
01000000
00000000
00000000
00000000
10000000
00000000
00000000
00000000
00100000
00000000
00100000
00000000
10000000
00100000
00000000
00000000
,
10000000
00000000
00100000
00010000
,
00010000
00001000
00000000
00000000
00010000
00001000
00000000
00000000
00010000
00001000
00000000
00000000
00000100
00000000
00000000
00000000
,
00001000
00010000
00000100
00010000
00001000
00010000
00000010
00010000
,
00000010
00000000
00000000
00000000
00000001
00000000
00000000
00000000
00000100
00000000
00000100
00000000
00000001
00000100
00000000
00000000
,
00000001
00001001
00010000
10000000
,
00000000
00110000
00011000
00001100
,
00000001
00000000
00001000
00000000
00000001
00001000
00000001
00000000
,
00001000
00010000
00001000
00000000
00010000
10000000
00010000
00000000
,
10000000
01000000
10000000
01000000
10000000
01000000
10000000
00000000
,
00010000
01000000
00010000
00000000
00001000
00000100
00001000
00000000
,
00000001
00000100
00000001
00000100
00000001
00000100
00000001
00000000
,
00000010
00000100
00000010
00000000
00001000
00010000
00001000
00000000
,
00010000
00001000
00010000
00000000
01000000
00100000
01000000
00000000
,
00000000
00000000
00000000
00000000
00000000
00000000
00000000
00000000
00000000
00000000
00000000
00000000
00000001
00001000
00000001
00001000
,
00000001
00000100
00000100
00000100
,
00001000
00000000
00000000
00000000
00000000
00000000
00000000
00000000
00000000
00000000
10000000
00000000
00000000
00010000
00000000
00000000
,
00000010
00000000
00000000
00000000
,
00010000
00000000
00000000
00000000
00000000
00000000
00000000
00000000
00000000
00000000
00000001
00000000
00000000
00001000
00000000
00000000
,
00100000
00000000
00000000
00000000
,
10000000
00000000
00010000
00000000
00000010
00000100
00000010
00000001
,
00001000
00000000
00010000
00000000
01000000
00100000
01000000
00010000
,
00000000
00001000
00001000
00000000
00000100
00000000
00000101
00000000
,
00000001
00000100
00000010
00000100
00001000
00000100
00010000
00000100
,
00010000
00000000
00000000
00000000
00000100
00000000
00000000
00000000
00010000
00000000
01000000
00000000
00010000
01000000
00000000
00000000
,
10000000
00000000
00000000
00000000
,
00000001
00001000
00000000
00000000
00001000
00010000
00000000
00000000
00010000
10000000
00000000
00000000
01000000
00000000
00000000
00000000
,
10000000
01000000
00100000
01000000
00010000
01000000
00001000
01000000
,
00001000
00000000
00000000
00000000
01000000
00000000
00000000
00000000
00001000
00000000
00000100
00000000
00001000
00000100
00000000
00000000
,
00000001
00001000
00000010
00001000
,
00000000
00000110
00011000
01100000
,
10010000
00000000
00000000
00000000
;

//---------------dance-couple - ----------------
#NOTES:
     dance-couple:
     :
     Challenge:
     2:
     0.478,0.809,0.917,0.000,0.000:
00000000
00000000
00000000
00000000
,
00000000
00000000
00000000
00000000
,
00000000
00000000
00000000
00000000
,
00000000
00000000
00000000
00000000
,
00000000
00000000
00000000
00000000
,
00001000
10000100
00000001
10000100
,
00000001
00001000
10000001
00000000
00000001
00001000
10000100
00000000
,
00000001
10001000
00000010
10000001
,
00000001
10001000
00001000
10000100
,
10000000
01000001
00010000
01000001
,
00010000
10000000
00010001
00000000
00010000
10000000
01000001
00000000
,
00010000
10000001
00100000
00010001
,
00010000
10000001
10000000
01000001
,
10001000
01000100
00010001
01000100
,
00100010
10001000
01000100
00000000
00100010
00010001
01000100
00000000
,
00000100
00000100
00000100
00000000
01000000
01000000
01000000
00000000
,
00000001
00000001
00000001
00000000
10000000
10000000
10000000
00000000
,
00001000
00000001
00001000
00000100
00000010
00000001
00000100
00000000
,
00010000
10000000
00010000
01000000
00100000
10000000
01000000
00000000
,
00001000
00000100
00001000
00000000
00000001
00000100
00000001
00000000
,
10000000
01000000
10000000
00000000
00010000
01000000
00010000
00000000
,
00001001
01000000
00001001
01000000
,
10010000
00000100
10010000
00000100
,
00000001
00000100
00000001
00000000
00000001
00000100
00001000
00000000
,
10000000
01000000
10000000
00000000
10000000
01000000
00010000
00000000
,
00000010
00000000
00000010
00000000
00000010
00000100
00000001
00000000
,
00100000
00000000
00100000
00000000
00100000
01000000
10000000
00000000
,
00001000
00010000
00001000
00010000
,
00000000
00100010
00100010
00000000
10011001
00000000
01011100
00000000
,
10001000
01000100
00100010
00010001
01000100
10011000
00010001
00100010
,
10001000
00010001
10001000
00000000
10001000
00010001
00100010
00000000
,
00010001
00010001
01000100
01000100
,
10001000
10001000
01000100
01000100
,
00010000
00010000
00001000
00001000
01000000
01000000
00000100
00000100
,
10000000
00010000
01000000
00000000
00000001
00001000
00000100
00000000
,
00010001
01000100
10001000
01000100
,
00010001
10001000
00010001
10001000
,
01000100
00000000
00000000
00000000
;

//---------------dance-solo - ----------------
#NOTES:
     dance-solo:
     :
     Easy:
     4:
     0.238,0.287,0.127,0.000,0.000:
000000
000000
000000
000000
,
000000
000000
000000
000000
,
000000
000000
000000
000000
,
000000
000000
000000
000000
,
000000
000000
000000
000000
,
010000
001000
100000
001000
,
100001
000000
001000
001000
,
001000
000000
000010
100000
,
000001
010000
000010
001000
,
000001
000100
000100
000001
,
100001
000000
001000
001000
,
000010
010010
000000
000000
,
100000
100000
000001
000001
,
001100
001000
000100
001000
,
000010
000000
000000
000000
,
010000
000000
000100
000100
,
000001
010000
000010
000000
,
100000
001000
000001
100000
,
000001
000000
000000
000000
,
100001
000100
010000
000000
,
000001
010000
000010
100000
,
000001
001000
000000
100000
,
100000
100001
000001
100001
,
010000
010000
001000
010000
,
000010
000010
001000
000010
,
000100
100000
001000
000001
,
001000
000100
100001
001000
,
000100
100000
000000
000000
,
100000
000001
100000
000001
,
001000
000100
001000
000100
,
010000
010000
000010
000010
,
001000
000000
000000
000000
,
000010
000010
000010
000010
,
100000
001000
100000
001000
,
000100
000001
000100
000001
,
001000
100001
000100
000100
,
010000
010000
000010
000010
,
010000
000000
000000
000000
;

//---------------dance-solo - ----------------
#NOTES:
     dance-solo:
     :
     Medium:
     5:
     0.292,0.339,0.127,0.000,0.000:
000000
000000
000000
000000
,
000000
000000
000000
000000
,
000000
000000
000000
000000
,
000000
000000
000000
000000
,
000000
000000
000000
000000
,
100000
100000
100000
000010
,
010000
000001
010000
000000
100000
000010
100000
000000
,
000010
000000
001000
001000
,
000001
100000
100000
000001
,
001000
000100
100000
000001
,
001000
000100
001000
000000
100000
000001
100000
000000
,
000100
000000
100001
000000
001000
001000
001000
000000
,
000100
000000
010000
010000
,
000010
000000
000010
001000
000001
000000
100000
000000
,
100001
000000
000000
000000
,
001000
000000
000000
000000
000010
010000
000010
000000
,
100000
100000
000001
000001
100000
000000
000000
000000
,
100000
001000
000001
100000
,
000001
000000
000000
000000
,
100001
001000
010000
000000
,
000010
001000
000001
100000
,
100000
000000
100000
100000
000001
000000
000001
000001
,
000000
010000
010000
000000
000000
000010
000010
000000
,
100000
000000
100000
000000
000100
010000
000100
000000
,
000001
000000
000001
000000
000100
000010
000100
000000
,
001000
000000
001000
000000
000010
100000
000010
000000
,
001000
000000
001000
000000
000001
010000
000001
000000
,
000100
000000
000100
000000
000001
100000
000001
100000
,
000000
000010
010000
010010
,
000100
110000
000100
000011
,
001000
000100
001000
000000
100000
000001
100000
000000
,
000100
000000
000000
001000
,
010000
010000
000010
000010
,
100000
101000
000001
001001
,
100000
010000
100000
000000
000001
000010
000001
000000
,
000100
100001
001000
001000
,
000010
100000
000001
010000
,
001000
000000
000000
000000
;

//---------------dance-solo - ----------------
#NOTES:
     dance-solo:
     :
     Hard:
     6:
     0.375,0.365,0.085,0.000,0.000:
000000
000000
000000
000000
,
000000
000000
000000
000000
,
000000
000000
000000
000000
,
000000
000000
000000
000000
,
000000
000000
000000
000000
,
100000
010000
100000
010000
100000
010000
100000
010000
,
100000
000100
010000
000000
010000
000100
100000
000001
,
001000
000000
000100
001000
,
000010
000000
000010
000000
010000
001000
010000
000000
,
000001
000010
000001
000010
000001
000010
000001
000010
,
000001
000100
000001
000000
000001
000100
001000
100000
,
001000
000000
100001
000000
001000
001000
001000
000000
,
000010
000000
010000
000000
,
100000
001000
100000
000000
001000
000001
001000
000000
,
100000
000000
000000
000000
000010
010000
000010
000000
,
010000
000000
000000
000000
001000
001000
001000
000000
,
000010
100000
000010
000000
001000
000000
001000
000000
,
000000
100000
000000
000010
010000
000001
001000
000100
,
100000
000001
000000
001000
,
010000
000100
010000
000000
100000
000100
100000
000000
,
001000
001000
001000
000000
000001
000010
000001
000000
,
010000
000000
001000
001000
010000
000000
000010
000000
,
001000
000100
100000
000000
000001
001000
000100
000000
,
100000
000000
100001
000000
000100
100000
000001
001000
,
000100
000000
001100
000000
100000
000010
010000
000001
,
100000
000000
100000
000000
010000
000010
100000
000100
,
100000
000000
100000
000000
100000
000100
100000
000100
,
100000
000000
100000
000000
100000
000100
100000
000100
,
000000
001000
001000
000000
000001
000000
000110
000000
,
100000
001000
000100
000001
010000
010000
000010
000010
,
100000
000001
100000
000000
100000
000001
001000
000100
,
100000
000000
000010
010000
000010
000000
010000
000000
,
001000
001000
000100
001000
,
100000
000001
001000
000100
100000
000001
001000
000100
,
100000
000001
100000
000000
100000
000001
000100
001000
,
100000
000000
001100
000000
000010
000010
000010
000000
,
010000
010000
010000
000000
000100
000000
000100
000000
,
100001
000000
000000
000000
;

//---------------dance-single - ----------------
#NOTES:
     dance-single:
     :
     Challenge:
     8:
     0.532,0.522,0.931,0.155,0.000:
0000
0000
0000
0000
,
0000
0000
0000
0000
,
0000
0000
0000
0000
,
0000
0000
0000
0000
,
0000
0000
0000
0000
,
1100
0100
1000
0100
1100
0100
1000
0100
,
0100
1000
1001
0000
1000
0001
0100
1000
,
1100
0000
0110
0000
0101
0000
0110
0110
,
1001
0100
0011
1100
,
0101
0100
0001
0100
0101
0100
0001
0100
,
0100
0001
1001
0000
0001
1000
0100
0001
,
0101
0100
0110
0000
1001
1001
0110
0000
,
0010
0020
0100
0130
,
1000
0100
1100
0000
0100
0001
0101
0000
,
2000
0000
0000
3010
0001
1001
0100
0000
,
0100
0000
0000
0000
0100
0010
0110
0000
,
0001
1000
0001
0010
0110
0000
0001
0000
,
0001
0100
0101
0000
0100
1000
1100
0000
,
0002
0000
0000
0013
1000
1001
0100
0000
,
0100
0000
0000
0000
0100
0010
0110
0000
,
0010
0010
1001
0000
0110
0000
0000
0000
,
1020
0000
0130
0000
0101
0001
0001
0001
,
0021
0000
0130
0000
1100
1000
1000
1000
,
1020
0000
0130
0000
0101
0001
1000
0001
,
0021
0000
0130
0000
1100
1000
0001
1000
,
1200
0000
0001
0000
1300
1000
0001
1000
,
0201
0000
1000
0000
0301
0001
1000
0001
,
0020
0000
0100
0000
0130
0100
1000
0001
,
0000
1001
1001
0000
1100
0000
0101
0000
,
1100
0100
1000
0100
1100
0100
1000
0100
,
0100
1000
1001
0000
1000
0001
0100
1000
,
1100
0000
0110
0000
0101
0000
0110
0110
,
1001
0100
0011
1100
,
0101
0100
0001
0100
0101
0100
0001
0100
,
0100
0001
1001
0000
0001
1000
0100
0001
,
0101
0100
0110
0000
1001
1001
0110
0000
,
0010
0000
0020
0000
0130
0100
1100
0101
,
1001
0000
0000
0000
;

//---------------dance-single - Edit by silenttype01----------------
#NOTES:
     dance-single:
     Edit by silenttype01:
     Edit:
     9:
     0.566,0.532,0.296,0.056,0.409: // measure 1
0000
0000
0000
0000
,  // measure 2
0000
0000
0000
0000
,  // measure 3
0000
0000
0000
0000
,  // measure 4
0000
0000
0000
0000
,  // measure 5
1100
1001
1100
0101
,  // measure 6
0100
0000
0010
0000
0100
0000
0010
0000
0001
0000
1000
0000
0001
1000
0000
0000
,  // measure 7
0001
1000
0000
0010
0000
0100
0001
0000
1000
0000
0100
0000
1000
0010
0000
0100
,  // measure 8
0000
0000
0001
0010
0100
0010
0001
1000
,  // measure 9
0010
1000
0000
0000
0001
1000
0000
0000
0100
1000
0000
0000
0001
1000
0000
0000
,  // measure 10
0010
0000
0100
0000
0001
0000
1000
0000
0100
0000
0010
0000
0001
1000
0000
0000
,  // measure 11
0001
0100
0000
0010
0000
1000
0100
0000
0010
0000
0100
0000
0010
0001
0000
1000
,  // measure 12
0000
0100
1000
0000
1100
0000
0000
0001
0000
0100
0001
0000
0101
0000
0000
0000
,  // measure 13
0000
0120
0100
0130
,  // measure 14
0010
1000
0100
1000
0001
0100
0010
0100
,  // measure 15
0001
0010
0100
1000
1001
1001
1001
0000
,  // measure 16
0010
0001
0100
0010
1000
0100
1000
0010
,  // measure 17
0100
0001
0010
0100
0110
0110
0110
0000
,  // measure 18
0010
0100
1000
0010
0100
0001
0100
1000
,  // measure 19
0100
0000
0010
0000
1000
0000
0001
0000
0010
0000
0100
0000
1000
0001
0000
0000
,  // measure 20
0100
0010
1000
0010
0001
0010
1000
0100
,  // measure 21
0010
0001
0200
0000
0010
0010
0310
0000
,  // measure 22
1001
0000
0000
0000
0001
0100
0010
1000
0010
0100
0001
0000
0100
0000
0010
0000
,  // measure 23
0000
0000
0000
0000
1000
0100
1000
0100
0010
0001
0010
0000
0000
0000
0000
0000
,  // measure 24
1000
0100
0001
0100
1000
0010
0100
0100
,  // measure 25
0001
0010
0001
0010
0001
1000
0100
1000
0010
0000
0100
0001
0000
0000
0000
0000
,  // measure 26
1000
0010
0100
0001
1000
0100
0000
0000
,  // measure 27
1000
0000
0100
0000
0010
0000
0001
0000
0100
0000
0001
0000
0000
0010
0000
0100
,  // measure 28
1000
0000
0001
0000
0000
0100
0000
0010
1000
0000
0000
0000
0000
0000
0100
0000
,  // measure 29
0010
0001
0100
0000
0000
0001
0001
0001
,  // measure 30
1100
0000
0100
0000
1000
0000
0100
0000
1100
0000
1000
0000
0001
0100
0000
0000
,  // measure 31
0001
1000
0000
0010
0000
0100
0001
0000
0010
0000
0100
0000
1000
0010
0000
0100
,  // measure 32
0000
0000
0001
0100
1000
0100
0001
0010
,  // measure 33
0001
0100
0000
0000
0010
1000
0000
0000
0100
1000
0000
0000
0001
0010
0000
0000
,  // measure 34
0101
0000
0100
0000
0001
0000
0100
0000
0101
0000
0001
0000
1000
0010
0000
0000
,  // measure 35
1000
0100
0000
0010
0000
0001
0100
0000
0010
0000
1000
0000
0001
0010
0000
0100
,  // measure 36
0000
1000
0001
0000
1001
0000
0000
0010
0000
0001
1000
0000
1001
0000
0000
0000
,  // measure 37
0010
1000
0010
0000
0100
0001
0100
0000
0001
1000
0100
0000
0010
0001
1000
0000
,  // measure 38
2002
0000
0000
0000
0000
0000
0000
0000
0000
0000
0000
3003
0000
0000
0000
0000
;

//---------------dance-double - Edit by silenttype01----------------
#NOTES:
     dance-double:
     Edit by silenttype01:
     Challenge:
     9:
     0.596,0.652,0.282,0.042,0.402:
00000000
00000000
00000000
00000000
,
00000000
00000000
00000000
00000000
,
00000000
00000000
00000000
00000000
,
00000000
00000000
00000000
00000000
,
00000000
00000000
00000000
00000000
,
10000000
01000000
00100000
01000000
00010000
01000000
00001000
01000000
,
00001000
00100000
00000000
00001000
00000000
00000100
00001000
00000000
00000100
00000000
00000001
00000000
00001000
00000001
00000000
00001001
,
00000000
00000000
00000001
00000001
00000100
00000100
00001000
00001000
,
01000000
00100000
00000000
00000000
00010000
00001000
00000000
00000000
00000100
00000010
00000000
00000000
00001000
00000100
00000000
00000000
,
00000001
00000100
00000010
00000100
00001000
00000100
00010000
00000100
,
00010000
00000100
00000000
00010000
00000000
01000000
00010000
00000000
01000000
00000000
10000000
00000000
00010000
10000000
00000000
10010000
,
00000000
01000000
00010000
00000000
01010000
00000000
00000000
10000000
00000000
01000000
10000000
00000000
11000000
00000000
00000000
00000000
,
10000000
01000000
10000000
00000000
01000000
00010000
01000000
00000000
00010000
00001000
00010000
00000000
00001000
00000100
00001000
00000000
,
00000100
00000001
00000100
00001000
00000100
00000010
00010000
00000100
,
00001000
00000010
00010000
00000100
00001001
00001001
00001001
00000001
,
00000010
00001000
00010000
00100000
01000000
00001000
00100000
00010000
,
01000000
00001000
00100000
01000000
00100000
10010000
10010000
00000000
,
01000000
10000000
01000000
00010000
01000000
00100000
00001000
01000000
,
00010000
00100000
00001000
01000000
10010000
10010000
10010000
10000000
,
00100000
00010000
00001000
00000010
00000100
00010000
00000010
00001000
,
00000100
00000000
00000000
00000000
00000000
00001000
00000000
00000000
00000100
00000000
00000000
00000000
00000000
00000000
00000000
00000000
00000010
00000000
00000000
00000000
00000000
00000001
00000000
00000000
00000010
00000000
00000000
00000000
00000000
00000000
00000000
00000000
00000100
00000000
00000000
00000000
00000000
00001000
00000000
00000000
00000100
00000000
00000000
00000000
00000000
00001000
00000000
00000000
00000100
00000000
00000000
00000000
00000000
00001000
00000000
00000000
00000100
00000000
00000000
00000000
00000000
00001000
00000000
00000000
,
00000100
00000000
00001000
00000100
00000001
00000100
00001000
00000010
,
00000000
00000000
00000100
00000001
00001000
00000010
00000000
00000000
,
00001000
00010000
01000000
00100000
10000000
00010000
01000000
10000000
,
01000000
00010000
01000000
00010000
01000000
00000000
00100000
10000000
00100000
00000000
01000000
00010000
00000000
00000000
00000000
00000000
,
10000000
00100000
01000000
00001000
00010000
00000010
00001000
00000001
,
00000100
00000010
00010000
00001000
01000000
00100000
10000000
00020000
,
10000000
10000000
10000000
10000000
10000000
10000000
10000000
10030000
,
22000000
00000000
00000000
00000000
00000000
00000000
00000000
00000000
00000000
00000000
00000000
00000000
00000000
00000000
00000000
00000000
33000000
00000000
00000000
00000000
00000000
10000000
00000000
00000000
01000000
00000000
00000000
00000000
00000000
10000000
00000000
00000000
01000000
00000000
00000000
00000000
00000000
10000000
00000000
00000000
01000000
00000000
00000000
00000000
00000000
10000000
00000000
00000000
01000000
00000000
00000000
00000000
00000000
10000000
00000000
00000000
01000000
00000000
00000000
00000000
00000000
00000000
00000000
00000000
,
11000000
01000000
10000000
01000000
11000000
01000000
10000000
01000000
,
00100000
00001000
00000000
00010000
00000000
00001000
00100000
00000000
00010000
00000000
00100000
00000000
00001000
00010000
00000000
00001000
,
00000000
00100000
00100000
01000000
01000000
10000000
10000000
00100000
,
10000000
01000000
00000000
00000000
00010000
00001000
00000000
00000000
00000010
00000001
00000000
00000000
00000100
00000001
00000000
00000000
,
00000101
00000100
00000001
00000100
00000101
00000100
00000001
00000100
,
00000010
00010000
00000000
00001000
00000000
00010000
00000010
00000000
00001000
00000000
00000010
00000000
00010000
00001000
00000000
00010000
,
00000000
00000010
00001000
00000000
00001010
00000000
00000000
00000001
00000000
00000010
00000001
00000000
00000011
00000000
00000000
00000000
,
00001000
00000100
00000001
00000000
00001000
00000100
00000001
00000000
00001000
00000100
00000001
00000000
00001000
00000100
00000001
00000000
,
00001001
00000000
00000000
00000000
;
