#TITLE:Jelly Kiss;
#SUBTITLE:Midihead's SMAK mix;
#ARTIST:Togo Project feat. Sana;
#TITLETRANSLIT:;
#SUBTITLETRANSLIT:;
#ARTISTTRANSLIT:;
#CREDIT:;
#BANNER:Jelly Kiss Midihead's SMAK mix.png;
#BACKGROUND:Jelly Kiss Midihead's SMAK mix-bg.png;
#LYRICSPATH:;
#CDTITLE:./CDTITLES/DANCE DANCE REVOLUTION ULTRAMIX 3.png;
#MUSIC:Jelly Kiss Midihead's SMAK mix.ogg;
#OFFSET:0.000;
#SAMPLESTART:23.100;
#SAMPLELENGTH:15.000;
#SELECTABLE:YES;
#BPMS:0.000=135.000;
#STOPS:;
#BGCHANGES:;

//---------------dance-single - ----------------
#NOTES:
     dance-single:
     :
     Beginner:
     1:
     0.127,0.160,0.009,0.045,0.000:
0000
0000
0000
0000
,
0000
0000
0000
0000
,
0000
0000
0000
0000
,
0000
0000
0000
0000
,
0000
0000
0000
0000
,
0001
0000
1000
1000
,
0000
0001
0000
0001
,
0000
0100
0000
0100
,
0000
0010
0000
0010
,
0000
1000
0000
1000
,
0000
0001
0000
0001
,
0000
1000
0000
0001
,
0001
0001
0001
0000
,
1000
0000
0001
0000
,
0001
0000
1000
0000
,
0100
0000
1000
0000
,
0010
0000
0000
0000
,
0001
0000
0100
0000
,
0001
0000
1000
1000
,
1000
0000
0000
0000
,
0000
0000
0010
0000
,
0100
0100
0000
0000
,
0010
0010
0000
0000
,
0001
0000
1000
0000
,
0001
0000
0001
0000
,
1000
0000
0001
0000
,
1000
0000
1000
0000
,
0100
0000
0100
0000
,
0010
0000
0010
0000
,
0001
0000
0001
0000
,
1000
0000
0000
0000
,
0001
0000
0001
0000
,
1000
0000
1000
0000
,
0002
0000
0000
0003
,
0000
0000
0100
0100
,
0200
0000
0000
0300
,
0000
0000
0000
0000
,
0001
0000
0000
1000
,
0000
0010
0000
0000
,
0100
0000
0000
0001
,
0000
1000
0000
0000
,
1000
1000
0000
0000
,
0001
0001
0000
0000
,
0000
0100
0000
0100
,
0000
0100
0000
0000
,
0020
0000
0000
0030
,
0010
0000
0000
0000
,
2000
0000
0000
3000
,
1000
0000
0000
0000
,
0002
0000
0000
0003
,
0001
0000
1000
0000
,
0000
0000
0000
0000
,
0000
0000
1000
0000
,
1000
0000
0001
0000
,
0001
0000
0010
0000
,
0010
0000
0100
0000
,
0100
0000
1000
0000
,
1000
0000
0001
0000
,
1000
0000
1001
0000
;

//---------------dance-single - ----------------
#NOTES:
     dance-single:
     :
     Easy:
     2:
     0.177,0.217,0.036,0.091,0.000:
0000
0000
0000
0000
,
0000
0000
0000
0000
,
0000
0000
0000
0000
,
0000
0000
0000
0000
,
0000
0000
0000
0000
,
0001
0000
1000
1000
,
0001
0000
0100
0000
,
0001
0000
1000
0000
,
0100
0000
0010
0001
,
1000
0000
0001
0000
,
0100
0000
1000
0000
,
0010
0000
0001
0000
,
1000
1000
1000
1000
,
0001
0000
1000
0000
,
0100
0000
1000
0001
,
1000
0000
0001
0000
,
0010
0000
0100
0000
,
1001
0000
0001
0000
,
1000
0000
1000
0000
,
0001
0000
0100
0000
,
0001
0000
1000
0000
,
0010
0000
1000
0000
,
0100
0000
0010
0000
,
0001
1000
0001
0001
,
1000
0001
1000
1000
,
0001
0200
0000
0300
,
0010
2000
0000
3000
,
1001
0000
1000
0000
,
0001
0000
0100
0100
,
0010
0000
1000
0000
,
0001
0000
1000
1000
,
0100
0000
0010
0000
,
0001
0000
1000
0001
,
0100
0000
0010
0000
,
0100
0000
0001
1000
,
0010
0000
1000
0000
,
0001
0000
0100
0010
,
1000
0000
1000
0000
,
0001
0000
1000
1000
,
0001
0000
0100
0000
,
0001
0000
0010
0010
,
0100
0000
1000
0000
,
0010
0100
0000
0100
,
0001
0000
0001
1000
,
0000
1000
0001
1000
,
1002
0000
0000
0003
,
0200
0000
0000
0300
,
0020
0000
0000
0030
,
2000
0000
0000
3000
,
0200
0000
0000
0300
,
0020
0000
0000
0000
,
0000
0000
0000
0030
,
0000
0000
0001
0000
,
0001
0000
1000
0000
,
0010
0100
0001
0000
,
1000
0000
1000
0000
,
0010
0100
0001
0000
,
1000
0000
0001
0001
,
1000
1000
2002
0000
,
0000
0000
0000
3003
;

//---------------dance-single - ----------------
#NOTES:
     dance-single:
     :
     Medium:
     5:
     0.320,0.353,0.064,0.045,0.000:
0000
0000
0000
0000
,
0000
0000
0000
0000
,
0000
0000
0000
0000
,
0000
0000
0000
0000
,
0000
0000
0000
0000
,
0001
0001
0001
0001
,
1000
0000
1000
0000
1000
0010
1000
0000
,
0100
0100
0100
0100
,
0010
0000
0010
0000
0010
0001
0010
0000
,
0001
0001
0001
0001
,
1000
0000
1000
0000
1000
0001
1000
0000
,
1001
0000
0110
0000
,
1001
0000
0101
0000
0010
1000
0010
1000
,
0100
0010
0001
0100
,
0010
1000
0010
0000
1000
0000
0100
0000
,
0001
0000
0100
0000
0100
0010
0001
0000
,
0100
0000
0010
0000
1000
0001
1000
0001
,
0100
0000
0010
1000
,
0100
0010
0001
0100
,
0010
1000
0010
0000
0100
0001
0100
0000
,
0001
0000
1000
0000
1000
0100
1000
0100
,
0010
0001
1000
0100
,
0010
0001
1000
0001
,
0100
0000
0001
0000
0010
0000
0100
1000
,
0001
0010
0100
0000
0001
0000
0100
0010
,
0000
0000
0001
0010
0100
0000
1000
0000
,
0000
1000
0100
1000
,
1001
0000
0000
0000
0010
0100
0010
0100
,
0000
0000
0000
0100
0000
0100
0001
0000
,
0010
0000
0001
0000
1000
0001
1000
0001
,
0000
1000
0010
1000
,
0100
0000
0010
0000
0001
0000
0100
0001
,
0100
0000
0100
0000
0010
0000
0010
1000
,
0020
0000
0100
0130
,
1000
0000
0100
0000
0010
0001
0010
0001
,
0100
0010
1000
0001
,
0100
0010
0100
0010
0100
0000
0000
0000
,
1000
0100
1000
0000
0001
0100
0001
0000
,
1000
0000
0100
1000
0000
0001
0010
0000
,
0010
0001
0010
0000
0100
1000
0100
0000
,
0010
0000
0100
0000
1000
0001
1000
0000
,
0001
0000
0101
0000
1000
0001
1000
0000
,
1000
0000
1100
0000
0001
1000
0001
1000
,
0002
0100
0000
0100
,
0000
0103
0000
0000
,
1000
0100
1000
0100
,
0000
0010
0001
0010
,
0000
0001
0100
0001
,
0000
1000
0010
1000
,
0000
0100
1000
0100
,
0000
0001
1000
0002
,
0000
0000
0000
0000
0000
0000
0000
2000
,
0000
0000
3003
0000
1000
0001
0100
0000
,
0001
1000
0010
0000
1000
0000
0100
0000
,
0001
0000
0010
0000
1000
0100
1000
0000
,
0010
0100
0001
1000
,
0010
0000
0010
0000
1000
0100
1000
0000
,
0001
0000
0001
0000
1000
0010
1000
0000
,
0001
0010
0001
0100
0020
0000
0000
0000
,
0000
0000
0000
0030
;

//---------------dance-single - ----------------
#NOTES:
     dance-single:
     :
     Hard:
     6:
     0.417,0.435,0.191,0.146,0.000:
0000
0000
0000
0000
,
0000
0000
0000
0000
,
0000
0000
0000
0000
,
0000
0000
0000
0000
,
0000
0000
0000
0000
,
1000
0100
0010
0001
,
1000
0000
0100
0000
1000
0100
1000
0100
,
0010
0001
0100
0010
,
1000
0000
0001
0000
0100
0010
0100
0010
,
1000
0000
1001
0001
0010
0000
0110
0100
,
1000
0000
0001
0000
0100
0001
0100
0001
,
0101
0000
1010
0000
,
1100
0000
0011
0000
0001
0100
0010
1000
,
1010
0000
1000
0000
0001
0100
0001
0100
,
0000
0000
1000
0000
1000
0010
0100
0001
,
0100
0000
0001
0000
1000
0100
0010
0001
,
0000
0000
0001
0000
0010
0000
0100
1000
,
0001
0000
0100
0010
0100
0001
0100
0010
,
0000
0000
1000
0010
0000
0010
0100
0001
,
0200
0010
1000
0301
,
0020
0100
1000
0031
,
0100
1000
0100
0010
,
0001
0000
1000
0000
0010
0000
1000
0001
,
0100
0020
1000
0130
,
0000
0010
0200
0000
0001
0000
0310
0000
,
0000
0000
0010
1000
0200
0000
0320
0000
,
0030
0000
0001
0100
0010
0000
0100
0000
,
1001
0000
0001
0000
0100
0010
0001
1000
,
0000
0100
0010
0000
1000
0100
1000
0100
,
0010
0000
0001
1000
0001
1000
0010
0100
,
0000
0100
0000
0100
0001
0000
1000
0100
,
1000
0000
0001
0000
0100
0010
0100
0001
,
0000
1000
0001
0000
0010
0100
0010
0001
,
0200
0010
1000
0310
,
0100
0000
0010
1000
0000
1000
0100
1000
,
0100
0010
0001
0100
0010
0100
0001
0010
,
0100
1000
0010
0100
0010
1000
0100
0010
,
0001
1000
0001
0000
1000
0001
1000
0000
,
1100
0000
0100
1000
0000
1000
0100
0000
,
1001
0100
1000
0000
0001
0100
0001
0000
,
1000
0000
0010
0100
0000
0100
0001
0000
,
1001
0100
0001
0000
0001
1000
0001
0000
,
1001
0100
1000
1000
0000
1000
0010
0100
,
0001
1001
0100
1001
,
0010
1001
0000
0000
,
1001
0000
0001
0100
0001
0100
0010
2000
,
0000
0000
3100
1000
0100
0010
0002
0000
,
0000
0000
0013
0001
0010
0001
0100
0020
,
0000
0000
0130
0010
1000
0010
1000
0200
,
0000
0000
1300
0001
0100
0001
1000
0200
,
0000
0000
0310
0001
1000
0001
2002
0000
,
0000
0000
0000
0000
0000
0000
3003
1000
,
0000
0001
0100
0010
1000
0001
1000
0000
,
0001
1000
0001
0000
0101
0000
0100
0001
,
0000
0001
0100
0000
0001
0100
0001
0000
,
1000
0100
1000
0000
0001
0000
0010
0100
,
0000
0100
1000
0000
1001
0100
0001
0000
,
0001
1000
0001
0000
1001
0100
1000
1000
,
0000
0100
1000
0001
2002
0000
0000
0000
,
0000
0000
0000
3003
;

//---------------dance-double - ----------------
#NOTES:
     dance-double:
     :
     Beginner:
     1:
     0.123,0.160,0.009,0.045,0.000:
00000000
00000000
00000000
00000000
,
00000000
00000000
00000000
00000000
,
00000000
00000000
00000000
00000000
,
00000000
00000000
00000000
00000000
,
00000000
00000000
00000000
00000000
,
10000000
00000000
00000000
10000000
,
00000000
00100000
00000000
00100000
,
00000000
00000000
00000000
10000000
,
00000000
00010000
00000000
00010000
,
00000000
00000000
00000000
10000000
,
00000000
10000000
00000000
00010000
,
00000000
00010000
00000000
10000000
,
10000000
10000000
10000000
00000000
,
01000000
00000000
01000000
00000000
,
00010000
00000000
00010000
00000000
,
00001000
00000000
00001000
00000000
,
00000100
00000000
00000000
00000000
,
00000001
00000000
00000001
00000000
,
00001000
00000000
00000010
00000010
,
00000010
00000000
00000000
00000000
,
00000000
00000000
00010000
00000000
,
00001000
00001000
00000000
00000000
,
00010000
00010000
00000000
00000000
,
01000000
00000000
01000000
00000000
,
00100000
00000000
00100000
00000000
,
00010000
00000000
00010000
00000000
,
10000000
00000000
10000000
00000000
,
01000000
00000000
01000000
00000000
,
00100000
00000000
00100000
00000000
,
00010000
00000000
00010000
00000000
,
00100000
00000000
00000000
00000000
,
00001000
00000000
00001000
00000000
,
00010000
00000000
00010000
00000000
,
00002000
00000000
00000000
00003000
,
00000000
00000000
00000100
00000100
,
00000200
00000000
00000000
00000300
,
00000000
00000000
00000000
00000000
,
00001000
00000000
00000000
00001000
,
00000000
00000001
00000000
00000000
,
00000001
00000000
00000000
00000010
,
00000000
00000010
00000000
00000000
,
00001000
00001000
00000000
00000000
,
00000001
00000001
00000000
00000000
,
00000000
00000100
00000000
00000100
,
00000000
00000100
00000000
00000000
,
00002000
00000000
00000000
00003000
,
00001000
00000000
00000000
00000000
,
00020000
00000000
00000000
00030000
,
00010000
00000000
00000000
00000000
,
00002000
00000000
00000000
00003000
,
00001000
00000000
00001000
00000000
,
00000000
00000000
00000000
00000000
,
00000000
00000000
00100000
00000000
,
00100000
00000000
00010000
00000000
,
00010000
00000000
10000000
00000000
,
10000000
00000000
01000000
00000000
,
01000000
00000000
00010000
00000000
,
00010000
00000000
00001000
00000000
,
00000100
00000000
00001001
00000000
;

//---------------dance-double - ----------------
#NOTES:
     dance-double:
     :
     Easy:
     3:
     0.169,0.189,0.036,0.091,0.000:
00000000
00000000
00000000
00000000
,
00000000
00000000
00000000
00000000
,
00000000
00000000
00000000
00000000
,
00000000
00000000
00000000
00000000
,
00000000
00000000
00000000
00000000
,
00010000
00000000
00001000
00001000
,
00010000
00000000
00000010
00000000
,
00001000
00000000
00000001
00000000
,
00000100
00000000
00001000
00010000
,
00001000
00000000
00100000
00000000
,
00010000
00000000
10000000
00000000
,
01000000
00000000
00100000
00000000
,
00001000
00001000
00001000
00001000
,
00010000
00000000
00000010
00000000
,
00001000
00000000
00000001
00000100
,
00001000
00000000
00010000
00000000
,
01000000
00000000
10000000
00000000
,
10010000
00000000
00100000
00000000
,
10000000
00000000
00010000
00000000
,
01000000
00000000
00001000
00000000
,
00010000
00000000
00000100
00000000
,
00001000
00000000
00000001
00000000
,
00000010
00000000
00001000
00000000
,
00010000
00000000
00100000
00000000
,
10000000
00000000
01000000
00000000
,
00020000
00000000
00000000
00030000
,
00002000
00000000
00000000
00003000
,
00011000
00000000
00010000
00000000
,
00000010
00000000
00000100
00000100
,
00000001
00000000
00001000
00000000
,
00000100
00000000
00010000
00010000
,
00001000
00000000
00001000
00000000
,
00100000
00000000
00010000
10000000
,
01000000
00000000
00100000
00000000
,
01000000
00000000
10000000
00100000
,
01000000
00000000
00010000
00000000
,
00100000
00000000
00001000
00010000
,
00001000
00000000
00010000
00000000
,
00000100
00000000
00000010
00000010
,
00000100
00000000
00001000
00000000
,
00000001
00000000
00000100
00000100
,
00001000
00000000
00010000
00000000
,
01000000
10000000
00000000
00010000
,
00100000
00000000
00001000
00010000
,
00000000
00001000
00000100
00000001
,
00001002
00000000
00000000
00000003
,
00000200
00000000
00000000
00000300
,
00002000
00000000
00000000
00003000
,
00020000
00000000
00000000
00030000
,
02000000
00000000
00000000
03000000
,
00200000
00000000
00000000
00000000
,
00000000
00000000
00000000
00300000
,
00000000
00000000
10000000
00000000
,
01000000
00000000
00010000
00000000
,
00001000
00010000
00001000
00000000
,
00000100
00000000
00000001
00000000
,
00000100
00001000
00010000
00000000
,
00001000
00000000
00010000
00010000
,
00001000
00001000
00022000
00000000
,
00000000
00000000
00033000
00000000
;

//---------------dance-double - ----------------
#NOTES:
     dance-double:
     :
     Medium:
     5:
     0.318,0.353,0.064,0.045,0.000:
00000000
00000000
00000000
00000000
,
00000000
00000000
00000000
00000000
,
00000000
00000000
00000000
00000000
,
00000000
00000000
00000000
00000000
,
00000000
00000000
00000000
00000000
,
00100000
10000000
01000000
00010000
,
00001000
00000000
00000100
00000000
00000001
00000010
00000001
00000000
,
00000100
00001000
00010000
01000000
,
10000000
00000000
00100000
00000000
00010000
00001000
00010000
00000000
,
00001000
00000100
00000001
00001000
,
00000010
00000000
00000100
00000000
00001000
00010000
00001000
00000000
,
00011000
00000000
01100000
00000000
,
01010000
00000000
10100000
00000000
10000000
01000000
10000000
01000000
,
00010000
00001000
00000100
00000001
,
00001000
00000001
00001000
00000000
00000001
00000000
00000010
00000000
,
00001000
00000000
00010000
00000000
00001000
00010000
00001000
00000000
,
01000000
00000000
00100000
00000000
10000000
00010000
10000000
01000000
,
00100000
00000000
00010000
01000000
,
00100000
10000000
00010000
01000000
,
00001000
00010000
00001000
00000000
00010000
00001000
00010000
00000000
,
00000010
00000000
00001000
00000000
00000100
00001000
00000100
00001000
,
00000001
00000100
00000010
00001000
,
00000001
00000001
00001000
00000001
,
00000100
00000000
00001000
00000000
00010000
00000000
00001000
00010000
,
00001000
00010000
01000000
00000000
00100000
00000000
00010000
00100000
,
00000000
00000000
01000000
00010000
00001000
00000000
00000100
00000000
,
00000000
00000010
00001000
00000001
,
00001001
00000000
00000000
00000000
00000001
00000010
00000001
00000010
,
00000000
00000000
00000000
00001000
00000000
00000001
00000100
00000000
,
00001000
00000000
00010000
00000000
00001000
00010000
00001000
00010000
,
00000000
00100000
10000000
00010000
,
01000000
00000000
00100000
00000000
10000000
00000000
01000000
00010000
,
00001000
00000000
00010000
00000000
00001000
00000000
00000100
00000001
,
00000020
00000000
00000001
00000031
,
00000100
00000000
00001000
00000000
00010000
00001000
00010000
00001000
,
01000000
00100000
10000000
00010000
,
01000000
00000000
01000000
00100000
01000000
00000000
00000000
00000000
,
00100000
10000000
01000000
00000000
01000000
00010000
00001000
00000000
,
00010000
00000000
00001000
00010000
00000000
00010000
00000100
00000000
,
00000100
00000010
00000001
00000000
00000100
00000010
00001000
00000000
,
00000001
00000000
00000100
00000000
00001000
00010000
01000000
00000000
,
10000000
00000000
11000000
00000000
00010000
10000000
00010000
00000000
,
00010000
00000000
00110000
00000000
10000000
01000000
00010000
00001000
,
00020000
00001000
00000000
00001000
,
00000000
00031000
00000000
00000000
,
00001000
00000010
00001000
00000010
,
00000000
00000001
00000100
00001000
,
00000000
00010000
01000000
10000000
,
00000000
10000000
00100000
00010000
,
00000000
00001000
00000010
00000001
,
00000000
00000001
00000100
00002000
,
00000000
00000000
00000000
00000000
00000000
00000000
00000000
00020000
,
00000000
00000000
00033000
00000000
00001000
00010000
01000000
00000000
,
10000000
00010000
00100000
00000000
00010000
00000000
10000000
00000000
,
01000000
00000000
00010000
00000000
00001000
00000100
00000001
00000000
,
00001000
00000010
00000100
00000001
,
00001000
00000000
00001000
00000000
00000001
00000100
00001000
00000000
,
00010000
00000000
00010000
00000000
00001000
00010000
01000000
00000000
,
10000000
00100000
10000000
01000000
00200000
00000000
00000000
00000000
,
00000000
00000000
00000000
00300000
;

//---------------dance-double - ----------------
#NOTES:
     dance-double:
     :
     Hard:
     6:
     0.407,0.408,0.146,0.136,0.000:
00000000
00000000
00000000
00000000
,
00000000
00000000
00000000
00000000
,
00000000
00000000
00000000
00000000
,
00000000
00000000
00000000
00000000
,
00000000
00000000
00000000
00000000
,
00010000
10000000
01000000
00010000
,
00001000
00000000
00000100
00000000
00000001
00000010
00000001
00001000
,
00000001
00000100
00001000
00010000
,
01000000
00000000
10000000
00000000
00100000
01000000
00100000
01000000
,
00010000
00000000
10000000
01000000
00010000
00000000
00010000
00001000
,
00000100
00000000
00000001
00000000
00001000
00000010
00001000
00000001
,
00000101
00000000
00001010
00000000
,
00001100
00000000
00010100
00000000
00001000
00100000
00010000
01000000
,
01010000
00000000
00010000
00000000
01000000
00100000
10000000
01000000
,
00000000
00000000
00010000
00000000
00001000
00000100
00000001
00001000
,
00000010
00000000
00000100
00000000
00000001
00000010
00000100
00001000
,
00000000
00000000
00000010
00000000
00010000
00000000
00001000
00010000
,
01000000
00000000
01000000
10000000
01000000
00100000
01000000
00010000
,
00000000
00000000
00001000
00010000
00000000
00000100
00010000
00001000
,
00020000
00000010
00000100
00031000
,
00002000
00100000
01000000
00013000
,
00001000
00000100
00000010
00001000
,
00000001
00000000
00001000
00000000
00000010
00000000
00001000
00000001
,
00000100
00002000
00010000
00103000
,
00000000
00010000
02000000
00000000
00010000
00000000
03100000
00000000
,
00000000
00000000
00100000
10000000
02000000
00000000
03020000
00000000
,
00030000
00000000
00001000
00000100
00000010
00000000
00000100
00000000
,
00001001
00000000
00001000
00000000
00000001
00001000
00000100
00000010
,
00000000
00000001
00000100
00000000
00000010
00010000
00001000
00100000
,
00001000
00000000
00100000
00001000
00010000
00001000
00100000
01000000
,
00000000
00010000
00000000
01000000
10000000
00000000
00100000
01000000
,
00100000
00000000
10000000
00000000
01000000
00010000
00001000
00000100
,
00000000
00000010
00001000
00000000
00000001
00001000
00000001
00000100
,
00002000
00010000
00100000
00013000
,
00020000
00001000
00000010
00031000
,
00001000
00010000
01000000
10000000
00100000
00010000
00001000
00010000
,
00100000
10000000
01000000
00010000
00001000
00000100
00000001
00000010
,
00000100
00010000
00001000
00000000
00001000
00100000
00010000
00000000
,
10000000
00000000
01000000
00010000
00000000
00010000
00001000
00000000
,
00011000
00010000
00001000
00000000
00000100
00000001
00001000
00000000
,
00000010
00000000
00000010
00001000
00000000
00000001
00000100
00000000
,
00001001
00000100
00001000
00000000
00010000
00001000
01000000
00000000
,
10010000
01000000
00010000
10000000
00000000
10000000
01000000
00010000
,
00001000
00011000
00000010
00011000
,
01000000
00011000
00000000
00000000
,
00001001
00000000
00001000
00000001
00000100
00001000
00010000
00200000
,
00000000
00000000
10300000
01000000
00100000
01000000
00020000
00000000
,
00000000
00000000
00030010
00010000
00001000
00010000
00000100
00000020
,
00000000
00000000
00000031
00000100
00001000
00010000
00001000
00000200
,
00000000
00000000
00001300
00010000
01000000
10000000
00100000
02000000
,
00000000
00000000
03010000
10000000
01000000
00010000
00002000
00000000
,
00000000
00000000
00000000
00000000
00000000
00000000
00003000
00010000
,
00000000
00100000
01000000
00010000
01000000
00001000
00010000
00000000
,
00010000
00000010
00001000
00000000
00000001
00000000
00000100
00001000
,
00000000
00001000
00010000
00000000
00011000
00001000
00010000
00000000
,
01000000
10000000
00010000
00000000
00100000
00000000
00100000
00010000
,
00000000
10000000
01000000
00000000
10010000
01000000
00010000
00000000
,
00001000
00010000
00000100
00000000
00001001
00000100
00001000
00000001
,
00000000
00000001
00000100
00001000
00020000
00000000
00000000
00000000
,
00000000
00000000
00000000
00030000
;

//---------------dance-single - ----------------
#NOTES:
     dance-single:
     :
     Challenge:
     8:
     0.496,0.655,0.255,0.255,0.227:
0000
0000
0000
0000
,
0000
0000
0000
0000
,
0000
0000
0000
0000
,
0000
0000
0000
0000
,
0000
0000
0000
0000
,
1000
0000
0000
1000
0000
0000
0100
0000
0010
0000
0000
0010
0000
0000
0001
0000
,
0100
0000
0000
0100
0000
0000
0001
0000
1000
0000
0000
1000
0000
0000
0100
0000
,
0010
0000
0000
0010
0000
0000
1000
0000
0001
0000
0000
0001
0000
0000
0100
0000
,
0010
0000
0000
0010
0000
0000
1000
0000
0001
0000
0000
0001
0000
0000
0010
0000
,
1000
0000
0000
1000
0000
0000
0100
0000
0001
0000
0000
0001
0000
0000
0100
0000
,
1000
0000
0000
1000
0000
0000
0010
0000
0001
0000
0000
0001
0000
0000
1000
0000
,
0001
0000
0000
0001
0000
0000
1000
0000
0010
0000
0000
0010
0000
0000
0001
0000
,
0100
0000
0000
0100
0000
0000
1000
0000
0001
0000
0000
0001
0000
0000
0100
0000
,
1000
0000
0001
0100
1000
0100
0001
0010
,
0001
0000
1000
0100
0010
0001
0100
0010
,
0100
0000
0001
1000
0001
0100
0001
1000
,
0001
0000
0000
0000
0000
0000
0100
0001
1000
0000
0000
0000
0000
0000
1000
0001
,
0100
0000
1000
0001
0010
0001
0010
1000
,
0100
0000
0000
0000
0001
0000
0100
0000
1000
0000
0100
0000
0001
0000
0100
1000
,
0000
0000
0001
0100
0010
0000
1000
0100
,
0010
0000
0001
1000
0000
0001
1000
0000
0100
0000
0000
0000
0100
0000
0001
0000
,
1000
0000
0100
0010
1000
0000
0001
0100
,
1000
0000
1000
0100
0001
0000
0001
0010
,
0100
0011
0101
1100
,
0001
0011
0101
1100
,
0010
1010
1001
0101
,
1000
1100
0101
1001
,
0001
0000
0010
0000
0100
0000
0000
0001
0000
0000
1000
0000
0010
0000
0000
0000
,
0001
0000
0100
0000
1000
0000
0000
0100
0000
0000
0001
0000
1000
0000
0000
0000
,
0010
0000
0100
0000
1000
0000
0000
0100
0000
0000
0001
0000
1000
0000
0000
0000
,
0100
0000
0001
0000
0100
0000
0000
1000
0000
0000
0001
0000
0010
0000
0000
0000
,
0100
0000
1000
0000
0010
0000
0000
0100
0000
0000
0001
0000
1000
0000
0000
0000
,
0100
0000
0001
0000
0100
0000
0000
1000
0000
1000
0001
0000
0010
0000
0001
0000
,
0100
0000
1000
0000
0001
0000
0000
0010
0000
0010
1000
0000
0010
0000
0100
0000
,
0010
0000
1000
0000
0001
0000
0000
0100
0000
0100
0001
0000
1000
0000
0001
0000
,
0010
0000
0100
0000
0010
0000
0000
1000
0000
1000
0010
0000
0001
0000
0010
0000
,
0001
0000
0100
0000
1000
0000
0000
0100
0000
0100
0001
0000
1000
0000
0000
0000
,
1001
0100
0001
1000
0001
0100
0001
1000
,
0010
1000
0001
0100
0001
1000
0010
0000
,
1001
0100
1000
0001
0010
0001
1000
0100
,
0001
0100
1000
0001
0010
0100
1000
0000
,
1001
0010
0001
1000
0010
0001
1000
0000
,
1001
0010
0001
1000
0010
0001
1000
0000
,
2002
0000
0000
0000
,
0000
0000
0000
3003
,
2000
3200
0320
0032
,
0023
0230
2300
3200
,
0302
0203
2300
3020
,
0032
0023
2030
3002
,
0203
2300
3020
0032
,
0203
0320
0032
0203
,
0000
0000
0000
0000
0000
0000
0000
0000
0300
0000
0000
0000
0000
0000
0000
0200
,
0000
0000
0000
0000
0000
0000
0000
0000
0301
0000
0101
0000
1001
0000
1000
0100
,
0000
0100
1000
0000
0001
0000
0100
0000
0010
0000
1000
0000
0100
0000
1000
0010
,
0000
0010
1000
0000
0100
0000
0010
0000
1001
0000
1100
0000
1010
0000
0100
0001
,
0000
0001
0010
0000
0001
0000
1000
0000
0100
0000
0001
0000
0100
0000
1000
0001
,
0000
0001
1000
0000
0100
0000
0010
0000
0110
0000
1001
0000
0110
0000
1000
0001
,
0000
1000
0001
0000
0100
0000
0010
0000
1001
0000
0110
0000
1001
0000
0100
0001
,
0000
1000
0001
0000
0010
0100
0010
0000
0200
0000
0000
0000
0000
0000
0000
0000
,
0000
0000
0000
0000
,
0300
0000
0000
0000
;

//---------------dance-double - ----------------
#NOTES:
     dance-double:
     :
     Challenge:
     8:
     0.464,0.546,0.182,0.100,0.227: // measure 1
00000000
00000000
00000000
00000000
,  // measure 2
00000000
00000000
00000000
00000000
,  // measure 3
00000000
00000000
00000000
00000000
,  // measure 4
00000000
00000000
00000000
00000000
,  // measure 5
00000000
00000000
00000000
00000000
,  // measure 6
00001000
00000000
00000000
00001000
00000000
00000000
00000100
00000000
00000010
00000000
00000000
00000010
00000000
00000000
00000001
00000000
,  // measure 7
00000100
00000000
00000000
00000100
00000000
00000000
00000001
00000000
00001000
00000000
00000000
00001000
00000000
00000000
00000100
00000000
,  // measure 8
00000010
00000000
00000000
00000010
00000000
00000000
00001000
00000000
00010000
00000000
00000000
00010000
00000000
00000000
01000000
00000000
,  // measure 9
00100000
00000000
00000000
00100000
00000000
00000000
00001000
00000000
00010000
00000000
00000000
00010000
00000000
00000000
00100000
00000000
,  // measure 10
10000000
00000000
00000000
10000000
00000000
00000000
01000000
00000000
00010000
00000000
00000000
00010000
00000000
00000000
01000000
00000000
,  // measure 11
10000000
00000000
00000000
10000000
00000000
00000000
00100000
00000000
00010000
00000000
00000000
00010000
00000000
00000000
00001000
00000000
,  // measure 12
00010000
00000000
00000000
00010000
00000000
00000000
00001000
00000000
00100000
00000000
00000000
00100000
00000000
00000000
00010000
00000000
,  // measure 13
01000000
00000000
00000000
01000000
00000000
00000000
00001000
00000000
00010000
00000000
00000000
00010000
00000000
00000000
00000100
00000000
,  // measure 14
00001000
00000000
00000001
00000010
00001000
00000010
00000001
00000100
,  // measure 15
00000001
00000000
00001000
00000100
00000010
00000001
00000100
00000010
,  // measure 16
00000100
00000000
00001000
00010000
00001000
00000100
00001000
00010000
,  // measure 17
00001000
00000000
00000000
00000000
00000000
00000000
00000100
00000001
00001000
00000000
00000000
00000000
00000000
00000000
00001000
00000001
,  // measure 18
00000100
00000000
00001000
00010000
00100000
00010000
00100000
10000000
,  // measure 19
01000000
00000000
00000000
00000000
00010000
00000000
01000000
00000000
10000000
00000000
01000000
00000000
00010000
00000000
01000000
10000000
,  // measure 20
00000000
00000000
00010000
01000000
00100000
00000000
10000000
01000000
,  // measure 21
00100000
00000000
00001000
00010000
00000000
00001000
00010000
00000000
00000100
00000000
00000000
00000000
00000100
00000000
00010000
00000000
,  // measure 22
00001000
00000000
00000100
00000010
00001000
00000000
00000001
00000100
,  // measure 23
00001000
00000000
00001000
00000100
00000001
00000000
00000001
00000010
,  // measure 24
00000100
00000011
00000101
00001100
,  // measure 25
00010000
00110000
01010000
11000000
,  // measure 26
00100000
00101000
00011000
00010100
,  // measure 27
00001000
00001100
00000101
00001001
,  // measure 28
00000001
00000000
00000010
00000000
00001000
00000000
00000000
00010000
00000000
00000000
00001000
00000000
00000010
00000000
00000000
00000000
,  // measure 29
00000001
00000000
00000100
00000000
00001000
00000000
00000000
01000000
00000000
00000000
00010000
00000000
10000000
00000000
00000000
00000000
,  // measure 30
00100000
00000000
00010000
00000000
00001000
00000000
00000000
00010000
00000000
00000000
00100000
00000000
10000000
00000000
00000000
00000000
,  // measure 31
01000000
00000000
00010000
00000000
00000100
00000000
00000000
00001000
00000000
00000000
00000001
00000000
00000010
00000000
00000000
00000000
,  // measure 32
00001000
00000000
00010000
00000000
00100000
00000000
00000000
10000000
00000000
00000000
01000000
00000000
10000000
00000000
00000000
00000000
,  // measure 33
01000000
00000000
00010000
00000000
00001000
00000000
00000000
00000010
00000000
00000010
00000001
00000000
00001000
00000000
00000001
00000000
,  // measure 34
00000100
00000000
00001000
00000000
00010000
00000000
00000000
00100000
00000000
00100000
10000000
00000000
00010000
00000000
10000000
00000000
,  // measure 35
00100000
00000000
00010000
00000000
00001000
00000000
00000000
00000100
00000000
00000100
00000001
00000000
00001000
00000000
00000001
00000000
,  // measure 36
00000010
00000000
00001000
00000000
00010000
00000000
00000000
01000000
00000000
01000000
10000000
00000000
00010000
00000000
10000000
00000000
,  // measure 37
00100000
00000000
00010000
00000000
00001000
00000000
00000000
00010000
00000000
00010000
01000000
00000000
10000000
00000000
00000000
00000000
,  // measure 38
10010000
01000000
00010000
00001000
00010000
01000000
00010000
00001000
,  // measure 39
00000010
00001000
00010000
01000000
00010000
00001000
00000010
00000000
,  // measure 40
00001001
00000100
00001000
00010000
00100000
00010000
00001000
00000100
,  // measure 41
00000001
00000100
00001000
00010000
00100000
10000000
00010000
00000000
,  // measure 42
10010000
00100000
00010000
00001000
00000010
00000001
00001000
00000000
,  // measure 43
00001001
00000010
00001000
00010000
00100000
10000000
00010000
00000000
,  // measure 44
20020000
00000000
00000000
00000000
,  // measure 45
00000000
00000000
00000000
30030000
,  // measure 46
20000000
01000000
00100000
30010000
,  // measure 47
00020000
00100000
01000000
10030000
,  // measure 48
20000000
01000000
00010000
30200000
,  // measure 49
10000000
00010000
10000000
00320000
,  // measure 50
00001000
00100000
10000000
01000000
,  // measure 51
00032000
00000010
00000001
00003200
,  // measure 52
00000000
00000000
00000000
00000000
00000000
00000000
00000000
00000000
00000300
00000000
00000000
00000000
00000000
00000000
00000000
00000200
,  // measure 53
00000000
00000000
00000000
00000000
00000000
00000000
00000000
00000000
00000301
00000000
00000010
00000000
00000001
00000000
00001000
00000100
,  // measure 54
00000000
00000100
00001000
00000000
00000001
00000000
00000100
00000000
00001000
00000000
00010000
00000000
01000000
00000000
10000000
00100000
,  // measure 55
00000000
00100000
10000000
00000000
01000000
00000000
00100000
00000000
10010000
00000000
01000000
00000000
00100000
00000000
00010000
10000000
,  // measure 56
00000000
10000000
00100000
00000000
00010000
00000000
00001000
00000000
00000100
00000000
00000001
00000000
00000010
00000000
00000100
00010000
,  // measure 57
00000000
00010000
00001000
00000000
00000100
00000000
00000010
00000000
00001001
00000000
00000100
00000000
00001000
00000000
00010000
00001000
,  // measure 58
00000000
00010000
00001000
00000000
01000000
00000000
00010000
00000000
10010000
00000000
01000000
00000000
00010000
00000000
00001000
00010000
,  // measure 59
00000000
00001000
00010000
00000000
00100000
01000000
00100000
00000000
02000000
00000000
00000000
00000000
00000000
00000000
00000000
00000000
,  // measure 60
00000000
00000000
00000000
00000000
,  // measure 61
03000000
00000000
00000000
00000000
;
