#TITLE:JANEJANA;
#SUBTITLE:;
#ARTIST:T.E.M.P.O.feat.Mohammed&Emi;
#TITLETRANSLIT:;
#SUBTITLETRANSLIT:;
#ARTISTTRANSLIT:;
#CREDIT:;
#BANNER:JANEJANA.png;
#BACKGROUND:JANEJANA-bg.png;
#LYRICSPATH:;
#CDTITLE:./CDTITLES/DanceManiaX.PNG;
#MUSIC:JANEJANA.mp3;
#OFFSET:-0.173;
#SAMPLESTART:61.570;
#SAMPLELENGTH:15.000;
#SELECTABLE:YES;
#DISPLAYBPM:125.000;
#BPMS:0.000=125.000;
#STOPS:;
#BGCHANGES:;

//---------------dance-single - ----------------
#NOTES:
     dance-single:
     :
     Easy:
     3:
     0.279,0.303,0.139,0.000,0.006:
0000
0000
0000
0000
,
0000
0000
0000
0000
,
1000
0000
0001
0000
,
1000
0000
0001
0000
,
0110
0001
1000
1000
,
0110
1000
0001
0001
,
0110
0001
1000
1000
,
0001
1000
0010
0010
,
0001
1000
0001
1000
,
0010
0100
0010
0100
,
0001
0100
1000
0100
,
0001
0100
1000
1000
,
0010
0100
1000
0100
,
0100
0010
0001
0100
,
0100
1000
0100
0001
,
0100
1000
0010
0010
,
0001
1000
0010
0100
,
0001
0100
1000
1000
,
0010
0001
0100
1000
,
0001
0100
1000
1000
,
0010
1000
0001
0010
,
0100
1000
0001
0001
,
0100
0001
1000
0100
,
0010
0001
0110
1001
,
0001
0001
0001
0001
,
0001
1000
0001
0100
,
1000
1000
1000
1000
,
1000
0010
1000
0100
,
0010
0010
0010
0010
,
0010
0100
0010
0001
,
0100
0100
0100
0100
,
0100
0001
0100
1000
,
0001
1000
0001
1000
,
0010
0100
0010
0100
,
0001
1000
0001
1000
,
0010
0100
0010
0010
,
1000
0100
0001
0100
,
1000
0100
0001
0100
,
1000
0010
0100
0001
,
0010
0100
1000
1000
,
1001
0000
1000
0000
,
0110
0000
1001
0000
,
0110
0000
0001
0000
,
1001
0000
0000
0000
0000
0000
0000
0000
0110
0000
0000
0110
0000
0000
0000
0000
;

//---------------dance-single - ----------------
#NOTES:
     dance-single:
     :
     Medium:
     5:
     0.315,0.354,0.150,0.000,0.035:
0000
0000
0000
0000
,
0000
0000
0000
0000
,
1000
0100
0001
0100
,
1000
0100
0001
0100
,
1100
0000
0001
0000
1000
0100
1000
0000
,
0101
0000
1000
0000
0001
0100
0001
0000
,
1100
0000
0001
0000
1000
0100
1000
0000
,
0101
0000
0101
0000
0010
0010
0010
0010
,
0000
0001
0000
1000
0000
0001
0000
1000
,
0000
0010
0000
0100
0000
0010
0000
0100
,
0000
0001
0000
0100
0000
1000
0000
0100
,
0000
0001
0000
0100
0000
1000
1000
0000
,
0000
0010
0000
0100
0000
1000
0000
0001
,
0000
0100
0000
0010
0000
0001
0000
1000
,
0000
0100
0000
0001
0000
0100
0000
1000
,
0000
0100
0000
0010
0010
0000
1001
0000
,
0000
0001
0000
1000
0000
0010
0000
0100
,
0000
0001
0000
0100
0000
1000
1000
1000
,
0000
0010
0000
0001
0000
0100
0000
1000
,
0000
0001
0000
0100
0000
1000
1000
1000
,
0000
0010
0000
1000
0000
0001
0000
0010
,
0000
0100
0000
1000
0000
0001
0001
0001
,
0000
0100
0000
0001
0000
1000
0000
0100
,
0000
0010
0000
0001
0110
0000
1001
0000
,
0001
0001
0001
0001
,
0001
0000
1000
0000
0001
1000
0100
0000
,
1000
1000
1000
1000
,
1000
0000
0010
0000
1000
0010
0100
0000
,
0010
0010
0010
0010
,
0010
0000
0100
0000
0010
0100
0001
0000
,
0100
0100
0100
0100
,
0100
0000
0001
0000
0100
0001
1000
0000
,
0000
0001
0000
1000
0000
0001
0000
1000
,
0000
0010
0000
0100
0000
0010
0000
0100
,
0000
0001
0000
1000
0000
0001
0000
1000
,
0000
0010
0000
0100
0000
0010
0010
0000
,
0000
1000
0000
0100
0000
0001
0000
0100
,
0000
1000
0000
0100
0000
0001
0000
0100
,
0000
1000
0000
0010
0000
0100
0000
0001
,
0000
0010
0000
0100
0000
1000
1000
0000
,
1001
0000
0000
0000
0000
0000
0000
0100
0000
0000
0010
0000
0000
0001
0000
0000
,
0100
0000
0000
0000
0000
0000
0000
0000
1001
0000
0000
0001
0000
0000
0000
0000
,
0110
0000
0000
0000
0000
0000
0000
1000
0000
0000
1000
0000
0000
0010
0000
0000
,
0100
0000
0000
0000
0000
0000
0000
0000
0110
0000
0000
0110
0000
0000
0000
0000
;

//---------------dance-single - ----------------
#NOTES:
     dance-single:
     :
     Hard:
     7:
     0.550,0.556,0.347,0.000,0.069:
0000
0000
0000
0000
,
0000
0000
0000
0000
,
0001
0000
0000
1000
0100
0000
0000
0000
0001
0000
0000
1000
0100
0000
0000
0000
,
0001
0000
0000
1000
0100
0000
0000
0000
0001
0000
0000
1000
0100
0000
0000
0000
,
1001
0000
0100
1000
0010
0100
0001
0000
,
1001
0000
0100
0001
0010
0100
1000
0000
,
0110
0000
0001
0010
0100
1000
0001
0000
,
0110
0110
1001
1001
0100
0010
1001
1001
,
0010
1000
0010
1000
0001
0100
0001
0100
,
0010
1000
0001
0100
0001
0010
0100
1000
,
0001
0010
0100
1000
0010
0100
0001
0010
,
0100
1000
0001
0100
0010
1000
1001
0000
,
0010
0100
0001
0010
0100
1000
0001
0100
,
0010
1000
0100
0010
0001
0100
0010
1000
,
0100
0010
0001
0100
0010
1000
0001
0100
,
0010
0000
1000
0000
0100
0000
0010
0000
1001
0000
0000
0010
0100
0000
0000
0000
,
0001
0001
1000
1000
0010
0010
0100
0100
,
0001
0001
1000
1000
0010
0100
0001
0001
,
0001
0010
0100
0100
1000
0010
0100
0100
,
0001
0010
0100
1000
0010
0100
0110
0000
,
0001
0100
0001
0100
0010
0100
0010
0100
,
0001
1000
0100
0010
0001
1000
0100
0010
,
0001
0100
0001
0100
0010
1000
0100
1000
,
0010
0000
0100
0000
0001
0000
0100
0000
0110
0000
0000
1000
0001
0000
0000
0000
,
1000
0001
1000
0001
1000
0001
1000
0001
,
1000
0001
1000
0010
0100
0001
1001
0000
,
0001
0010
0001
0010
0001
0010
0001
0010
,
0001
0010
0001
0100
0010
0110
0110
0000
,
0100
0001
0100
0010
0100
0001
0100
0010
,
0100
0001
0100
0010
1000
0100
1001
0000
,
0001
1000
0010
1000
0001
1000
0010
1000
,
0001
1000
0010
0100
0001
0101
0101
0000
,
0010
1000
0001
0100
0010
1000
0001
0100
,
0010
1000
0001
0100
0010
1000
0001
0100
,
1000
0100
0010
0001
1000
0100
0010
0001
,
1000
0100
0010
0001
1000
0100
0010
0001
,
0100
0010
1000
0001
0100
0010
1000
0001
,
0100
0010
1000
0001
0100
0010
1000
0001
,
0010
0100
0001
1000
0010
0100
0001
1000
,
0010
0100
0001
1000
0010
0100
1001
0000
,
0110
0000
0000
0000
0001
0000
0000
0100
0000
0000
0100
0000
0000
0010
0000
0000
,
1001
0000
0000
0000
0010
0000
0000
0000
0110
0000
0000
1100
0000
0000
0000
0000
,
0110
0000
0000
0000
0100
0000
0000
1001
0000
0000
0101
0000
0000
0100
0000
0000
,
0110
0000
0000
0000
1000
0000
0000
0000
1100
0000
0000
1001
0000
0000
0000
0000
;

//---------------dance-double - ----------------
#NOTES:
     dance-double:
     :
     Easy:
     3:
     0.276,0.303,0.069,0.000,0.006:
00000000
00000000
00000000
00000000
,
00000000
00000000
00000000
00000000
,
00000001
00000100
00001000
00000100
,
00010000
00001000
00100000
00010000
,
01100000
01000000
00001000
00010000
,
00011000
00000010
00000001
00000001
,
00000110
00001000
00010000
00010000
,
00011000
00010000
00100000
01100000
,
10000000
00100000
00010000
00001000
,
00000010
00000001
00000100
00001000
,
00010000
01000000
10000000
00100000
,
00010000
00001000
00000010
00000001
,
00000001
00000100
00001000
00010000
,
01000000
10000000
00100000
00010000
,
00001000
00000100
00000001
00000010
,
00001000
00010000
00100000
10000000
,
10000000
01000000
00010000
00100000
,
00001000
00010000
00000010
00000100
,
00000001
00000010
00000100
00001000
,
00000100
00010000
00100000
10000000
,
01000000
00010000
00001000
00000100
,
00001000
00010000
00001000
00001000
,
00000100
00001000
00010000
00100000
,
00010000
00001000
00010000
01100000
,
10000000
01000000
00100000
00001000
,
00010000
00001000
00000010
00000010
,
00000001
00000100
00000010
00001000
,
00000100
00010000
00001000
00100000
,
00010000
10000000
00100000
00010000
,
00001000
00000010
00000001
00000001
,
00001000
00000001
00000010
00001000
,
00010000
00100000
10000000
10000000
,
01000000
00100000
00001000
00010000
,
00001000
00000100
00000001
00000010
,
00000100
00000010
00000001
00000100
,
00001000
00010000
01000000
10000000
,
00100000
10000000
00100000
10000000
,
01000000
00010000
00001000
00000010
,
00000001
00000100
00000001
00000100
,
00000001
00000010
00001000
00010000
,
00000100
00000000
00010000
00000000
,
00001000
00000000
00010000
00000000
,
00100000
00000000
10000000
00000000
,
01000000
00000000
00000000
00000000
00000000
00000000
00000000
00000000
00010000
00000000
00000000
00010000
00000000
00000000
00000000
00000000
;

//---------------dance-double - ----------------
#NOTES:
     dance-double:
     :
     Medium:
     5:
     0.302,0.354,0.116,0.000,0.029:
00000000
00000000
00000000
00000000
,
00000000
00000000
00000000
00000000
,
10000000
01000000
00010000
01000000
,
00001000
00010000
00001000
00000100
,
00000101
00000000
00000010
00000000
00001000
00001000
00001000
00000000
,
00011000
00000000
01000000
00000000
10000000
10000000
10000000
00000000
,
01100000
00000000
00010000
00000000
00001000
00001000
00001000
00000000
,
00011000
00010100
00000110
00000101
,
00000000
00000001
00000000
00000100
00000000
00001000
00000000
00010000
,
00000000
01000000
00000000
10000000
00000000
00100000
00000000
00010000
,
00000000
00001000
00000000
00000010
00000000
00000001
00000000
00000100
,
00000000
00001000
00000000
00010000
00000000
01000000
10000000
00000000
,
00000000
10000000
00000000
01000000
00000000
00010000
00000000
00001000
,
00000000
00000100
00000000
00000001
00000000
00000010
00000000
00001000
,
00000000
00010000
00000000
00100000
00000000
10000000
00000000
01000000
,
00000000
00010000
00000000
00001000
00000100
00000000
00000001
00000000
,
00000001
00000100
00001000
00000100
,
00001000
00000000
00010000
00000000
01000000
10000000
10000000
00000000
,
10000000
01000000
00010000
01000000
,
00010000
00000000
00001000
00000000
00000100
00000001
00000001
00000000
,
00000010
00001000
00010000
01000000
,
00010000
00000000
00001000
00000000
00010000
00010000
00010000
00000000
,
00100000
00010000
00001000
00000100
,
00001000
00010000
00001000
00000110
,
00000001
00000010
00000100
00001000
,
00010000
01000000
10000000
01000000
,
10000000
00100000
01000000
00010000
,
00001000
00000100
00000001
00000100
,
00001000
00000001
00000100
00001000
,
00010000
00000000
01000000
00000000
10000000
10000000
10000000
00000000
,
00010000
10000000
01000000
00010000
,
00001000
00000000
00000100
00000000
00000001
00000001
00000001
00000000
,
00000010
00000100
00010000
00001000
,
00010000
00100000
10000000
01000000
,
00010000
01000000
10000000
00100000
,
00010000
00001000
00000010
00000001
,
00000100
00001000
00000100
00000001
,
00000010
00001000
00010000
01000000
,
10000000
00100000
00010000
00100000
,
10000000
01000000
00010000
00001000
,
00000100
00000000
00000000
00000000
00000000
00000000
00000000
00000001
00000000
00000000
00000100
00000000
00000000
00000000
00000000
00000000
,
00001000
00000000
00000000
00000000
00000000
00000000
00000000
00000000
00010000
00000000
00000000
01000000
00000000
00000000
00000000
00000000
,
10000000
00000000
00000000
00000000
00000000
00000000
00000000
00100000
00000000
00000000
00100000
00000000
00000000
00010000
00000000
00000000
,
00001000
00000000
00000000
00000000
00000000
00000000
00000000
00000000
00011000
00000000
00000000
01001000
00000000
00000000
00000000
00000000
;

//---------------dance-double - ----------------
#NOTES:
     dance-double:
     :
     Hard:
     7:
     0.532,0.429,0.197,0.000,0.035:
00000000
00000000
00000000
00000000
,
00000000
00000000
00000000
00000000
,
00100000
10000000
01000000
00100000
00010000
01000000
00001000
00010000
,
00001000
00000010
00000001
00000100
00000001
00001000
00000100
00000000
,
00000101
00000000
00000010
00001000
00000100
00010000
00001000
00000000
,
00011000
00000000
01000000
00010000
00100000
01000000
10000000
00000000
,
01010000
00000000
00100000
00001000
00010000
00001000
00000100
00000000
,
00000001
00000010
00000001
00000100
00001000
00010000
01000000
10000000
,
00100000
10000000
00100000
10000000
00010000
01000000
00010000
01000000
,
00001000
00010000
00001000
00010000
00000010
00000100
00000010
00000100
,
00000001
00000100
00000001
00000100
00000010
00001000
00000010
00001000
,
00000100
00010000
00000100
00010000
00001000
00010000
01000000
00000000
,
01000000
10000000
01000000
10000000
00010000
00100000
00010000
00100000
,
00001000
00010000
00001000
00010000
00000100
00000010
00000100
00000010
,
00000001
00000010
00000001
00000010
00000100
00001000
00000100
00001000
,
00000010
00010000
00000010
00010000
00001000
00000000
00101000
00000000
,
00001000
00010000
01000000
10000000
00100000
00010000
00100000
10000000
,
01000000
00010000
00001000
00000010
00000001
00000100
00001000
00000100
,
00000001
00000010
00000001
00000100
00001000
00010000
01000000
10000000
,
00100000
00010000
00001000
00010000
01000000
10000000
00100000
00010000
,
00001000
00000010
00000001
00000100
00001000
00000100
00000001
00000010
,
00001000
00010000
00001000
00000100
00000001
00000010
00001000
00010000
,
00100000
10000000
01000000
00010000
00001000
00010000
01000000
10000000
,
00100000
00010000
00001000
00010000
00010100
00000000
00011000
00000000
,
00001000
00000010
00000001
00000100
00000001
00000100
00001000
00010000
,
01000000
10000000
01000000
10000000
00100000
00010000
00001000
00000000
,
00010000
01000000
10000000
00100000
10000000
00100000
00010000
00001000
,
00000010
00000001
00000010
00000001
00000100
00001000
00001000
00000000
,
00010000
00001000
00010000
00100000
10000000
01000000
00010000
01000000
,
00010000
00001000
00000100
00000001
00000010
00000100
00001000
00000000
,
00000100
00010000
00001000
00010000
01000000
10000000
00100000
00010000
,
00100000
00010000
00001000
00000010
00000001
00000100
00000100
00000000
,
00001000
00010000
00100000
10000000
00010000
00100000
01000000
10000000
,
00100000
00010000
00001000
00010000
00000010
00000100
00000001
00000010
,
00000100
00001000
00000010
00000100
00001000
00010000
01000000
10000000
,
00100000
01000000
00001000
00010000
01000000
00100000
00001000
00010000
,
00001000
00000100
00000001
00000010
00000100
00001000
00000010
00000001
,
00000010
00001000
00000100
00010000
00001000
00100000
00010000
10000000
,
01000000
00100000
00010000
10000000
01000000
00010000
00001000
00000100
,
00000001
00000010
00000100
00010000
00001000
00000100
00000001
00000000
,
00001100
00000000
00000000
00000000
00010100
00000000
00000000
00001000
00000000
00000000
00010000
00000000
00000000
01000000
00000000
00000000
,
01010000
00000000
00000000
00000000
10000000
00000000
00000000
00000000
01100000
00000000
00000000
00110000
00000000
00000000
00000000
00000000
,
00011000
00000000
00000000
00000000
00000100
00000000
00000000
00000110
00000000
00000000
00000101
00000000
00000000
00000010
00000000
00000000
,
00001010
00000000
00000000
00000000
00010000
00000000
00000000
00000000
00011000
00000000
00000000
01001000
00000000
00000000
00000000
00000000
;

//---------------dance-single - ----------------
#NOTES:
     dance-single:
     :
     Beginner:
     1:
     0.144,0.201,0.116,0.000,0.000:
0000
0000
0000
0000
,
0000
0000
0000
0000
,
1000
0000
0000
0000
,
0001
0000
0000
0000
,
1000
0000
0000
0000
,
0001
0000
0001
0000
,
1000
0000
0000
0000
,
0001
0000
0001
0001
,
0001
0000
0000
0000
,
0001
0000
0100
0000
,
1000
0000
0000
0000
,
1000
0000
0100
0000
,
0001
0000
0000
0000
,
0001
0000
0100
0000
,
1000
0000
0000
0000
,
1000
0000
0100
0000
,
0010
0000
0000
0000
,
0010
0000
0001
0000
,
0010
0000
0000
0000
,
0010
0000
0010
0000
,
0100
0000
0000
0000
,
0100
0000
1000
0000
,
0100
0000
0000
0000
,
0100
0000
0100
0000
,
1001
0000
0000
0000
,
0010
0010
0010
0000
,
1001
0000
0000
0000
,
0100
0100
0100
0000
,
1001
0000
0000
0000
,
0010
0000
0010
0000
,
1001
0000
0000
0000
,
0100
0000
0100
0000
,
0001
0001
0001
0001
,
0001
0000
0100
0000
,
1000
1000
1000
1000
,
1000
0000
0100
0000
,
0001
0001
0001
0001
,
0001
0000
0100
0000
,
1000
1000
1000
1000
,
1000
0000
0100
0000
,
1001
0000
0000
0000
,
1001
0000
0110
0000
,
1001
0000
0000
0000
,
0110
0000
0110
0000
,
0000
0000
0000
0000
;

//---------------dance-single - Copied from----------------
#NOTES:
     dance-single:
     Copied from:
     Challenge:
     7:
     0.583,0.631,0.578,0.023,0.139: // measure 1
0000
0000
0000
0000
,  // measure 2
0000
0000
0000
0000
,  // measure 3
1100
0000
0000
0100
1000
0000
0001
0000
0101
0000
0000
0100
0001
0000
1000
0000
,  // measure 4
1010
0000
0000
0010
1000
0000
0001
0000
0011
0000
0000
0010
0001
0000
1000
0000
,  // measure 5
1002
0000
0000
0000
0103
0000
0010
1000
0010
1000
0010
1000
0000
0000
0000
0000
,  // measure 6
2001
0000
0000
0000
3100
0000
0010
0001
0010
0001
0010
0001
0000
0000
0000
0000
,  // measure 7
1001
0000
0000
1000
0001
0000
1000
0010
0100
0001
1000
0100
0000
0000
0000
0000
,  // measure 8
0110
0010
0011
0001
0101
0110
1010
1001
,  // measure 9
0010
0001
0010
0001
1000
0100
1000
0100
,  // measure 10
0010
0001
1000
0100
0010
0001
1000
0100
,  // measure 11
1000
0010
1000
0010
0001
0010
0001
0010
,  // measure 12
1000
0010
0001
0010
1000
0010
1001
0100
,  // measure 13
0001
0010
0100
0010
0001
1000
0100
0010
,  // measure 14
0100
1000
0001
0100
1000
0100
0001
0010
,  // measure 15
1000
0010
0001
0100
0010
1000
0100
0010
,  // measure 16
0001
0000
0001
0000
0100
0000
0100
0000
1001
0000
0000
0010
1000
0000
0000
0000
,  // measure 17
0001
1000
1000
0010
0010
0010
0100
0100
,  // measure 18
0100
0100
0001
1000
1000
0010
0010
0010
,  // measure 19
0100
0100
0100
0100
0001
0001
0001
0010
,  // measure 20
0010
0100
1000
0010
0100
0100
1001
0100
,  // measure 21
0010
1000
0100
0010
1000
0010
0100
1000
,  // measure 22
0001
0100
0010
0001
0010
0100
0001
0010
,  // measure 23
0100
1000
0001
0100
0001
0010
1000
0010
,  // measure 24
1000
0000
1000
0000
0010
0000
0010
0000
1001
0000
0000
0100
0001
0000
0000
0000
,  // measure 25
1001
0000
1000
0000
1000
0000
1000
1100
,  // measure 26
0110
0000
0000
0000
0010
0000
0000
0000
0011
0000
0000
0100
1001
0000
0000
0000
,  // measure 27
0101
0000
0100
0000
0100
0000
0100
0101
,  // measure 28
1001
0000
0001
0000
0101
0011
0110
0000
,  // measure 29
0110
0000
0010
0000
0010
0000
0010
0011
,  // measure 30
1001
0000
0000
0000
1000
0000
0000
0000
1100
0000
0000
0010
1001
0000
0000
0000
,  // measure 31
1010
0000
0100
0000
0010
0000
0001
1100
,  // measure 32
1010
0000
1001
0000
0110
1100
1001
1010
,  // measure 33
0100
0001
0010
1000
0010
0001
0100
0010
,  // measure 34
1000
0100
0010
0001
1000
0010
0100
0001
,  // measure 35
0010
0100
1000
0001
0100
0010
1000
0010
,  // measure 36
0001
0010
0100
0001
0010
1000
0010
0100
,  // measure 37
1000
0001
0010
0001
0100
0010
1000
0100
,  // measure 38
1000
0010
0100
0010
1000
0001
1000
0100
,  // measure 39
0010
0100
0001
0010
0001
0100
1000
0010
,  // measure 40
0001
0010
1000
0100
0010
0001
0100
0010
,  // measure 41
1001
0000
0000
0000
1100
0000
0000
0010
0000
0000
0010
0000
0000
0010
0000
0000
,  // measure 42
0101
0000
0000
0000
1100
0000
0000
0000
1000
0000
0000
0100
0001
0000
0010
0000
,  // measure 43
0110
0000
0000
0000
1100
0000
0000
0001
0000
0000
0001
0000
0000
0001
0000
0000
,  // measure 44
0110
0000
0000
0000
1001
0000
0000
0000
0011
0000
1000
0100
0000
0000
0000
0000
;
