#TITLE:In My Eyes;
#SUBTITLE:(Midihead Remix);
#ARTIST:Midihead;
#TITLETRANSLIT:;
#SUBTITLETRANSLIT:;
#ARTISTTRANSLIT:;
#CREDIT:;
#BANNER:In My Eyes (Midihead Remix).png;
#BACKGROUND:In My Eyes (Midihead Remix)-bg.png;
#LYRICSPATH:;
#CDTITLE:;
#MUSIC:In My Eyes (Midihead Remix).ogg;
#OFFSET:0.000;
#SAMPLESTART:64.170;
#SAMPLELENGTH:15.000;
#SELECTABLE:YES;
#BPMS:0.000=142.000;
#STOPS:;
#BGCHANGES:4.500=In My Eyes (Midihead Remix).avi=1.000=1=0=0,
282.750=In My Eyes (Midihead Remix)-bg.png=1.000=0=0=1,
99999=-nosongbg-=1.000=0=0=0 // don't automatically add -songbackground-
;

//---------------dance-single - ----------------
#NOTES:
     dance-single:
     :
     Beginner:
     1:
     0.186,0.255,0.064,0.072,0.000:
0000
0000
0000
0000
,
0000
0000
0000
0000
,
0000
0000
0000
0000
,
0000
0000
0000
0000
,
0000
0000
0000
0000
,
0000
0000
0000
0000
,
0110
0000
1000
0000
,
0001
0000
1000
0000
,
0010
0000
0100
0000
,
0010
0000
0100
0000
,
0110
0000
0001
0000
,
0100
0000
0010
0010
,
0010
0010
0010
0000
,
0100
0100
0100
0000
,
1001
0000
0001
0000
,
1000
0000
0001
0000
,
0100
0000
0010
0000
,
0100
0000
0010
0000
,
1001
0000
1000
0000
,
0100
0000
0001
0000
,
0001
0001
0001
0000
,
0010
0010
0010
0000
,
1001
0000
0010
0000
,
0001
0000
1000
0000
,
0100
0000
0001
0000
,
0010
0000
0100
0000
,
1000
0000
0100
0000
,
0010
0000
0001
0000
,
0010
0000
0100
0000
,
0001
0000
1000
0000
,
0110
0000
0010
0000
,
1000
0000
0010
0000
,
0001
0000
0100
0000
,
0001
0000
0010
0000
,
0100
0000
1000
0000
,
0100
0000
0001
0000
,
1000
1000
1000
1000
,
1000
1000
1000
1000
,
2000
3000
1000
0000
,
0200
0300
0100
0000
,
0020
0030
0010
0000
,
0002
0003
0001
0000
,
0100
0100
0000
0000
,
0020
0030
0010
0000
,
2000
3000
1000
0000
,
0200
0300
0100
0000
,
0001
0001
0000
0100
,
0000
0100
0000
1000
,
0000
1000
0000
0001
,
0000
0001
0000
0000
,
0010
0010
0000
0100
,
0000
0100
0000
1000
,
0000
1000
0000
0001
,
0000
0001
0000
0000
,
0010
0010
0000
0001
,
0000
0100
0000
1000
,
1000
1000
0000
0010
,
0000
0001
0000
0100
,
0100
0100
0000
1000
,
0000
0010
0000
0001
,
0001
0001
0000
1000
,
0000
0100
0000
1000
,
1000
1000
0000
0010
,
0000
0100
0000
0010
,
0010
0010
0000
0001
,
0000
1000
0000
0001
,
0001
0001
0000
0100
,
0000
0010
0000
0100
,
0100
0100
0000
1000
,
0000
0001
0000
1001
,
2002
0000
0000
3003
;

//---------------dance-single - ----------------
#NOTES:
     dance-single:
     :
     Easy:
     4:
     0.345,0.453,0.432,0.176,0.000:
0000
0000
0000
0000
,
0000
0000
0000
0000
,
0000
0000
0000
0000
,
0000
0000
0000
0000
,
0000
0000
0000
0000
,
0000
0000
0000
0000
,
0110
0001
1000
0001
,
1000
0001
1000
1000
,
0010
0100
0101
0101
,
0010
0100
1100
1100
,
0110
0001
1000
0100
,
0022
0033
2000
0001
,
0010
0000
0010
0000
0010
3000
1000
0000
,
0011
0100
0100
0000
,
1001
0011
1000
0001
,
0100
1000
0100
0010
,
0100
0001
0010
0001
,
1000
0010
0100
0001
,
1010
0011
1000
1000
,
0101
1001
0001
1000
,
1100
0011
0010
0010
,
0011
0101
0100
0100
,
0002
0003
1000
0001
,
0010
0011
0010
0000
,
0000
0100
0001
0010
,
1000
1000
0200
0000
,
0000
0000
0310
1000
,
0010
1010
0010
0100
,
0010
1010
0001
1001
,
0100
0110
0001
0100
,
0000
0000
0010
0000
,
0000
0001
0010
0100
,
0010
1000
0010
0100
,
1000
0001
0100
0010
,
2002
0000
0000
3003
0100
0000
0100
0000
,
0010
0110
0010
0100
,
1010
1000
0011
0001
,
2000
3002
2003
3002
,
0103
0001
1000
0001
,
1000
0010
0100
0010
,
1000
0001
0100
0010
,
2000
0000
0000
3000
,
0100
0010
0100
0001
,
1000
0001
1000
0010
,
1000
0100
0010
0001
,
0200
0000
0000
0300
,
0001
0010
0100
0010
,
1000
0010
0100
1000
,
0100
1000
0001
0010
,
0002
0000
0000
0003
,
1010
0011
1000
0010
,
1100
0101
0010
0001
,
0010
0001
0100
0010
,
1010
0001
0100
2010
,
0000
0000
0000
0000
0100
3000
0010
0000
,
0200
0000
0010
0000
0010
0300
0000
0000
,
0101
1100
0001
2010
,
0000
0000
0100
0000
0100
3000
0000
0000
,
1100
0011
0001
0210
,
0000
0000
1000
0000
1000
0300
0000
0000
,
1010
0011
1000
0210
,
0000
0000
1000
0000
0001
0300
0000
0000
,
0011
1010
0001
1000
,
0001
0100
1000
0100
,
1001
0011
0001
0010
,
0100
1000
0100
1000
,
0011
1010
0001
1000
,
0010
1000
0010
1000
,
0010
2001
0010
3001
,
1100
0101
1100
0101
,
2002
0000
0000
3003
;

//---------------dance-single - ----------------
#NOTES:
     dance-single:
     :
     Medium:
     7:
     0.408,0.481,0.104,0.200,0.000:
0000
0000
0000
0000
,
0000
0000
0000
0000
,
0000
0000
0000
0000
,
0000
0000
0000
0000
,
0000
0000
0000
0000
,
0000
0000
0000
0000
,
0010
0100
0001
0000
1000
0000
0010
0000
,
0200
0000
0001
0301
,
0100
0000
0010
0000
1000
0010
1000
0000
,
0100
0000
0010
0000
0001
0010
0001
0000
,
0010
0100
1000
0000
0001
0000
0010
0000
,
2200
0000
3300
0000
0000
0002
0000
1000
,
0000
0100
0000
0100
0000
0103
0000
0001
,
1000
0100
0010
0010
0010
0000
0000
0000
,
0001
1000
0100
1000
0001
0000
1000
0000
,
0010
0100
0001
0100
0010
0000
0100
0000
,
0010
1000
0100
0001
0100
0000
1000
0000
,
0001
1000
0001
0100
0010
0000
1000
0000
,
0001
0100
1000
0100
0001
0000
0001
0000
,
1000
0010
1000
0001
1000
0000
0001
0000
,
0001
0010
0100
1000
0100
0000
0100
0000
,
0100
1000
0010
1000
0010
0000
0010
0000
,
2000
0000
0000
0000
0000
3001
0000
1000
,
0100
0000
0100
1000
0000
0100
0000
2000
,
0000
3000
0000
0010
1000
1000
0000
0100
,
0001
0001
0000
0001
0010
0010
0000
0000
,
0002
0000
0000
0003
0000
0100
0000
0001
,
0100
0000
0100
0001
0000
0100
0000
0010
,
0100
0000
0100
0001
1000
0000
1000
0001
,
0010
0000
0010
0100
1000
0000
0010
0000
,
0002
0000
0000
0003
0000
0100
0000
0010
,
0000
0001
0000
1000
0000
0100
0000
0010
,
0000
0100
0000
0001
0000
0100
0000
0010
,
0000
0001
0000
1000
0000
0010
0100
0000
,
2002
0000
0000
3003
0000
0010
0000
0010
,
0100
0000
0100
0010
0000
0100
0000
0010
,
0001
0100
0001
0000
1000
0100
1000
0000
,
0002
2003
3002
2003
,
3010
0010
1000
1000
0001
0001
1000
1000
,
0001
0001
0100
0100
0010
0010
0100
0100
,
0001
1000
0010
0100
,
0002
0000
0000
0003
,
0010
0010
0100
0100
0010
0010
1000
1000
,
0001
0001
1000
1000
0001
0001
0100
0100
,
0001
0010
0100
1000
,
0020
0000
0000
0030
,
1000
1000
0100
0100
0010
0010
0100
0100
,
0001
0001
0100
0100
0010
0010
0001
0001
,
0010
0001
1000
0100
,
2000
0000
0000
3000
,
0001
0100
1000
0100
0001
0001
0100
0100
,
0010
0001
0010
1000
0100
0100
1000
1000
,
0100
1000
0010
0100
,
0001
0100
1000
0000
0000
0010
0100
0002
,
0000
0000
0000
0000
0000
0013
0000
0100
,
0020
0000
0000
0100
0000
0130
0000
0000
,
1001
0000
1001
0000
0000
1000
0100
0002
,
0000
0000
0000
0010
0000
0013
0000
0000
,
0011
0000
1100
0000
0000
1000
0100
0020
,
0000
0000
0000
0001
0000
0031
0000
0000
,
0101
0000
1100
0000
0000
0001
0100
0020
,
0000
0000
0000
0001
0000
1030
0000
0000
,
1000
0100
0001
0100
1000
0100
0001
0000
,
0001
0100
0010
0100
0001
0100
0010
0000
,
0001
1000
0100
1000
0001
1000
0100
0000
,
1000
0010
0001
0010
1000
0010
0001
0000
,
1000
0100
0001
0100
1000
0100
0001
0000
,
0001
0100
0001
0010
0001
0100
0001
0000
,
0100
0000
1000
0002
0100
0000
1003
0000
,
1001
0110
1001
0110
,
2002
0000
0000
3003
;

//---------------dance-single - ----------------
#NOTES:
     dance-single:
     :
     Hard:
     9:
     0.544,0.707,0.248,0.256,0.268:
0000
0000
0000
0000
,
0000
0000
0000
0000
,
0000
0000
0000
0000
,
0000
0000
0000
0000
,
0000
0000
0000
0000
,
0000
0000
0000
0000
,
0010
0000
1000
0000
0100
0000
0001
0000
0100
0000
0000
1000
0000
0000
0100
0000
,
2200
0000
0300
0000
0001
0000
3001
0100
,
0000
0000
0000
0000
0010
0001
0010
0000
,
0001
0000
0000
1000
0000
0000
0001
0000
0000
0100
0000
0000
1000
0000
0000
0000
,
0100
0000
0001
0000
0010
0000
0001
0000
0100
0000
0000
0010
0000
0000
0100
0000
,
0202
0000
0303
0000
0000
2000
0000
0001
,
0000
0100
0000
0100
0000
3100
0000
1000
,
0001
0000
0100
0000
0010
0100
0010
0100
0010
0000
0000
0000
0000
0000
0000
0000
,
1000
0000
0001
0000
0100
0000
0001
0000
1000
0100
1000
0000
0001
0000
0000
0000
,
0010
0000
0100
0000
1000
0000
0100
0000
0010
0100
0010
0000
0100
0000
0000
0000
,
0010
0000
0001
0000
0100
0000
1000
0000
0100
0001
0100
0000
0001
0000
0000
0000
,
1000
0000
0100
0000
1000
0000
0100
0000
0010
0001
0010
0000
0001
0000
0000
0000
,
1000
0100
0001
0100
1000
0100
1000
0000
,
0001
0010
0001
1000
0001
0010
0001
0000
,
1000
0010
0100
0001
0100
1000
0100
0010
,
0100
0001
0010
0001
0010
1000
0010
0000
,
0002
0000
0000
0000
0000
1003
0000
0001
,
0100
0000
0100
0001
0000
0100
0000
2002
,
0000
0000
3003
0000
0000
0000
0010
0000
0001
1000
0001
1000
0000
0000
0100
0000
,
1000
0001
1000
0001
0000
0000
1000
0000
0010
0100
0010
0100
0000
0000
0100
0000
,
2002
0000
0000
0000
3003
0100
0000
1000
,
0100
0000
0100
1000
0000
0100
0000
0010
,
0100
0000
0000
0100
0000
0000
1000
0000
0001
0000
0000
0001
0000
0000
1000
0000
,
0010
0000
0000
0010
0000
0000
0100
0000
0001
0000
0000
0001
0000
0000
0010
0000
,
2002
0000
0000
0000
3003
0100
0000
0100
,
0001
0000
0001
0100
0000
0001
0000
1000
,
0100
1000
0100
0000
1000
0001
1000
0001
0000
1000
0100
0000
0010
0100
0010
0100
,
0000
0010
0001
0000
1000
0001
1000
0001
0000
1000
0001
0000
1000
0000
0000
0000
,
2002
0000
0000
0000
3003
0010
0000
0010
,
0100
0000
0100
0010
0000
0100
0000
0010
,
1000
0100
1000
0100
0001
0100
0001
0100
,
1000
0100
0000
1000
0001
0000
0100
0001
0000
0000
1000
0001
1000
0001
0000
0000
,
0010
0001
0010
0000
0001
0010
0001
0000
1000
0001
1000
0000
0001
1000
0001
0000
,
1000
0100
1000
0000
0100
1000
0100
0000
0010
0100
0010
0000
0100
0010
0100
0000
,
2000
0001
0100
3100
,
2002
0000
0000
3003
,
0010
0100
0010
0000
0100
0010
0100
0000
0010
0001
0010
0000
0001
0010
0001
0000
,
1000
0001
1000
0000
0001
1000
0001
0000
1000
0100
1000
0000
0100
1000
0100
0000
,
2000
0010
0001
3001
,
0220
0000
0000
0330
,
0001
0100
0001
0000
0100
0001
0100
0000
0010
0100
0010
0000
0100
0010
0100
0000
,
1000
0100
1000
0000
0100
1000
0100
0000
0010
1000
0010
0000
1000
0010
1000
0000
,
0020
1000
0100
0130
,
2002
0000
0000
3003
,
1000
0001
0100
0000
0001
1000
0100
0000
1000
0100
1000
0000
0100
1000
0100
0000
,
0010
0001
1000
0000
0010
1000
0001
0000
0100
0001
0100
0000
0001
0100
0001
0000
,
0200
0001
0001
0301
,
1000
0100
0001
0100
0000
0001
0100
2001
,
0000
0000
0000
0000
0000
3010
0100
0100
,
1020
0000
0000
0130
0001
0100
1000
0000
,
1001
0000
1001
0000
0000
0010
0001
0100
,
2001
0000
0000
3010
0100
0010
0100
0000
,
1010
0000
0101
0000
0000
0001
1000
0001
,
0120
0000
0000
0130
1000
0100
1000
0000
,
1100
0000
0101
0000
0000
1000
0010
0100
,
0102
0000
0000
1003
0100
0001
0100
0000
,
0010
0100
1000
0100
0001
0100
0101
0000
,
0010
0001
1000
0100
1000
0001
1001
0000
,
1000
0001
0100
0001
1000
0100
1100
0000
,
0010
0001
0100
0010
1000
0100
0110
0000
,
1000
0100
0010
0001
0100
0001
0010
0100
,
1000
0100
1000
0100
0001
0100
0110
0000
,
0100
0000
0001
2100
0000
0100
3000
0000
,
0110
0101
0110
1100
,
2002
0000
0000
3003
;

//---------------dance-double - ----------------
#NOTES:
     dance-double:
     :
     Beginner:
     2:
     0.169,0.252,0.208,0.000,0.000:
00000000
00000000
00000000
00000000
,
00000000
00000000
00000000
00000000
,
00000000
00000000
00000000
00000000
,
00000000
00000000
00000000
00000000
,
00000000
00000000
00000000
00000000
,
00000000
00000000
00000000
00000000
,
00100000
00000000
00000000
00000000
,
10000000
00000000
10000000
00000000
,
01000000
00000000
00010000
00000000
,
00100000
00000000
00010000
00000000
,
00001000
00000000
00000010
00000000
,
00000001
00000000
00000001
00000000
,
00001000
00000000
00001000
00000000
,
00000001
00000000
00000001
00000000
,
00001001
00000000
00000100
00000000
,
00001001
00000000
00010000
00000000
,
00011000
00000000
00100000
00000000
,
01100000
00000000
10000000
00000000
,
10010000
00000000
01000000
00000000
,
01100000
00000000
00001000
00000000
,
00011000
00000000
00000010
00000000
,
00001001
00000000
00000110
00000000
,
00001001
00000000
00000000
00000000
,
00000010
00000000
00000100
00000000
,
00000010
00000000
00000001
00000000
,
00000010
00000000
00001000
00000000
,
00011000
00000000
00000000
00000000
,
01000000
00000000
00100000
00000000
,
01000000
00000000
00010000
00000000
,
01000000
00000000
10000000
00000000
,
10000000
00010000
00000000
00010000
,
00000010
00000000
00000000
00000100
,
00000000
00000001
00000000
00001000
,
00000000
00000100
00000000
00000001
,
00000000
00000000
00010000
00000000
,
00001000
00000000
00100000
00000000
,
00010000
00000000
00000100
00000000
,
00001000
00000000
00001000
00000000
,
00001001
00000000
00000110
00000000
,
00001000
00000000
01000000
00000000
,
01100000
00000000
01100000
00000000
,
00100000
00000000
10000000
00000000
,
10010000
00000000
00011000
00000000
,
00001000
00000000
00000001
00000000
,
00000100
00000000
00001000
00000000
,
00001000
00000000
00000010
00000000
,
00001001
00000000
00011000
00000000
,
01000000
00000000
10000000
00000000
,
00010000
00000000
10000000
00000000
,
00100000
00000000
10000000
00000000
,
01100000
00000000
01100000
00000000
,
00100000
00000000
00001000
00000000
,
00000100
00000000
00000001
00000000
,
00001000
00000000
00000100
00000000
,
00001001
00000000
00000000
00000000
,
00001000
00000000
00000001
00000000
,
00000110
00000000
00000000
00000000
,
00000010
00000000
00000010
00000000
,
00011000
00000000
00000000
00000000
,
00001000
00000000
00001000
00000000
,
01100000
00000000
00000000
00000000
,
00100000
00000000
00100000
00000000
,
00010000
00000000
00010000
00000000
,
10000000
00000000
10000000
00000000
,
00100000
00000000
00100000
00000000
,
00001000
00000000
00001000
00000000
,
00000001
00000000
00000010
00000000
,
00001000
00000000
00000100
00000000
,
00001000
00000000
01000000
00000000
,
00010000
00000000
01000000
00000000
,
10010000
00000000
00000000
00000000
;

//---------------dance-double - ----------------
#NOTES:
     dance-double:
     :
     Easy:
     4:
     0.234,0.283,0.208,0.080,0.000:
00000000
00000000
00000000
00000000
,
00000000
00000000
00000000
00000000
,
00000000
00000000
00000000
00000000
,
00000000
00000000
00000000
00000000
,
00000000
00000000
00000000
00000000
,
00000000
00000000
00000000
00000000
,
00100000
00000000
00000000
00000000
,
10000000
00000000
10000000
00000000
,
01000000
00000000
00010000
00000000
,
00100000
00000000
00010000
00000000
,
00001000
00000000
00000010
00000000
,
00000001
00000000
00000001
00000000
,
00001000
00000000
00001000
00000000
,
00000001
00001000
00000001
00001000
,
00001001
00000000
00000100
00000100
,
00001010
00000000
00010000
00010000
,
00011000
00000000
00100000
00100000
,
01100000
00000000
10000000
10000000
,
00110000
00000000
01000000
01000000
,
01010000
00000000
00001000
00001000
,
00011000
00000000
00000010
00000010
,
00000011
00000000
00001100
00000000
,
00001001
00000000
00000000
00000000
,
00000010
00001000
00000100
00000001
,
00000010
00000000
00000001
00000000
,
00000010
00000000
00001000
00000000
,
00011000
00000000
00000000
00000000
,
01000000
10000000
00100000
00010000
,
01000000
00000000
00010000
00000000
,
01000000
00000000
10000000
00000000
,
10000000
00010000
00000000
00010000
,
00000010
00000100
00000000
00000100
,
00001000
00000001
00000000
00001000
,
00000010
00000100
00000000
00000001
,
00000100
00000000
00010000
00000000
,
00001000
00000000
00100000
00000000
,
00010000
00000000
00000100
00000000
,
00001000
00000000
00001000
00000000
,
00001001
00000000
00000110
00000000
,
00001000
00010000
01000000
00000000
,
11000000
00000000
01010000
00000000
,
00100000
00010000
10000000
01000000
,
10010000
00000000
00011000
00000000
,
00001000
00000010
00000001
00000000
,
00000100
00000001
00001000
00000010
,
00001000
00000100
00000010
00000001
,
00001001
00000000
00011000
00000000
,
01000000
00100000
10000000
00000000
,
00010000
01000000
10000000
01000000
,
00100000
00010000
10000000
00000000
,
11000000
00000000
01010000
00000000
,
00100000
00010000
00001000
00000000
,
00000100
00001000
00000001
00000010
,
00001000
00000010
00000100
00000001
,
00002002
00000000
00000000
00000000
00000000
00003003
00000000
00000000
,
00001000
00001000
00000001
00000001
,
00000220
00000000
00000000
00000000
00000000
00000330
00000000
00000000
,
00000010
00000100
00000010
00000100
,
00022000
00000000
00000000
00000000
00000000
00033000
00000000
00000000
,
00001000
00010000
00001000
00010000
,
02200000
00000000
00000000
00000000
00000000
03300000
00000000
00000000
,
00100000
01000000
00100000
01000000
,
00010000
00000000
00010000
00000000
,
10000000
00000000
10000000
00000000
,
00100000
00000000
00100000
00000000
,
00001000
00000000
00001000
00000000
,
00000001
00000100
00000010
00000000
,
00001000
00000001
00000100
00000000
,
00001000
00010000
01000000
00000000
,
00010000
00100000
01000000
10000000
,
20020000
00000000
00000000
30030000
;

//---------------dance-double - ----------------
#NOTES:
     dance-double:
     :
     Medium:
     7:
     0.414,0.481,0.304,0.264,0.008:
00000000
00000000
00000000
00000000
,
00000000
00000000
00000000
00000000
,
00000000
00000000
00000000
00000000
,
00000000
00000000
00000000
00000000
,
00000000
00000000
00000000
00000000
,
00000000
00000000
00000000
00000000
,
00001000
00000001
00001000
00000000
00000110
00000000
00001001
00000000
,
00002000
00000000
00000000
00000000
00003010
00000000
00000100
00001000
,
00000000
00000000
00000000
00000000
00010000
00001000
00010000
00000000
,
00011000
01000000
00100000
10000000
,
00010000
10000000
00010000
00000000
01100000
00000000
10010000
00000000
,
00200000
00000000
00300000
00000000
00000000
02000000
00000000
03020000
,
00000000
00032000
00000000
00003200
00000000
00000320
00000000
00000230
,
00002000
00000000
00000000
00003300
,
00010000
00001000
00010000
00001000
00010000
00000000
00000000
00000000
,
00010000
01000000
00010000
01000000
00010000
00000000
00000000
00000000
,
10000000
01000000
10000000
01000000
10000000
00000000
00000000
00000000
,
00100000
01000000
00100000
01000000
00100000
00000000
00000000
00000000
,
00010000
01000000
00010000
01000000
00010000
00000000
00000000
00000000
,
00010000
00001000
00010000
00001000
00010000
00000000
00000000
00000000
,
00001000
00000100
00001000
00000100
00001000
00000000
00000000
00000000
,
00010000
00001000
00010000
00001000
00010000
00000000
00011000
00000000
,
00022000
00000000
00000000
00033000
00000000
00010000
00000000
00010000
,
01000000
00000000
01000000
00010000
00000000
01000000
00000000
20020000
,
00000000
00000000
00000000
30030000
,
00100000
10000000
01000000
00010000
,
00022000
00000000
00000000
00000000
00033000
00001000
00000000
00001000
,
00000100
00000000
00000100
00001000
00000000
00000100
00000000
00000001
,
00001000
00000000
00000000
00000001
00000000
00000000
00001000
00000000
00000010
00000000
00000000
00000000
00000000
00000000
00000000
00000000
,
00000010
00000000
00000000
00001000
00000000
00000000
00010000
00000000
00100000
00000000
00000000
00000000
00000000
00000000
00000000
00000000
,
20020000
00000000
00000000
30030000
00000000
10000000
00000000
10000000
,
00010000
00000000
00010000
10000000
00000000
00100000
00000000
20020000
,
00000000
00000000
00000000
00000000
00000000
30030000
00000000
00000000
,
02020000
00000000
00000000
03030000
,
00022000
00000000
00000000
00000000
00033000
00010000
00000000
00001000
,
00000100
00000000
00000100
00001000
00000000
00000100
00000000
00000000
,
00000110
00001001
00000110
00001100
,
00011000
00011000
01010000
10010000
,
10000000
10000000
01000000
01000000
10000000
10000000
01000000
01000000
,
00100000
00100000
00010000
00010000
00100000
00100000
00010000
00010000
,
00100000
00010000
00001000
00000100
,
00002002
00000000
00000000
00003003
,
00000010
00000010
00001000
00001000
00000001
00000001
00000100
00000100
,
00001000
00001000
00010000
00010000
00001000
00001000
00000100
00000100
,
00000100
00001000
00010000
01000000
,
02200000
00000000
00000000
03300000
,
00100000
00100000
00010000
00010000
00001000
00001000
00000100
00000100
,
00000001
00000001
00000010
00000010
00000001
00000001
00000100
00000100
,
00001000
00010000
01000000
10000000
,
20020000
00000000
00000000
30030000
,
10000000
10000000
01000000
01000000
00010000
00010000
00001000
00001000
,
00000100
00000100
00001000
00001000
00010000
00010000
00001000
00001000
,
00010000
00001000
00010000
01000000
,
10000000
01000000
10000000
01000000
,
20020000
00000000
00000000
30030000
,
00100000
10000000
00100000
00000000
01000000
00010000
01000000
00000000
,
10010000
10010000
00100000
10000000
,
01000000
00010000
01000000
00000000
00010000
00001000
00010000
00000000
,
00011000
00011000
00001000
00000100
,
00001000
00000100
00001000
00000000
00000001
00000100
00000001
00000000
,
00000101
00001100
00000100
00000001
,
00000010
00000001
00000010
00000000
00000100
00001000
00000100
00000000
,
00001000
00010000
01000000
10000000
00100000
00000000
10010000
00000000
,
00100000
10000000
00100000
10000000
01000000
00000000
01010000
00000000
,
00100000
00010000
00001000
00000100
00000001
00000000
00001001
00000000
,
00000001
00000100
00000001
00000100
00001000
00000000
00001100
00000000
,
00001000
00000100
00001000
00010000
01000000
00000000
01100000
00000000
,
00100000
00010000
00100000
00010000
00001000
00000000
00011000
00000000
,
00010000
00000000
01000000
01000000
00000000
00100000
00000000
00000000
,
10000000
01000000
00100000
00010000
,
00022000
00000000
00000000
00033000
;

//---------------dance-double - ----------------
#NOTES:
     dance-double:
     :
     Hard:
     9:
     0.542,0.707,0.280,0.192,0.184: // measure 1
00000000
00000000
00000000
00000000
,  // measure 2
00000000
00000000
00000000
00000000
,  // measure 3
00000000
00000000
00000000
00000000
,  // measure 4
00000000
00000000
00000000
00000000
,  // measure 5
00000000
00000000
00000000
00000000
,  // measure 6
00000000
00000000
00000000
00000000
,  // measure 7
00100000
00000000
10000000
00000000
01000000
00000000
00010000
00000000
00001000
00000000
00000000
00000100
00000000
00000000
00001000
00000000
,  // measure 8
00001100
00000000
00000000
00000000
00000001
00000000
00000010
00000001
,  // measure 9
00000000
00000000
00000000
00000000
00000010
00001000
00000010
00000000
,  // measure 10
00001000
00000000
00000000
00000010
00000000
00000000
00001000
00000000
00000000
00010000
00000000
00000000
00001000
00000000
00000000
00000000
,  // measure 11
00001000
00000000
00100000
00000000
01000000
00000000
00100000
00000000
01000000
00000000
00000000
10000000
00000000
00000000
01000000
00000000
,  // measure 12
02200000
00000000
03300000
00000000
00000000
02000000
00000000
00100000
,  // measure 13
00000000
00010000
00000000
00100000
00000000
03100000
00000000
00010000
,  // measure 14
00001000
00000000
00000100
00000000
00001000
00010000
00001000
00010000
00001000
00000000
00000000
00000000
00000000
00000000
00000000
00000000
,  // measure 15
00010000
00000000
00001000
00000000
00010000
00000000
00001000
00000000
00010000
00001000
00010000
00000000
00011000
00000000
00000000
00000000
,  // measure 16
00001000
00000000
00000100
00000000
00000001
00000000
00000010
00000000
00000001
00000010
00000001
00000000
00000101
00000000
00000000
00000000
,  // measure 17
00000010
00000000
00001000
00000000
00010000
00000000
01000000
00000000
00010000
01000000
00010000
00000000
01010000
00000000
00000000
00000000
,  // measure 18
10000000
00000000
01000000
00000000
10000000
00000000
01000000
00000000
00100000
00010000
00100000
00000000
00110000
00000000
00000000
00000000
,  // measure 19
10000000
01000000
00010000
01000000
00010000
00001000
00000100
00001000
,  // measure 20
00010000
00001000
00000010
00000001
00000100
00001000
00000100
00000010
,  // measure 21
00000100
00001000
00010000
00100000
10000000
00100000
10000000
01000000
,  // measure 22
00100000
00010000
00100000
00010000
01000000
00010000
01010000
00000000
,  // measure 23
00022000
00000000
00000000
00000000
00033000
00001000
00000000
00001000
,  // measure 24
00000100
00000000
00000100
00001000
00000000
00010000
00000000
00022000
,  // measure 25
00000000
00033000
00000000
00001000
00010000
00000100
00010000
00001000
,  // measure 26
00010000
00000010
00010000
00001000
00010000
00000100
00010000
00001000
,  // measure 27
00022000
00000000
00000000
00000000
00033000
00010000
00000000
00010000
,  // measure 28
01000000
00000000
01000000
10000000
00000000
10000000
00000000
00100000
,  // measure 29
10000000
00000000
00000000
01000000
00000000
00000000
00010000
00000000
00001000
00000000
00000000
00000010
00000000
00000000
00000001
00000000
,  // measure 30
00000010
00000000
00000000
00001000
00000000
00000000
00010000
00000000
00100000
00000000
00000000
10000000
00000000
00000000
00100000
00000000
,  // measure 31
20020000
00000000
00000000
00000000
30030000
01000000
00000000
01000000
,  // measure 32
00010000
00000000
00001000
00010000
00000000
00000010
00000000
00001000
,  // measure 33
00000010
00000001
00000010
00001000
00000010
00000100
00000001
00000100
,  // measure 34
00001000
00010000
01000000
00100000
00010000
00100000
10000000
00000000
,  // measure 35
20020000
00000000
00000000
00000000
30030000
00100000
00000000
00100000
,  // measure 36
10000000
00000000
10000000
01000000
00000000
01000000
00000000
10000000
,  // measure 37
01000000
00010000
00001000
00000100
00000001
00000100
00001000
00010000
,  // measure 38
01000000
10000000
01000000
00010000
01000000
10000000
10010000
00000000
,  // measure 39
00010000
00001000
00010000
00000000
00001000
00010000
00001000
00000000
00000100
00001000
00000100
00000000
00001000
00000100
00001000
00000000
,  // measure 40
00000100
00000001
00000100
00000000
00000001
00000100
00000001
00000000
00000100
00000010
00000100
00000000
00000010
00000100
00000010
00000000
,  // measure 41
00000100
00001000
00010000
01000000
,  // measure 42
20020000
00000000
00000000
30030000
,  // measure 43
01000000
10000000
01000000
00000000
10000000
01000000
10000000
00000000
01000000
00010000
01000000
00000000
00010000
01000000
00010000
00000000
,  // measure 44
00001000
00010000
00001000
00000000
00010000
00001000
00010000
00000000
00001000
00000100
00001000
00000000
00000100
00001000
00000100
00000000
,  // measure 45
00000010
00001000
00000100
00000001
,  // measure 46
00000220
00000000
00000000
00000330
,  // measure 47
00000010
00000001
00000010
00000000
00000001
00000010
00000001
00000000
00001000
00000001
00001000
00000000
00000001
00001000
00000001
00000000
,  // measure 48
00000100
00000010
00000100
00000000
00000010
00000100
00000010
00000000
00001000
00000100
00001000
00000000
00000100
00001000
00000100
00000000
,  // measure 49
00001000
00010000
01000000
10000000
,  // measure 50
20020000
00000000
00000000
30030000
,  // measure 51
10000000
00010000
10000000
00000000
00010000
10000000
00010000
00000000
01000000
00010000
01000000
00000000
00010000
01000000
00010000
00000000
,  // measure 52
01000000
00100000
01000000
00000000
00100000
01000000
00100000
00000000
10000000
01000000
10000000
00000000
01000000
10000000
01000000
00000000
,  // measure 53
00010000
00001000
00010000
00001000
,  // measure 54
00000100
00000001
00000100
00000010
,  // measure 55
00002002
00000000
00000000
00000000
00003003
00000010
00000001
00000100
,  // measure 56
00001000
00000100
00001000
00010000
01000000
00010000
01000000
00000000
,  // measure 57
10010000
00000000
10010000
00000000
00000000
00100000
00010000
01000000
,  // measure 58
00010000
01000000
00100000
00010000
00001000
00000010
00000001
00000000
,  // measure 59
00000110
00000000
00001001
00000000
00000000
00000001
00000100
00001000
,  // measure 60
00010000
00100000
10000000
00100000
10000000
01000000
10000000
00000000
,  // measure 61
11000000
00000000
01010000
00000000
00000000
00010000
00100000
01000000
,  // measure 62
10000000
01000000
00010000
00001000
00000010
00001000
00010000
00100000
,  // measure 63
00010000
00001000
00000010
00001000
00010000
00001000
00011000
00010000
,  // measure 64
00100000
10000000
01000000
10000000
01000000
00100000
10010000
01000000
,  // measure 65
00010000
00001000
00000100
00000001
00000100
00000001
00000101
00000100
,  // measure 66
00000010
00001000
00000100
00000010
00000001
00000100
00000110
00001000
,  // measure 67
00010000
00100000
10000000
00100000
10000000
01000000
11000000
10000000
,  // measure 68
01000000
00010000
01000000
10000000
01000000
00100000
01100000
01000000
,  // measure 69
00010000
01000000
10000000
21000000
00000000
01000000
30000000
00000000
,  // measure 70
01100000
01001000
00101000
00010100
,  // measure 71
00022000
00000000
00000000
00033000
;

//---------------dance-double - ----------------
#NOTES:
     dance-double:
     :
     Challenge:
     9:
     0.617,0.757,0.264,0.144,0.312: // measure 1
00000000
00000000
00000000
00000000
,  // measure 2
00000000
00000000
00000000
00000000
,  // measure 3
00000000
00000000
00000000
00000000
,  // measure 4
00000000
00000000
00000000
00000000
,  // measure 5
00000000
00000000
00000000
00000000
,  // measure 6
00000000
00000000
00000000
00000000
,  // measure 7
00100000
00000000
10000000
00000000
01000000
00000000
00010000
00000000
00001000
00000000
00000000
00000100
00000000
00000000
00001000
00000000
,  // measure 8
00002200
00000000
00003300
00000000
00000001
00000000
00000010
00000001
,  // measure 9
00000000
00000000
00000000
00000000
00000010
00001000
00000010
00000000
,  // measure 10
00001000
00000000
00000000
00000010
00000000
00000000
00001000
00000000
00000000
00010000
00000000
00000000
00001000
00000000
00000000
00000000
,  // measure 11
00001000
00000000
00100000
00000000
01000000
00000000
00100000
00000000
01000000
00000000
00000000
10000000
00000000
00000000
01000000
00000000
,  // measure 12
02200000
00000000
03300000
00000000
00000000
02000000
00000000
00100000
,  // measure 13
00000000
00010000
00000000
00100000
00000000
03100000
00000000
00010000
,  // measure 14
00001000
00000000
00000100
00000000
00001000
00010000
00001000
00010000
00001000
00000000
00000000
00000000
00000000
00000000
00000000
00000000
,  // measure 15
00010000
00000000
00001000
00000000
00010000
00000000
00001000
00000000
00010000
00001000
00010000
00000000
00011000
00000000
00000000
00000000
,  // measure 16
00001000
00000000
00000100
00000000
00000001
00000000
00000010
00000000
00000001
00000010
00000001
00000000
00000101
00000000
00000000
00000000
,  // measure 17
00000010
00000000
00001000
00000000
00010000
00000000
01000000
00000000
00010000
01000000
00010000
00000000
01010000
00000000
00000000
00000000
,  // measure 18
10000000
00000000
01000000
00000000
10000000
00000000
01000000
00000000
00100000
00010000
00100000
00000000
00110000
00000000
00000000
00000000
,  // measure 19
10000000
01000000
00010000
01000000
00010000
00001000
00000100
00001000
,  // measure 20
00010000
00001000
00000010
00000001
00000100
00001000
00000100
00000010
,  // measure 21
00000100
00001000
00010000
00100000
10000000
00100000
10000000
01000000
,  // measure 22
00100000
00010000
00100000
00010000
01000000
00010000
01010000
00000000
,  // measure 23
00022000
00000000
00000000
00000000
00033000
00001000
00000000
00001000
,  // measure 24
00000100
00000000
00000100
00001000
00000000
00010000
00000000
00022000
,  // measure 25
00000000
00033000
00000000
00001000
00010000
00000100
00010000
00001000
,  // measure 26
00010000
00000010
00010000
00001000
00010000
00000100
00010000
00001000
,  // measure 27
00022000
00000000
00000000
00000000
00033000
00010000
00000000
00010000
,  // measure 28
01000000
00000000
01000000
10000000
00000000
10000000
00000000
00100000
,  // measure 29
10000000
00000000
00000000
01000000
00000000
00000000
00010000
00000000
00001000
00000000
00000000
00000010
00000000
00000000
00000001
00000000
,  // measure 30
00000010
00000000
00000000
00001000
00000000
00000000
00010000
00000000
00100000
00000000
00000000
10000000
00000000
00000000
00100000
00000000
,  // measure 31
20020000
00000000
00000000
00000000
30030000
01000000
00000000
01000000
,  // measure 32
00010000
00000000
00001000
00010000
00000000
00000010
00000000
00001000
,  // measure 33
00000010
00000001
00000010
00001000
00000010
00000100
00000001
00000100
,  // measure 34
00001000
00010000
01000000
00100000
00010000
00100000
10000000
00000000
,  // measure 35
20020000
00000000
00000000
00000000
30030000
00100000
00000000
00100000
,  // measure 36
10000000
00000000
10000000
01000000
00000000
01000000
00000000
10000000
,  // measure 37
01000000
00010000
00001000
00000100
00000001
00000100
00001000
00010000
,  // measure 38
01000000
10000000
01000000
00010000
01000000
10000000
10010000
00000000
,  // measure 39
00010000
00001000
00010000
00000000
00001000
00010000
00001000
00000000
00000100
00001000
00000100
00000000
00001000
00000100
00001000
00000000
,  // measure 40
00000100
00000001
00000100
00000000
00000001
00000100
00000001
00000000
00000100
00000010
00000100
00000000
00000010
00000100
00000010
00000000
,  // measure 41
00000100
00001000
00000100
00000000
00001000
00010000
00001000
00000000
00010000
01000000
00010000
00000000
01000000
00100000
01000000
00000000
,  // measure 42
10000000
00010000
10000000
00000000
00010000
01000000
00010000
00000000
01000000
00100000
01000000
00000000
00100000
10000000
00100000
00000000
,  // measure 43
10000000
01000000
10000000
00000000
01000000
10000000
01000000
00000000
00010000
01000000
00010000
00000000
01000000
00010000
01000000
00000000
,  // measure 44
00010000
00001000
00010000
00000000
00001000
00010000
00001000
00000000
00000100
00001000
00000100
00000000
00000001
00000100
00000001
00000000
,  // measure 45
00001000
00000010
00001000
00000000
00000100
00001000
00000100
00000000
00000010
00000100
00000010
00000000
00000001
00001000
00000001
00000000
,  // measure 46
00000100
00000001
00000100
00000000
00000010
00001000
00000010
00000000
00001000
00000001
00001000
00000000
00000100
00000010
00000100
00000000
,  // measure 47
00000010
00000001
00000010
00000000
00000001
00000010
00000001
00000000
00001000
00000001
00001000
00000000
00000001
00001000
00000001
00000000
,  // measure 48
00000100
00000010
00000100
00000000
00000010
00000100
00000010
00000000
00000100
00001000
00000100
00000000
00001000
00010000
00001000
00000000
,  // measure 49
00010000
01000000
00010000
00000000
01000000
10000000
01000000
00000000
10000000
00010000
10000000
00000000
00100000
01000000
00100000
00000000
,  // measure 50
01000000
00010000
01000000
00000000
00010000
00100000
00010000
00000000
00100000
01000000
00100000
00000000
01000000
10000000
01000000
00000000
,  // measure 51
10000000
00010000
10000000
00000000
00010000
10000000
00010000
00000000
01000000
00010000
01000000
00000000
00010000
01000000
00010000
00000000
,  // measure 52
01000000
00100000
01000000
00000000
00100000
01000000
00100000
00000000
10000000
01000000
10000000
00000000
01000000
10000000
01000000
00000000
,  // measure 53
00010000
00001000
00010000
00000000
00001000
00010000
00001000
00000000
00010000
00001000
00010000
00000000
00001000
00000100
00001000
00000000
,  // measure 54
00000100
00000001
00000100
00000000
00000001
00000100
00000001
00000000
00000100
00000010
00000100
00000000
00000010
00000100
00000010
00000000
,  // measure 55
00001001
00000000
00001001
00000000
00000000
00000010
00000001
00000100
,  // measure 56
00001000
00000100
00001000
00010000
01000000
00010000
01000000
00000000
,  // measure 57
10010000
00000000
10010000
00000000
00000000
00100000
00010000
01000000
,  // measure 58
00010000
01000000
00100000
00010000
00001000
00000010
00000001
00000000
,  // measure 59
00000110
00000000
00001001
00000000
00000000
00000001
00000100
00001000
,  // measure 60
00010000
00100000
10000000
00100000
10000000
01000000
10000000
00000000
,  // measure 61
11000000
00000000
01010000
00000000
00000000
00010000
00100000
01000000
,  // measure 62
10000000
01000000
00010000
00001000
00000010
00001000
00010000
00100000
,  // measure 63
00010000
00001000
00000010
00001000
00010000
00001000
00011000
00010000
,  // measure 64
00100000
10000000
01000000
10000000
01000000
00100000
10010000
01000000
,  // measure 65
00010000
00001000
00000100
00000001
00000100
00000001
00000101
00000100
,  // measure 66
00000010
00001000
00000100
00000010
00000001
00000100
00000110
00001000
,  // measure 67
00010000
00100000
10000000
00100000
10000000
01000000
11000000
10000000
,  // measure 68
01000000
00010000
01000000
10000000
01000000
00100000
01100000
01000000
,  // measure 69
00010000
01000000
10000000
21000000
00000000
01000000
30000000
00000000
,  // measure 70
01100000
01001000
00101000
00010100
,  // measure 71
00022000
00000000
00000000
00000000
,  // measure 72
00000000
00000000
00000000
00000000
,  // measure 73
00000000
00000000
00000000
00033000
;
