#TITLE:I'M ALIVE;
#SUBTITLE:(Solo Bass Mix);
#ARTIST:UNCLE 36 SEC feat. MC TAIWAN;
#TITLETRANSLIT:;
#SUBTITLETRANSLIT:;
#ARTISTTRANSLIT:;
#CREDIT:;
#BANNER:I'M ALIVE.png;
#BACKGROUND:I'M ALIVE-bg.png;
#LYRICSPATH:;
#CDTITLE:Dance Dance Revolution Solo.png;
#MUSIC:I'M ALIVE.ogg;
#OFFSET:0.000;
#SAMPLESTART:14.992;
#SAMPLELENGTH:15.000;
#SELECTABLE:YES;
#DISPLAYBPM:140.000;
#BPMS:0.000=140.075;
#STOPS:;
#BGCHANGES:;

//---------------dance-single - ----------------
#NOTES:
     dance-single:
     :
     Easy:
     3:
     0.222,0.258,0.216,0.000,0.000:
0000
0000
0000
0000
,
0000
0000
0000
0000
,
0000
0000
0000
0000
,
0000
0000
0000
0000
,
0000
0000
0000
0000
,
1000
0000
0000
1000
0000
0000
0000
0000
,
0001
0000
0000
0001
0000
0000
0000
0000
,
1000
0000
0000
1000
0000
0000
0000
0000
,
0000
0000
0000
0000
,
0010
0001
0100
0000
,
1000
0001
0100
0000
,
1001
1001
0000
0000
,
1001
0110
0000
0000
,
0010
0001
0100
0000
,
1000
0001
0100
0000
,
1001
1001
0000
0000
,
1001
0110
0000
0000
,
0001
0000
0001
0000
,
1000
0001
0100
0010
,
1000
0000
1000
0000
,
0001
0100
0000
1001
,
0010
0000
1000
0000
,
0001
0001
1000
0001
,
1000
0000
1000
0000
,
0010
0100
0001
0000
,
1000
0000
0010
0000
,
0001
1000
0001
1000
,
0001
0000
0010
0000
,
1000
0001
1000
0001
,
0100
0100
0010
0010
,
0100
1000
0010
0001
,
1000
0010
0100
0000
,
1001
0000
1001
0000
,
0010
0001
0100
0000
,
1000
0001
0100
0000
,
1001
1001
0000
0000
,
1001
0110
0000
0000
,
1000
0001
1000
0000
,
0001
1000
0001
0000
,
1001
1001
0000
0000
,
1001
0110
0000
0000
,
0001
1000
0001
1000
,
0001
1000
0000
0000
,
0010
1000
0000
0000
,
0001
0001
0000
0000
,
1000
0001
1000
0001
,
1000
0001
0000
0000
,
0010
0001
0000
0000
,
1000
1000
0000
0000
,
1000
0000
0000
1000
0000
0000
0000
0000
,
0001
0000
0000
0001
0000
0000
0000
0000
,
0100
0000
0000
0100
0000
0000
0000
0000
,
0010
0100
1000
0001
,
1001
0000
0000
0000
;

//---------------dance-single - ----------------
#NOTES:
     dance-single:
     :
     Medium:
     5:
     0.366,0.430,0.681,0.000,0.000:
0000
0000
0000
0000
,
0000
0000
0000
0000
,
0000
0000
0000
0000
,
0000
0000
0000
0000
,
0000
0000
0000
0000
,
1001
0000
0000
0110
0000
0000
0001
0000
,
0011
0000
0000
1100
0000
0000
0010
0000
,
1100
0000
0000
1001
0000
0000
0000
0000
,
1010
0101
1001
0000
,
1000
0001
0100
0000
0010
0000
0000
0000
,
1000
0000
0001
0100
0001
0000
0000
0000
,
1001
0000
1001
0000
0000
1001
0000
0000
,
1001
0000
1001
0000
0000
0110
0000
0000
,
1000
0001
0100
0000
0010
0000
0000
0000
,
1000
0000
0001
0100
0001
0000
0000
0000
,
1001
0000
1001
0000
0000
1001
0000
0000
,
0011
1001
0110
1001
,
0000
1000
0000
1000
,
0000
0000
1000
0100
1000
0000
1001
0000
,
0000
0001
0000
0001
,
0000
0000
1000
0010
0000
0000
1001
0000
,
0010
1000
0100
0001
,
0010
1000
0001
0000
0000
0000
1001
0000
,
0000
0100
0000
0100
,
1010
1001
0110
0000
,
0001
0100
0001
0000
0010
0000
0000
0000
,
1000
1000
1000
0000
0001
0001
0001
0000
,
1000
0010
1000
0000
0001
0000
0000
0000
,
0010
0010
0010
0000
0100
0100
0100
0000
,
1000
0001
1000
0000
0010
0000
0000
0000
,
1001
0110
1001
0000
,
1000
0100
0001
0000
1000
0100
0001
0000
,
1000
0010
0001
0000
1000
0010
0001
0000
,
1000
0001
1000
0000
0001
0000
0000
0000
,
1000
0000
0001
1000
0100
0000
0000
0000
,
1001
0000
1001
0000
0000
1001
0000
0000
,
0011
1001
0110
1001
,
1000
0100
1000
0000
0001
0000
0000
0000
,
0001
0000
1000
0010
1000
0000
0000
0000
,
1001
0000
1001
0000
0000
1001
0000
0000
,
1001
0000
1001
0000
0000
0110
0000
0000
,
1100
0101
0011
1010
,
0001
0000
0011
0000
0000
1100
0000
1100
,
0001
0000
0000
0000
0000
1000
0001
0010
,
0100
0000
0000
0000
,
1000
0010
0001
0000
0001
0010
1000
0000
,
0100
0010
0100
0000
0000
0000
0000
0000
,
1001
0000
1001
0000
0000
0110
0000
1001
,
1001
1001
0000
0000
,
1001
0000
0000
0110
0000
0000
0001
0000
,
0011
0000
0000
1100
0000
0000
0010
0000
,
1100
0000
0000
1001
0000
0000
0000
0000
,
0010
0000
0001
0000
0010
0001
1000
0000
,
0100
0000
0000
0000
;

//---------------dance-single - ----------------
#NOTES:
     dance-single:
     :
     Hard:
     7:
     0.434,0.487,0.659,0.000,0.065:
0000
0000
0000
0000
,
0000
0000
0000
0000
,
0000
0000
0000
0000
,
0000
0000
0000
0000
,
0000
0000
0000
0000
,
0001
0000
0000
1000
0000
0000
0100
0000
,
0011
0000
0000
1100
0000
0000
0010
0000
,
1001
0000
0000
0110
0000
0000
0000
0000
,
1000
1000
0010
0100
0001
0000
0000
0000
,
1000
0001
0100
0010
1000
0001
0100
0000
,
0001
0000
1000
0100
1000
0000
0000
0000
,
1001
0000
0000
0000
1001
0000
0000
0010
0000
0000
0101
0000
0000
0000
0000
0000
,
1010
0000
0000
0000
1010
0000
0000
0001
0000
0000
0101
0000
0000
0000
0000
0000
,
0010
1000
0100
0010
0001
1000
0100
0000
,
1000
0000
0001
0100
0001
0000
0000
0000
,
1001
0000
0000
0000
1001
0000
0000
0010
0000
0000
1100
0000
0000
0000
0000
0000
,
0011
0000
0000
0000
0011
0000
0000
1000
0000
0000
1100
0000
0000
0000
0000
0000
,
0010
0100
0100
0000
0100
1000
0000
0000
,
0010
0101
1000
0101
,
0010
0100
0100
0000
0001
0100
0000
0000
,
1001
0110
1001
0110
,
0001
0100
0100
0000
0100
0001
0000
0000
,
0010
0000
0010
0001
0100
0000
1001
0000
,
1000
0100
0100
0000
0100
0010
0000
0000
,
1001
0110
1001
0110
,
1000
0001
0100
0000
0001
1000
0100
0000
,
0001
0001
0100
0000
1000
1000
0100
0000
,
0100
1000
0001
0000
0100
0001
1000
0000
,
0001
0100
0010
0000
1000
0100
0001
0000
,
0000
1001
0000
0101
,
1000
0001
0110
0000
,
1010
0100
0010
0000
0001
0001
0100
0000
,
1010
0100
0010
0000
0001
0001
0100
0000
,
0001
1000
0100
0010
0001
1000
0100
0000
,
1000
0000
0001
1000
0100
0000
0000
0000
,
1001
0000
0000
0000
1001
0000
0000
0010
0000
0000
0101
0000
0000
0000
0000
0000
,
1100
0000
0000
0000
1100
0000
0000
0010
0000
0000
1001
0000
0000
0000
0000
0000
,
0010
0001
0100
0010
1000
0001
0100
0000
,
0001
0000
1000
0001
0100
0000
0000
0000
,
1001
0000
0000
0000
1001
0000
0000
0010
0000
0000
1001
0000
0000
0000
0000
0000
,
0101
0000
0000
0000
1100
0000
0000
0010
0000
0000
1001
0000
0000
0000
0000
0000
,
1100
0011
0101
1010
,
1010
0000
0101
0000
0000
0001
1000
0001
,
0001
0000
0000
1000
0100
0000
0000
0000
0000
0000
1000
0000
0001
0000
1000
0000
,
1000
0000
0000
0001
0100
0000
0000
0000
0000
0000
0000
0000
0000
0000
0000
0000
,
1010
0101
0011
1100
,
1010
0000
0101
0000
0000
1000
1000
0100
,
0010
0000
0000
0001
0100
0000
0000
0000
0000
0000
0001
0000
0001
0000
0100
0000
,
0010
0000
0000
1000
0100
0000
0000
0000
0000
0000
0000
0000
0000
0000
0000
0000
,
0001
0000
0000
1000
0000
0000
0100
0000
,
0101
0000
0000
1100
0000
0000
0010
0000
,
1001
0000
0000
0110
0000
0000
0000
0000
,
0010
0100
0010
0100
0001
0100
1000
0100
,
1001
0000
0000
0000
;

//---------------dance-solo - ----------------
#NOTES:
     dance-solo:
     :
     Easy:
     3:
     0.229,0.258,0.259,0.000,0.000:
000000
000000
000000
000000
,
000000
000000
000000
000000
,
000000
000000
000000
000000
,
000000
000000
000000
000000
,
000000
000000
000000
000000
,
100000
000000
000000
100000
000000
000000
000000
000000
,
000001
000000
000000
000001
000000
000000
000000
000000
,
100000
000000
000000
100000
000000
000000
000000
000000
,
000000
000000
000000
000000
,
000100
000001
001000
000000
,
100000
000001
001000
000000
,
100001
010010
000000
000000
,
100001
001100
000000
000000
,
000100
000001
001000
000000
,
100000
000001
001000
000000
,
100001
010010
000000
000000
,
100001
001100
000000
000000
,
000001
000000
000001
000000
,
100000
000001
001000
000100
,
100000
000000
100000
000000
,
000001
001000
000000
010010
,
000100
000000
100000
000000
,
000001
000001
010000
000010
,
100000
000000
100000
000000
,
000100
001000
000001
000000
,
010000
000000
010000
000000
,
000001
100000
000001
100000
,
000010
000000
000010
000000
,
100000
000001
100000
000001
,
001000
001000
000100
000100
,
010000
100000
000010
000001
,
100000
000100
001000
000000
,
100001
000000
010001
000000
,
000100
000001
001000
000000
,
100000
000001
001000
000000
,
100001
010010
000000
000000
,
100001
001100
000000
000000
,
100000
000001
100000
000000
,
000001
100000
000001
000000
,
100001
010010
000000
000000
,
100001
001100
000000
000000
,
000010
100000
000010
100000
,
000010
100000
000000
000000
,
010000
010000
000000
000000
,
000001
000001
000000
000000
,
010000
000001
010000
000001
,
010000
000001
000000
000000
,
000010
000010
000000
000000
,
100000
100000
000000
000000
,
110000
000000
000000
110000
000000
000000
000000
000000
,
000011
000000
000000
000011
000000
000000
000000
000000
,
001000
000000
000000
001000
000000
000000
000000
000000
,
000100
010000
100000
000001
,
010010
000000
000000
000000
;

//---------------dance-solo - ----------------
#NOTES:
     dance-solo:
     :
     Medium:
     5:
     0.367,0.458,0.692,0.000,0.000:
000000
000000
000000
000000
,
000000
000000
000000
000000
,
000000
000000
000000
000000
,
000000
000000
000000
000000
,
000000
000000
000000
000000
,
100001
000000
000000
001100
000000
000000
000010
000000
,
010001
000000
000000
100010
000000
000000
000100
000000
,
100010
000000
000000
100001
000000
000000
000000
000000
,
100100
001001
100001
000000
,
100000
000001
001000
000000
000100
000000
000000
000000
,
010000
000000
000001
001000
000001
000000
000000
000000
,
100001
000000
100001
000000
000000
010010
000000
000000
,
100001
000000
100001
000000
000000
001100
000000
000000
,
100000
000001
001000
000000
000100
000000
000000
000000
,
010000
000000
000001
001000
000001
000000
000000
000000
,
100001
000000
100001
000000
000000
010010
000000
000000
,
010001
100010
001100
100001
,
000000
100000
000000
100000
,
000000
000000
100000
001000
100000
000000
010010
000000
,
000000
000001
000000
000001
,
000000
000000
100000
000010
000000
000000
010001
000000
,
000100
100000
001000
000001
,
000100
100000
000001
000000
000000
000000
010010
000000
,
000000
001000
000000
001000
,
100010
010001
001100
000000
,
000001
001000
000001
000000
010000
000000
000000
000000
,
100000
100000
100000
000000
000001
000001
000001
000000
,
100000
000100
100000
000000
000010
000000
000000
000000
,
000100
000100
000100
000000
001000
001000
001000
000000
,
100000
000001
100000
000000
000010
000000
000000
000000
,
100001
001100
100001
000000
,
100000
001000
000001
000000
100000
001000
000001
000000
,
100000
000100
000001
000000
100000
000100
000001
000000
,
100000
000010
010000
000000
000001
000000
000000
000000
,
010000
000000
000001
100000
001000
000000
000000
000000
,
100001
000000
100001
000000
000000
010010
000000
000000
,
010001
100010
001100
100001
,
100000
001000
100000
000000
000001
000000
000000
000000
,
000001
000000
100000
000100
100000
000000
000000
000000
,
100001
000000
100001
000000
000000
010010
000000
000000
,
100001
000000
100001
000000
000000
001100
000000
000000
,
101000
001001
000101
100100
,
000011
000000
010001
000000
000000
101000
000000
101000
,
000001
000000
000000
000000
000000
010000
000001
000100
,
001000
000000
000000
000000
,
100000
000100
000001
000000
000001
000100
100000
000000
,
001000
000100
000010
000000
000000
000000
000000
000000
,
100001
000000
100010
000000
000000
001100
000000
100001
,
010010
100001
000000
000000
,
100001
000000
000000
001100
000000
000000
000010
000000
,
010001
000000
000000
100010
000000
000000
000100
000000
,
100010
000000
000000
100001
000000
000000
000000
000000
,
000010
000000
000001
000000
000100
100000
000001
000000
,
001000
000000
000000
000000
;

//---------------dance-solo - ----------------
#NOTES:
     dance-solo:
     :
     Hard:
     7:
     0.455,0.487,0.811,0.000,0.065:
000000
000000
000000
000000
,
000000
000000
000000
000000
,
000000
000000
000000
000000
,
000000
000000
000000
000000
,
000000
000000
000000
000000
,
000011
000000
000000
110000
000000
000000
001000
000000
,
000101
000000
000000
100100
000000
000000
001000
000000
,
100001
000000
000000
001100
000000
000000
000000
000000
,
010000
100000
000010
000001
001000
000000
000000
000000
,
100000
000001
001000
010000
000001
100000
001000
000000
,
010000
000000
000001
001000
000001
000000
000000
000000
,
100001
000000
000000
000000
100001
000000
000000
000100
000000
000000
010001
000000
000000
000000
000000
000000
,
100100
000000
000000
000000
100100
000000
000000
000100
000000
000000
001001
000000
000000
000000
000000
000000
,
000010
100000
001000
000001
010000
000001
001000
000000
,
000010
000000
100000
001000
100000
000000
000000
000000
,
100001
000000
000000
000000
100001
000000
000000
000100
000000
000000
100010
000000
000000
000000
000000
000000
,
000101
000000
000000
000000
000101
000000
000000
000100
000000
000000
101000
000000
000000
000000
000000
000000
,
000100
001000
001000
000000
001000
000001
000000
000000
,
000100
010001
100000
010010
,
000100
001000
001000
000000
001000
100000
000000
000000
,
100001
001100
100001
001100
,
000001
001000
001000
000000
001000
000010
000000
000000
,
000100
000000
000100
100000
001000
000000
100001
000000
,
100000
001000
001000
000000
001000
010000
000000
000000
,
100001
001100
100001
001100
,
100000
000001
001000
000000
000001
100000
001000
000000
,
000011
000001
001000
000000
110000
100000
001000
000000
,
001000
100000
000001
000000
001000
000001
100000
000000
,
000110
000010
000001
000000
010100
010000
100000
000000
,
000000
100100
000000
001001
,
110000
000011
001100
000000
,
000101
000010
010000
000000
100000
100000
001000
000000
,
100100
010000
000010
000000
000001
000001
001000
000000
,
010000
000001
001000
010000
000010
100000
001000
000000
,
010000
000000
000001
100000
001000
000000
000000
000000
,
100001
000000
000000
000000
100001
000000
000000
000100
000000
000000
100010
000000
000000
000000
000000
000000
,
000101
000000
000000
000000
100100
000000
000000
000100
000000
000000
100001
000000
000000
000000
000000
000000
,
000010
100000
001000
000010
010000
000001
001000
000000
,
000010
000000
100000
000001
001000
000000
000000
000000
,
100001
000000
000000
000000
100001
000000
000000
000100
000000
000000
010001
000000
000000
000000
000000
000000
,
001001
000000
000000
000000
101000
000000
000000
000100
000000
000000
100001
000000
000000
000000
000000
000000
,
010100
001010
000110
011000
,
100100
000000
000101
000000
000000
010000
000010
010000
,
001001
000000
000000
100000
001000
000000
000000
000000
000000
000000
000010
000000
010000
000000
000010
000000
,
101000
000000
000000
000001
001000
000000
000000
000000
000000
000000
000000
000000
000000
000000
000000
000000
,
010100
001010
000110
011000
,
100100
000000
000101
000000
000000
100000
100000
001000
,
000101
000000
000000
100000
000100
000000
000000
000000
000000
000000
000001
000000
000001
000000
001000
000000
,
100100
000000
000000
000001
000100
000000
000000
000000
000000
000000
000000
000000
000000
000000
000000
000000
,
000011
000000
000000
110000
000000
000000
001000
000000
,
001010
000000
000000
011000
000000
000000
000100
000000
,
100001
000000
000000
001100
000000
000000
000000
000000
,
000100
001000
000100
001000
000001
001000
100000
001000
,
100001
000000
000000
000000
;

//---------------dance-double - Edit by silenttype01----------------
#NOTES:
     dance-double:
     Edit by silenttype01:
     Easy:
     3:
     0.210,0.258,0.238,0.000,0.000: // measure 1
00000000
00000000
00000000
00000000
,  // measure 2
00000000
00000000
00000000
00000000
,  // measure 3
00000000
00000000
00000000
00000000
,  // measure 4
00000000
00000000
00000000
00000000
,  // measure 5
00000000
00000000
00000000
00000000
,  // measure 6
00000000
00000000
00000000
00000000
,  // measure 7
00000000
00000000
00000000
00000000
,  // measure 8
00000000
00000000
00000000
00000000
,  // measure 9
00000000
00000000
00000000
00000000
,  // measure 10
01000000
10000000
00100000
00000000
,  // measure 11
00010000
00001000
00000010
00000000
,  // measure 12
00001001
00001001
00000000
00000000
,  // measure 13
00001001
00001001
00000000
00000000
,  // measure 14
00000100
00000001
00000010
00000000
,  // measure 15
00001000
00010000
00100000
00000000
,  // measure 16
10010000
10010000
00000000
00000000
,  // measure 17
10010000
10010000
00000000
00000000
,  // measure 18
10000000
00000000
10000000
00000000
,  // measure 19
00010000
10000000
00100000
01000000
,  // measure 20
00010000
00000000
00010000
00000000
,  // measure 21
00001000
00000010
00000000
00001001
,  // measure 22
00000100
00000000
00000001
00000000
,  // measure 23
00001000
00001000
00000001
00001000
,  // measure 24
00000001
00000000
00000001
00000000
,  // measure 25
00000100
00000010
00001000
00000000
,  // measure 26
00000001
00000000
00000100
00000000
,  // measure 27
00001000
00010000
00001000
00010000
,  // measure 28
00001000
00000000
01000000
00000000
,  // measure 29
00010000
10000000
00010000
10000000
,  // measure 30
00100000
00000000
00010000
00000000
,  // measure 31
00001000
00010000
00001000
00000000
,  // measure 32
00011000
00000000
00011000
00000000
,  // measure 33
00011000
00000000
00011000
00000000
,  // measure 34
00000100
00000001
00000010
00000000
,  // measure 35
00001000
00010000
00100000
00000000
,  // measure 36
10010000
10010000
00000000
00000000
,  // measure 37
10010000
10010000
00000000
00000000
,  // measure 38
01000000
10000000
00100000
00000000
,  // measure 39
00010000
00001000
00000010
00000000
,  // measure 40
00001001
00001001
00000000
00000000
,  // measure 41
00001001
00001001
00000000
00000000
,  // measure 42
00001000
00000001
00001000
00000001
,  // measure 43
00001000
00000001
00000000
00000000
,  // measure 44
00010000
00001000
00000000
00000000
,  // measure 45
10000000
00010000
00000000
00000000
,  // measure 46
00010000
10000000
00010000
10000000
,  // measure 47
00010000
10000000
00000000
00000000
,  // measure 48
00001000
00010000
00000000
00000000
,  // measure 49
00000001
00001000
00000000
00000000
,  // measure 50
00000001
00000000
00000000
00000001
00000000
00000000
00000000
00000000
,  // measure 51
00001000
00000000
00000000
00001000
00000000
00000000
00000000
00000000
,  // measure 52
00010000
00000000
00000000
00010000
00000000
00000000
00000000
00000000
,  // measure 53
01000000
10000000
00100000
00010000
,  // measure 54
00011000
00000000
00000000
00000000
;

//---------------dance-single - Edit by silenttype01----------------
#NOTES:
     dance-single:
     Edit by silenttype01:
     Challenge:
     8:
     0.459,0.430,0.281,0.335,0.113:
0000
0000
0000
0000
,
0000
0000
0000
0000
,
0000
0000
0000
0000
,
0000
0000
0000
0000
,
0000
0000
0000
0000
,
0000
0000
0000
0000
,
0000
0000
0000
0000
,
0000
0000
0000
0000
,
0000
0000
0000
0000
0000
0000
0001
1000
,
0100
0010
0100
1000
0001
0001
0100
0200
,
0000
0000
0301
0001
0100
0100
0100
0001
,
0010
0000
0000
0000
0020
0000
0000
1030
0000
0000
0002
0000
0000
0000
0103
0000
,
1000
0000
0000
0000
2000
0000
0000
3010
0000
0000
0200
0000
0000
0000
0301
0000
,
0100
0010
0100
0001
1000
1000
0100
0200
,
0000
0000
1300
1000
0100
0100
0100
1000
,
0010
0000
0000
0000
0020
0000
0000
0031
0000
0000
2000
0000
0000
0000
3100
0000
,
0001
0000
0000
0000
0002
0000
0000
0013
0000
0000
0002
0000
0000
0000
0013
0000
,
1000
0010
0001
0010
1000
0010
0000
0010
,
0001
0100
1000
0010
0002
0000
2003
0000
,
3000
0010
0100
0001
1000
0010
0000
1010
,
0000
0011
0000
2020
0000
3030
0000
0000
,
1000
0001
0100
0001
0010
0010
0010
0101
,
0000
1000
0100
0010
0000
0220
0000
0330
,
0000
0010
0001
0010
1000
0010
0001
2000
,
0000
3002
0000
0023
0000
0030
0000
0000
,
0000
0011
0000
0101
0000
0011
0000
0101
,
0000
1010
0000
1100
0000
1001
0000
0000
,
0000
1010
0000
0110
0000
0001
0000
1000
,
0000
0010
0000
1001
0000
0110
0000
0000
,
0000
1001
0000
0010
0000
0100
0000
1001
,
0000
0001
0000
0110
0000
1001
0000
1000
,
0010
0000
0001
0000
1000
0000
0000
0000
0010
0001
0000
1000
0000
0000
0000
0000
,
0010
0000
0001
0000
1000
0000
0000
0000
0010
0001
0000
1000
0000
0000
0000
0000
,
0100
0010
0100
1000
0001
0001
0100
0200
,
0000
0000
1300
1000
0100
0100
0100
0001
,
0010
0000
0000
0000
0020
0000
0000
1030
0000
0000
0002
0000
0000
0000
0103
0000
,
1000
0000
0000
0000
2000
0000
0000
3010
0000
0000
0200
0000
0000
0000
1300
0000
,
0100
0010
0100
0001
1000
1000
0100
0200
,
0000
0000
0301
0001
0100
0100
0100
1000
,
0010
0000
0000
0000
0020
0000
0000
0031
0000
0000
2000
0000
0000
0000
3100
0000
,
0001
0000
0000
0000
0002
0000
0000
0013
0000
0000
0001
0000
0010
0000
0200
0000
,
0000
1300
0100
0020
0000
0031
0100
0020
,
0000
1030
0010
0100
0000
0001
0100
1000
,
0100
0000
0000
0001
M1MM
0000
0000
0000
0000
0000
0001
0000
0100
0000
1000
0000
,
0100
0000
0000
0001
M1MM
0000
0000
0000
0000
0000
0001
0000
0010
0000
1000
0000
,
0000
1000
0010
0001
0000
0001
0100
1000
,
0000
1000
0100
0001
0000
0001
1000
0100
,
0010
0000
0000
0001
MM1M
0000
0000
0000
0000
0000
0001
0000
1000
0000
0100
0000
,
0010
0000
0000
0001
MM1M
0000
0000
0000
0100
0000
0000
0000
0100
0000
0000
0000
,
1001
0000
0000
0110
MMMM
0000
0000
0000
,
1100
0000
0000
0011
MMMM
0000
0000
0000
,
0101
0000
0000
1010
MMMM
0000
0000
0000
,
1000
0000
0001
0000
0001
1000
0000
1000
0000
1000
0001
0000
1000
0001
1000
0001
,
0100
0000
0000
0000
;

//---------------dance-double - Edit by silenttype01----------------
#NOTES:
     dance-double:
     Edit by silenttype01:
     Medium:
     7:
     0.389,0.430,0.443,0.000,0.065: // measure 1
00000000
00000000
00000000
00000000
,  // measure 2
00000000
00000000
00000000
00000000
,  // measure 3
00000000
00000000
00000000
00000000
,  // measure 4
00000000
00000000
00000000
00000000
,  // measure 5
00000000
00000000
00000000
00000000
,  // measure 6
00000000
00000000
00000000
00000000
,  // measure 7
00000000
00000000
00000000
00000000
,  // measure 8
00000000
00000000
00000000
00000000
,  // measure 9
00000000
00000000
00000000
00000000
,  // measure 10
10000000
00010000
00100000
00000000
01000000
10000000
00010000
00000000
,  // measure 11
00100000
00000000
00001000
00010000
00001000
00000000
00000000
00000000
,  // measure 12
00011000
00000000
00000000
00000000
00010000
00000000
00000000
00000100
00000000
00000000
00001000
00000000
00000000
00000000
00000000
00000000
,  // measure 13
00000101
00000000
00000000
00000000
00000001
00000000
00000000
00001000
00000000
00000000
00000010
00000000
00000000
00000000
00000000
00000000
,  // measure 14
00000100
00000001
00000010
00000000
00000100
00001000
00000001
00000000
,  // measure 15
00000010
00000000
00001000
00010000
00001000
00000000
00000000
00000000
,  // measure 16
00011000
00000000
00000000
00000000
00001000
00000000
00000000
01000000
00000000
00000000
00010000
00000000
00000000
00000000
00000000
00000000
,  // measure 17
11000000
00000000
00000000
00000000
10000000
00000000
00000000
00010000
00000000
00000000
00100000
00000000
00000000
00000000
00000000
00000000
,  // measure 18
01000000
00100000
00100000
00000000
00100000
00010000
01000000
00000000
,  // measure 19
01000000
10100000
00010000
00101000
,  // measure 20
00010000
00000010
00000010
00000000
00001000
00000010
00000100
00000000
,  // measure 21
00001001
00000110
00001001
00000110
,  // measure 22
00000010
00001000
00001000
00000000
00000001
00001000
00000100
00000000
,  // measure 23
00000100
00000000
00000100
00010000
00000010
00000000
00001001
00000000
,  // measure 24
00000001
00000010
00000010
00000000
00000010
00000100
00001000
00000000
,  // measure 25
00001001
00011000
10010000
01100000
,  // measure 26
10000000
00010000
00100000
00000000
00010000
10000000
00100000
00000000
,  // measure 27
10000000
10000000
00100000
00000000
00010000
00010000
00001000
00000000
,  // measure 28
00000010
00000001
00001000
00000000
00000010
00001000
00000001
00000000
,  // measure 29
00001000
00000010
00000100
00000000
00000001
00000010
00000100
00000000
,  // measure 30
00001000
00001001
00001000
00001010
,  // measure 31
00010000
00011000
00001000
00000000
,  // measure 32
01010000
00100000
01000000
00000000
10000000
10000000
00100000
00000000
,  // measure 33
01001000
00100000
01000000
00000000
10000000
10000000
00100000
00000000
,  // measure 34
10000000
00010000
00100000
01000000
10000000
00010000
00100000
00000000
,  // measure 35
00010000
00000000
01000000
00001000
01000000
00000000
00000000
00000000
,  // measure 36
00011000
00000000
00000000
00000000
00010000
00000000
00000000
00000100
00000000
00000000
00001000
00000000
00000000
00000000
00000000
00000000
,  // measure 37
00000011
00000000
00000000
00000000
00000001
00000000
00000000
00000100
00000000
00000000
00000001
00000000
00000000
00000000
00000000
00000000
,  // measure 38
00000100
00001000
00000010
00000100
00000001
00001000
00000010
00000000
,  // measure 39
00001000
00000000
00000100
00010000
00000100
00000000
00000000
00000000
,  // measure 40
00011000
00000000
00000000
00000000
00001000
00000000
00000000
01000000
00000000
00000000
00010000
00000000
00000000
00000000
00000000
00000000
,  // measure 41
10100000
00000000
00000000
00000000
10000000
00000000
00000000
01000000
00000000
00000000
10000000
00000000
00000000
00000000
00000000
00000000
,  // measure 42
00110000
11000000
10100000
01100000
,  // measure 43
01001000
00000000
00011000
00000000
00000000
00000100
00001000
00010000
,  // measure 44
00010000
00000000
00000000
00001000
00010000
00000000
00000000
00000000
00000000
00000000
00001000
00000000
00000010
00000000
00000001
00000000
,  // measure 45
00000001
00000000
00000000
00001000
00000010
00000000
00000000
00000000
00000000
00000000
00000000
00000000
00000000
00000000
00000000
00000000
,  // measure 46
00001010
00000101
00000011
00000110
,  // measure 47
00010100
00000000
00011000
00000000
00000000
01000000
00010000
00001000
,  // measure 48
00001000
00000000
00000000
00010000
00001000
00000000
00000000
00000000
00000000
00000000
00010000
00000000
00100000
00000000
10000000
00000000
,  // measure 49
10000000
00000000
00000000
00010000
00100000
00000000
00000000
00000000
00000000
00000000
00000000
00000000
00000000
00000000
00000000
00000000
,  // measure 50
00010000
00000000
00000000
10000000
00000000
00000000
00100000
00000000
,  // measure 51
01010000
00000000
00000000
00001010
00000000
00000000
00000100
00000000
,  // measure 52
00001001
00000000
00000000
00000110
00000000
00000000
00000000
00000000
,  // measure 53
00000100
00000010
00010000
00000010
00001000
00000010
00000100
00000010
,  // measure 54
00001001
00000000
00000000
00000000
;

//---------------dance-double - Edit by silenttype01----------------
#NOTES:
     dance-double:
     Edit by silenttype01:
     Hard:
     9:
     0.574,0.629,0.389,0.281,0.254:
00000000
00000000
00000000
00000000
,
00000000
00000000
00000000
00000000
,
00000000
00000000
00000000
00000000
,
00000000
00000000
00000000
00000000
,
00000000
00000000
00000000
00000000
,
00000000
00000000
00000000
00000000
,
00000000
00000000
00000000
00000000
,
00000000
00000000
00000000
00000000
00000000
00000000
00000000
00000000
00000000
00000000
00000000
00000000
00100000
10000000
00100000
20000000
,
00200000
00000000
00000000
00000000
30300000
00000000
10000000
00100000
,
00010000
00000000
00010000
00100000
10000000
00000000
10000000
00200000
,
00000000
00300000
00100000
00010000
00001000
00000000
00001000
00000010
,
00000001
00000000
00000000
00000000
00000011
00000000
00000000
00001100
00000000
00000000
00010100
00000000
00000000
00000000
00000000
00000000
,
00011000
00000000
00000000
00000000
00010100
00000000
00000000
00001010
00000000
00000000
00000100
00000000
00000001
00000000
00000010
00000000
,
00001000
00000000
00001000
00000010
00000001
00000000
00000001
00000020
,
00000000
00000030
00000010
00001000
00010000
00000000
00010000
00100000
,
10000000
00000000
00000000
00000000
10100000
00000000
00000000
01010000
00000000
00000000
01001000
00000000
00000000
00000000
00000000
00000000
,
00011000
00000000
00000000
00000000
01001000
00000000
00000000
00110000
00000000
00000000
02000000
00000000
00000000
00000000
00000000
00000000
,
13000000
00100000
01000000
00010000
10000000
00100000
01000000
00010000
,
01010000
00000000
00000000
00000000
01000000
00000000
00001000
00000000
00010000
00000000
00000100
00000000
00001000
00000000
00000010
00010000
,
00000010
00000000
00001000
00000100
00000010
00000001
00001000
00001001
,
00001001
00000000
00000000
00000000
00000001
00000000
00000010
00000000
00000100
00000000
00001000
00000000
00000001
00000010
00000000
00000000
,
00001100
00000000
00000001
00000010
00001000
00010000
00001000
00010000
,
00011000
00000000
00000000
00000000
00001000
00000000
00010000
00000000
00100000
00000000
10000000
00000000
00010000
00000000
10000000
00010000
,
10000000
00000000
00010000
00100000
01000000
00100000
00010000
10010000
,
10010000
00000000
00000000
00000000
01000000
00000000
00000000
00000000
00000000
10000000
00010000
00000000
10000000
00010000
10000000
00010000
,
10000000
00000000
00100000
00000000
01000000
00000000
00010000
10000000
00000000
10000000
00010000
00000000
01000000
00000000
00100000
00000000
,
10000000
00000000
00100000
00000000
00010000
00000000
00001000
00010000
00000000
00010000
00001000
00000000
00000010
00000000
00000001
00000000
,
00000010
00000000
00000100
00000000
00001000
00000000
00000001
00001000
00000000
00001000
00000001
00000000
00000100
00000000
00000010
00000000
,
00000001
00000000
00000010
00000000
00001000
00000000
00000001
00000010
00000000
00000010
00001000
00000000
00000010
00000000
00000001
00000000
,
00000010
00000000
00001000
00000000
00010000
00000000
01000000
00100000
00000000
00100000
01000000
00000000
00010000
00000000
01000000
00000000
,
10000000
00000000
00100000
00000000
01000000
00000000
00010000
10000000
00000000
00010000
10000000
00000000
01000000
00000000
10000000
00000000
,
10100000
00000000
00110000
00000000
10010000
00000000
00000000
00000000
10000000
00100000
00000000
00010000
00000000
00000000
00000000
00000000
,
10100000
00000000
00110000
00000000
10010000
00000000
00000000
00000000
10000000
00100000
00000000
00010000
00000000
00000000
00000000
00000000
,
10000000
00100000
00010000
00000000
00010000
00100000
10000000
00000000
,
10000000
00100000
00010000
00001000
00000010
00000010
00000001
00000001
,
00000100
00000000
00000000
00000000
00002100
00000000
00000000
00013000
00000000
00000000
00022000
00000000
00000000
00000000
00033000
00000000
,
00001000
00000000
00000000
00000000
00001020
00000000
00000000
00000031
00000000
00000000
00002002
00000000
00000000
00000000
00003003
00000000
,
00000001
00000010
00001000
00000000
00001000
00000010
00000001
00000000
,
00000001
00000010
00001000
00010000
00100000
00100000
10000000
10000000
,
01000000
00000000
00000000
00000000
01020000
00000000
00000000
00031000
00000000
00000000
00022000
00000000
00000000
00000000
00033000
00000000
,
00010000
00000000
00000000
00000000
00210000
00000000
00000000
10300000
00000000
00000000
10010000
00000000
00100000
00000000
02000000
00000000
,
00000000
13000000
00100000
00020000
00000000
00031000
00000100
00000002
,
00000000
00000013
00001000
00020000
00000000
01030000
10000000
00100000
,
00010000
00000000
00000000
00001000
MMM2MMMM
00000000
00000000
00000000
00030000
00000000
00001000
00000000
00000100
00000000
00000001
00000000
,
00000010
00000000
00000000
00000100
MMMMMM2M
00000000
00000000
00000000
00000030
00000000
00000100
00000000
00000010
00000000
00000002
00000000
,
00000000
00000103
00001000
00020000
00000000
00130000
10000000
02000000
,
00000000
03010000
00001000
00000020
00000000
00000031
00000100
00001000
,
00010000
00000000
00000000
00001000
MMM2MMMM
00000000
00000000
00000000
00030000
00000000
00001000
00000000
00010000
00000000
00100000
00000000
,
10000000
00000000
10000000
00000000
1MMMMMMM
00000000
10000000
10000000
00000000
00010000
00010000
00000000
00100000
01000000
00100000
01000000
,
10000000
00000000
10000000
00000000
10000000
00000000
00010000
00100000
M1MMMMMM
00000000
01000000
00000000
01000000
00000000
10000000
00000000
,
00110000
00000000
00010000
00000000
00010000
00000000
00110000
00000000
MM1MMMMM
00001000
00010000
00000000
00010000
00000000
00000100
00000000
,
00001010
00000000
00000010
00000000
00000010
00000000
00001000
00000010
MMMMM1MM
00000000
00000100
00000000
00000100
00000000
00000001
00000000
,
00000010
00000000
00001000
00000000
00010000
00010000
00000000
00001000
00000000
00010000
00010000
00000000
00001000
00010000
00001000
00010000
;
