#TITLE:I'M ALIVE;
#SUBTITLE:(Solo 2000);
#ARTIST:CUT'N'MOVE;
#TITLETRANSLIT:;
#SUBTITLETRANSLIT:;
#ARTISTTRANSLIT:;
#CREDIT:;
#BANNER:I'M ALIVE.png;
#BACKGROUND:I'M ALIVE-bg.png;
#LYRICSPATH:;
#CDTITLE:DanceDanceRevolutionSolo2000.png;
#MUSIC:I'M ALIVE.ogg;
#OFFSET:0.000;
#SAMPLESTART:15.560;
#SAMPLELENGTH:15.000;
#SELECTABLE:YES;
#DISPLAYBPM:134.000;
#BPMS:0.000=133.994,132.000=139.072,133.000=133.987;
#STOPS:;
#BGCHANGES:;

//---------------dance-single - ----------------
#NOTES:
     dance-single:
     :
     Easy:
     1:
     0.098,0.159,0.000,0.000,0.000:
0000
0000
0000
0000
,
0000
0000
0000
0000
,
0000
0000
0000
0000
,
0000
0000
0000
0000
,
0000
0000
0000
0000
,
0010
0000
0000
0000
,
0000
0000
0000
0000
,
0100
0000
0000
0000
,
0000
0000
0000
0000
,
1000
0000
0000
0000
,
0001
0000
0000
0000
,
0001
0000
0001
0000
,
0001
0000
0001
0000
,
0001
0000
0000
0000
,
1000
0000
0000
0000
,
1000
0000
1000
0000
,
1000
0000
1000
0000
,
1000
0000
0000
0000
,
0100
0000
0000
0000
,
0001
0000
0000
0000
,
1000
0000
0000
0000
,
0010
0000
0000
0000
,
0010
0000
0000
0000
,
0001
0000
0000
0000
,
0100
0100
0100
0000
,
0100
0000
0000
0000
,
0001
0000
0000
0000
,
0010
0000
0000
0000
,
0001
0000
0000
0000
,
0001
0000
1000
0000
,
0001
0000
1000
0000
,
0001
0001
0001
0000
,
0100
0100
0100
0000
,
1000
0000
0000
0000
,
0010
0000
0000
0000
,
0001
0001
0001
0000
,
0001
0001
0001
0000
,
0001
0000
0000
0000
,
0010
0000
0000
0000
,
1000
1000
1000
0000
,
1000
1000
1000
0000
,
0001
0000
0000
0000
,
0010
0000
0000
0000
,
1000
0000
0000
0000
,
0100
0000
0000
0000
,
0001
0000
0000
0000
,
0001
0000
0000
0000
,
1000
0000
0000
0000
,
1000
0000
0000
0000
;

//---------------dance-single - ----------------
#NOTES:
     dance-single:
     :
     Medium:
     4:
     0.223,0.295,0.000,0.000,0.000:
0000
0000
0000
0000
,
0000
0000
0000
0000
,
0000
0000
0000
0000
,
0000
0000
0000
0000
,
0000
0000
0000
0000
,
0001
0000
0000
0000
,
0010
0000
0000
0000
,
1000
0000
0000
0000
,
0010
0010
0010
0010
,
0001
0010
1000
0000
0001
0000
0000
0000
,
1000
0010
0001
0000
1000
0000
0000
0000
,
0010
0010
0010
0000
,
0001
1000
0001
0000
,
0001
1000
0100
0000
0001
0000
0000
0000
,
1000
0001
0100
0000
1000
0000
0000
0000
,
0001
0100
1000
0000
,
1000
0100
0001
0000
,
0010
0000
1000
0000
,
0001
0100
0010
1000
,
0010
0000
0100
0000
,
0001
0100
0010
1000
,
0001
0000
0100
0000
,
0100
0100
1000
1000
,
0010
0000
0001
0000
,
1000
0001
1000
0000
,
0001
0000
1000
0000
,
0100
0001
0100
1000
,
0010
0000
0001
0000
,
0010
1000
0100
0001
,
0010
0000
1000
0000
,
0001
0000
1000
0000
,
0001
0001
0001
0000
,
1000
0001
1000
0000
,
0001
0010
1000
0000
0001
0000
0000
0000
,
1000
0100
0001
0000
1000
0000
0000
0000
,
0010
0010
0010
0000
,
1000
0001
1000
0000
,
0001
1000
0001
0000
0100
0000
0000
0000
,
1000
0001
1000
0000
0100
0000
0000
0000
,
0010
0100
0001
0000
,
1000
0010
0100
0000
,
1000
0001
0100
0000
0010
0000
0000
0000
,
1000
0001
0010
0000
0100
0000
0000
0000
,
0010
1000
0100
0001
,
0001
0100
0010
1000
,
0010
0100
1000
0000
0001
0000
0000
0000
,
1000
0001
1000
0000
0100
0100
0100
0000
,
0001
1000
0001
1000
,
0100
0010
0001
0100
;

//---------------dance-single - ----------------
#NOTES:
     dance-single:
     :
     Hard:
     5:
     0.345,0.349,0.011,0.000,0.044:
0000
0000
0000
0000
,
0000
0000
0000
0000
,
0000
0000
0000
0000
,
0000
0000
0000
0000
,
0000
0000
0000
0000
,
0010
0010
0010
0010
,
0001
0010
0001
0010
,
1000
1000
1000
1000
,
0001
0001
1000
0001
,
0001
0010
1000
0000
1000
0100
0001
0000
,
0001
0000
0010
1000
0001
1000
0100
0000
,
0010
0000
0000
0000
0010
0000
0000
0010
0000
0000
0100
0000
0000
0000
0001
0000
,
1000
0000
0000
0000
0100
0000
0000
1000
0000
0000
0001
0000
0000
0000
0000
0000
,
1000
0010
0001
0000
0001
0100
1000
0000
,
0001
0000
1000
0001
0010
1000
0100
0000
,
0010
0000
0000
0000
0010
0000
0000
0010
0000
0000
0100
0000
0000
0000
0001
0000
,
1000
0000
0000
0000
0100
0000
0000
1000
0000
0000
0001
0000
0000
0000
0000
0000
,
0010
0001
1000
0010
,
0001
0010
1000
0100
0001
0000
1000
0000
,
0010
1000
0001
0010
,
1000
0001
1000
0000
,
0001
0000
0100
0000
1000
0100
0100
0000
,
0001
0000
0010
0000
1000
0100
0100
0000
,
0010
1000
0001
0000
0010
1000
0001
0000
,
0010
0001
0100
0000
,
1000
0010
0001
0000
1000
1000
0100
0000
,
0100
0001
0100
1000
,
0001
0010
1000
0000
0001
0001
0100
0000
,
0010
1000
0100
0001
,
1000
0001
1000
0001
,
0100
1000
0100
0001
,
1000
0010
1000
0000
0001
0100
1000
0000
,
1000
0100
0001
0000
0010
0001
0100
0000
,
0010
0001
0100
0000
1000
0100
0001
0000
,
1000
0000
0010
0100
0001
1000
0100
0000
,
0010
0000
0000
0000
0010
0000
0000
0010
0000
0000
0100
0000
0000
0000
0001
0000
,
1000
0000
0000
0000
0100
0000
0000
1000
0000
0000
0001
0000
0000
0000
0000
0000
,
1000
0010
0001
0000
0001
0100
1000
0000
,
0001
0000
1000
0001
0010
1000
0100
0000
,
0010
0000
0000
0000
0010
0000
0000
0010
0000
0000
0100
0000
0000
0000
0001
0000
,
1000
0000
0000
0000
0100
0000
0000
1000
0000
0000
0001
0000
0000
0000
0000
0000
,
1000
0100
1000
0000
0001
0010
0001
0000
,
1000
0000
0001
0100
1000
0100
0001
0000
,
0010
1000
0100
0001
,
0001
0100
0010
1000
,
0010
1000
0100
0000
0010
0001
0100
0000
,
0001
0000
1000
0001
0100
0010
1000
0000
,
1000
1000
1000
1000
,
0010
0100
0001
1000
0001
0000
1001
0000
;

//---------------dance-solo - ----------------
#NOTES:
     dance-solo:
     :
     Easy:
     1:
     0.098,0.159,0.000,0.000,0.000:
000000
000000
000000
000000
,
000000
000000
000000
000000
,
000000
000000
000000
000000
,
000000
000000
000000
000000
,
000000
000000
000000
000000
,
000100
000000
000000
000000
,
000000
000000
000000
000000
,
001000
000000
000000
000000
,
000000
000000
000000
000000
,
100000
000000
000000
000000
,
000001
000000
000000
000000
,
000001
000000
000001
000000
,
000001
000000
000001
000000
,
000001
000000
000000
000000
,
100000
000000
000000
000000
,
100000
000000
100000
000000
,
100000
000000
100000
000000
,
100000
000000
000000
000000
,
001000
000000
000000
000000
,
000001
000000
000000
000000
,
100000
000000
000000
000000
,
000100
000000
000000
000000
,
000100
000000
000000
000000
,
000001
000000
000000
000000
,
001000
001000
001000
000000
,
001000
000000
000000
000000
,
000001
000000
000000
000000
,
000010
000000
000000
000000
,
000001
000000
000000
000000
,
000001
000000
100000
000000
,
000001
000000
100000
000000
,
000001
000001
000001
000000
,
001000
001000
001000
000000
,
100000
000000
000000
000000
,
000010
000000
000000
000000
,
000001
000001
000001
000000
,
000001
000001
000001
000000
,
000001
000000
000000
000000
,
010000
000000
000000
000000
,
100000
100000
100000
000000
,
100000
100000
100000
000000
,
000001
000000
000000
000000
,
000100
000000
000000
000000
,
100000
000000
000000
000000
,
001000
000000
000000
000000
,
000001
000000
000000
000000
,
000001
000000
000000
000000
,
100000
000000
000000
000000
,
100000
000000
000000
000000
;

//---------------dance-solo - ----------------
#NOTES:
     dance-solo:
     :
     Medium:
     4:
     0.223,0.295,0.000,0.000,0.000:
000000
000000
000000
000000
,
000000
000000
000000
000000
,
000000
000000
000000
000000
,
000000
000000
000000
000000
,
000000
000000
000000
000000
,
000010
000000
000000
000000
,
000010
000000
000000
000000
,
100000
000000
000000
000000
,
000100
000100
000100
000100
,
000001
000100
100000
000000
000001
000000
000000
000000
,
100000
000100
000001
000000
100000
000000
000000
000000
,
000100
000100
000100
000000
,
000001
100000
000001
000000
,
000001
100000
010000
000000
000001
000000
000000
000000
,
100000
000001
000010
000000
100000
000000
000000
000000
,
000001
001000
100000
000000
,
100000
001000
000001
000000
,
000010
000000
010000
000000
,
000001
001000
000100
100000
,
010000
000000
000010
000000
,
000001
001000
000100
100000
,
000001
000000
001000
000000
,
001000
001000
100000
100000
,
000100
000000
000001
000000
,
010000
000010
010000
000000
,
000001
000000
100000
000000
,
001000
000001
001000
100000
,
000100
000000
000001
000000
,
000100
100000
001000
000001
,
000010
000000
010000
000000
,
000001
000000
100000
000000
,
000001
000001
000001
000000
,
100000
000001
100000
000000
,
000001
000100
100000
000000
000001
000000
000000
000000
,
100000
000100
000001
000000
100000
000000
000000
000000
,
000100
000100
000100
000000
,
010000
000010
010000
000000
,
000010
010000
000001
000000
001000
000000
000000
000000
,
010000
000010
100000
000000
001000
000000
000000
000000
,
000100
001000
000001
000000
,
100000
000100
001000
000000
,
100000
000001
001000
000000
000100
000000
000000
000000
,
100000
000001
000100
000000
100000
000000
000000
000000
,
000100
100000
001000
000001
,
000001
001000
000100
100000
,
000100
001000
100000
000000
000001
000000
000000
000000
,
100000
000001
100000
000000
001000
001000
001000
000000
,
000001
010000
000010
100000
,
001000
000100
000001
001000
;

//---------------dance-solo - ----------------
#NOTES:
     dance-solo:
     :
     Hard:
     5:
     0.345,0.349,0.011,0.000,0.044:
000000
000000
000000
000000
,
000000
000000
000000
000000
,
000000
000000
000000
000000
,
000000
000000
000000
000000
,
000000
000000
000000
000000
,
000100
000100
000100
000100
,
000010
000010
000010
000010
,
100000
100000
100000
100000
,
000001
000001
100000
000001
,
000001
000100
100000
000000
100000
001000
000001
000000
,
000001
000000
000100
100000
000001
100000
001000
000000
,
000100
000000
000000
000000
000100
000000
000000
000100
000000
000000
001000
000000
000000
000000
000001
000000
,
100000
000000
000000
000000
001000
000000
000000
100000
000000
000000
000001
000000
000000
000000
000000
000000
,
100000
000100
000001
000000
000001
001000
100000
000000
,
000001
000000
100000
000001
000010
100000
001000
000000
,
000100
000000
000000
000000
000100
000000
000000
000100
000000
000000
001000
000000
000000
000000
000001
000000
,
100000
000000
000000
000000
001000
000000
000000
100000
000000
000000
000001
000000
000000
000000
000000
000000
,
000010
000010
010000
010000
,
000001
000100
100000
001000
000001
000000
100000
000000
,
010000
010000
000010
000010
,
100000
000001
100000
000000
,
000001
000000
001000
000000
100000
001000
001000
000000
,
000001
000000
000100
000000
100000
001000
001000
000000
,
000100
100000
000001
000000
010000
100000
000001
000000
,
000100
000001
001000
000000
,
010000
010000
000001
000000
100000
100000
001000
000000
,
001000
000001
001000
100000
,
000010
000010
100000
000000
000001
000001
001000
000000
,
000100
100000
001000
000001
,
010000
000010
100000
000001
,
001000
100000
001000
000001
,
100000
010000
100000
000000
000001
001000
100000
000000
,
100000
001000
000001
000000
000010
000001
000010
000000
,
000100
000001
001000
000000
100000
001000
000001
000000
,
100000
000000
000100
001000
000001
100000
001000
000000
,
000100
000000
000000
000000
000100
000000
000000
000100
000000
000000
001000
000000
000000
000000
000001
000000
,
100000
000000
000000
000000
001000
000000
000000
100000
000000
000000
000001
000000
000000
000000
000000
000000
,
100000
000100
000001
000000
000001
001000
100000
000000
,
000001
000000
100000
000001
000010
100000
001000
000000
,
000100
000000
000000
000000
000100
000000
000000
000100
000000
000000
001000
000000
000000
000000
000001
000000
,
100000
000000
000000
000000
001000
000000
000000
100000
000000
000000
000001
000000
000000
000000
000000
000000
,
100000
001000
100000
000000
000001
000100
000001
000000
,
100000
000000
000001
001000
100000
001000
000001
000000
,
000100
100000
001000
000001
,
000001
001000
000100
100000
,
000100
100000
001000
000000
000100
000001
001000
000000
,
000001
000000
010000
000001
001000
000100
100000
000000
,
100000
100000
100000
100000
,
000100
001000
000001
100000
000001
000000
100001
000000
;

//---------------dance-double - Edit by silenttype01----------------
#NOTES:
     dance-double:
     Edit by silenttype01:
     Easy:
     2:
     0.082,0.134,0.022,0.044,0.000:
00000000
00000000
00000000
00000000
,
00000000
00000000
00000000
00000000
,
00000000
00000000
00000000
00000000
,
00000000
00000000
00000000
00000000
,
00000000
00000000
00000000
00000000
,
00000000
00000000
00000000
00000000
,
00000000
00000000
00000000
00000000
,
00000000
00000000
00000000
00000000
,
00000000
00000000
00000000
00000000
,
00000001
00000000
00000000
00000000
,
00001000
00000000
00000000
00000000
,
00000002
00000000
00000000
00000003
,
00000000
00000000
00000000
00000000
,
00000001
00000000
00000000
00000000
,
00001000
00000000
00000000
00000000
,
00020000
00000000
00000000
00030000
,
00000000
00000000
00000000
00000000
,
00010000
00000000
00000000
00000000
,
00100000
00000000
00000000
00000000
,
10000000
00000000
00000000
00000000
,
00010000
00000000
00000000
00000000
,
01000000
00000000
00000000
00000000
,
01000000
00000000
00000000
00000000
,
00001000
00000000
00000000
00000000
,
00011000
00000000
00000000
00000000
,
00010000
00000000
00000000
00000000
,
00001000
00000000
00000000
00000000
,
00000100
00000000
00000000
00000000
,
00000001
00000000
00000000
00000000
,
00001000
00000000
00000001
00000000
,
00001000
00000000
00000001
00000000
,
00001000
00000000
00001000
00000000
,
00001000
00000000
00001000
00000000
,
00010000
00000000
00000000
00000000
,
01000000
00000000
00000000
00000000
,
10000000
00000000
00100000
00000000
,
00010000
00000000
00100000
00000000
,
10000000
00000000
00000000
00000000
,
01000000
00000000
00000000
00000000
,
00001000
00000000
00010000
00000000
,
00001000
00000000
00010000
00000000
,
00001000
00000000
00000000
00000000
,
00000100
00000000
00000000
00000000
,
00000001
00000000
00000000
00000000
,
00000010
00000000
00000000
00000000
,
00001000
00000000
00000000
00000000
,
00010000
00000000
00000000
00000000
,
00010000
00000000
00000000
00000000
,
00022000
00000000
00000000
00033000
;

//---------------dance-single - Edit by silenttype01----------------
#NOTES:
     dance-single:
     Edit by silenttype01:
     Challenge:
     9:
     0.481,0.537,0.397,0.132,0.160: // measure 1
0000
0000
0000
0000
,  // measure 2
0000
0000
0000
0000
,  // measure 3
0000
0000
0000
0000
,  // measure 4
0000
0000
0000
0000
,  // measure 5
0000
0000
0000
0000
,  // measure 6
0000
0000
0000
0000
,  // measure 7
0000
0000
0000
0000
,  // measure 8
0000
0000
0000
0000
,  // measure 9
0000
0000
0000
0000
0000
0000
1000
0010
,  // measure 10
0001
0000
0001
0010
1000
0000
1000
0020
,  // measure 11
0000
0030
1000
0010
0001
0000
0001
0010
,  // measure 12
1000
0000
0000
0000
1010
0000
0000
1100
0000
0000
0110
0000
0000
0000
0010
0000
,  // measure 13
0011
0000
0000
0000
0101
0000
0000
1001
0000
0000
1000
0000
0001
0000
0010
0000
,  // measure 14
1000
0000
1000
0010
0001
0000
0001
0020
,  // measure 15
0000
0030
0001
0010
1000
0000
1000
0010
,  // measure 16
0001
0000
0000
0000
0011
0000
0000
0101
0000
0000
0110
0000
0000
0000
0010
0000
,  // measure 17
1010
0000
0000
0000
1100
0000
0000
0110
0000
0000
0011
0000
0000
0000
0000
0000
,  // measure 18
0000
0001
0010
0001
1000
0100
0000
0100
,  // measure 19
1000
0001
0100
1000
0002
0000
0023
0000
,  // measure 20
0030
1000
0010
1000
0001
0100
0000
0120
,  // measure 21
0000
0100
0000
0100
0000
0130
0000
0100
,  // measure 22
0000
0100
0001
0100
0010
0100
0001
0020
,  // measure 23
0000
1030
0001
0200
0000
2300
0000
3100
,  // measure 24
0000
1000
0100
0010
0001
1000
0010
0100
,  // measure 25
0000
0100
0000
0200
0000
0000
0000
0000
,  // measure 26
0310
0000
0100
0000
0001
0000
1000
0010
0000
0010
0100
0000
0001
0000
1000
0000
,  // measure 27
0010
0000
0100
0000
0001
0000
1000
0010
0000
0010
0100
0000
0001
0000
1000
0000
,  // measure 28
0010
0000
0100
0000
0001
0000
1000
0010
0000
0010
0100
0000
0001
0000
1000
0000
,  // measure 29
0010
0000
0100
0000
0001
0000
1000
0010
0000
0010
1000
0000
0001
0000
0010
0000
,  // measure 30
0100
0000
1000
0000
0001
0000
0010
0100
0000
0100
1000
0000
0001
0000
0010
0000
,  // measure 31
0100
0000
1000
0000
0001
0000
0010
0100
0000
0100
1000
0000
0001
0000
0010
0000
,  // measure 32
0011
0000
1010
0000
1001
0000
0000
0000
0001
0010
0000
1000
0000
0000
0000
0000
,  // measure 33
0011
0000
1010
0000
1001
0000
0000
0000
0001
0010
0000
1000
0000
0000
0000
0000
,  // measure 34
1000
0000
1000
0010
0001
0000
0001
0020
,  // measure 35
0000
0030
0001
0010
1000
0000
1000
0010
,  // measure 36
0001
0000
0000
0000
0011
0000
0000
1010
0000
0000
0101
0000
0000
0000
0010
0000
,  // measure 37
1010
0000
0000
0000
1100
0000
0000
0011
0000
0000
0001
0000
1000
0000
0010
0000
,  // measure 38
0001
0000
0001
0010
1000
0000
1000
0020
,  // measure 39
0000
0030
1000
0010
0001
0000
0001
0010
,  // measure 40
1000
0000
0000
0000
1010
0000
0000
1100
0000
0000
0011
0000
0000
0000
0010
0000
,  // measure 41
0011
0000
0000
0000
0101
0000
0000
1010
0000
0000
1000
0000
0001
0000
1000
0000
,  // measure 42
0001
0100
1000
0100
0001
0100
1000
0100
,  // measure 43
0101
0001
0010
1000
0010
0001
0010
1000
,  // measure 44
1010
0010
0100
0001
0100
1000
0100
0001
,  // measure 45
0100
1000
0000
1000
0100
0000
0100
0001
0000
0001
0000
0001
0100
0000
1000
0000
,  // measure 46
1000
0010
0001
0010
1000
0010
0001
0010
,  // measure 47
1010
1000
0001
0100
1000
0100
0001
0100
,  // measure 48
1100
1000
0100
0010
1000
0100
0010
1000
,  // measure 49
0200
0010
0010
03M0
;

//---------------dance-double - Edit by silenttype01----------------
#NOTES:
     dance-double:
     Edit by silenttype01:
     Medium:
     7:
     0.348,0.403,0.000,0.220,0.044:
00000000
00000000
00000000
00000000
,
00000000
00000000
00000000
00000000
,
00000000
00000000
00000000
00000000
,
00000000
00000000
00000000
00000000
,
00000000
00000000
00000000
00000000
,
00000000
00000000
00000000
00000000
,
00000000
00000000
00000000
00000000
,
00000000
00000000
00000000
00000000
,
00000000
00000000
00000000
00000000
,
00001000
00000100
00000001
00000000
00000001
00000010
00001000
00000000
,
00001000
00000000
00000100
00010000
00001000
00010000
00100000
00000000
,
01000000
00000000
00000000
00000000
01000000
00000000
00000000
01000000
00000000
00000000
00100000
00000000
00000000
00000000
10000000
00000000
,
00010000
00000000
00000000
00000000
00100000
00000000
00000000
00010000
00000000
00000000
10000000
00000000
00000000
00000000
00000000
00000000
,
00010000
01000000
10000000
00000000
10000000
00100000
00010000
00000000
,
00010000
00000000
01000000
00001000
00010000
00001000
00000010
00000000
,
00000100
00000000
00000000
00000000
00000100
00000000
00000000
00000100
00000000
00000000
00000010
00000000
00000000
00000000
00000001
00000000
,
00001000
00000000
00000000
00000000
00000010
00000000
00000000
00001000
00000000
00000000
00000001
00000000
00000000
00000000
00000000
00000000
,
00000100
00001000
00010000
01000000
,
01000000
00010000
00100000
10000000
01000000
00000000
10000000
00000000
,
00100000
00010000
00001000
01000000
,
00001000
00010000
00001000
00000000
,
00010000
00000000
00001000
00000000
00000010
00000001
00000001
00000000
,
00000010
00000000
00001000
00000000
00000001
00000010
00000010
00000000
,
00000100
00000001
00001000
00000000
00000100
00010000
00001000
00000000
,
01000000
00010000
10000000
00000000
00010000
00000000
00000000
00000000
,
10000000
00100000
00010000
00000000
00001000
00002000
00010000
00000000
,
00013000
00001000
00000010
00000001
,
00000001
00000010
00001000
00000000
00010000
00020000
00001000
00000000
,
00031000
00010000
00100000
10000000
,
00020000
00230000
00302000
00023000
,
00030200
00002300
00003002
00000023
,
00000031
00000100
00000010
00000000
00001000
00000100
00000010
00000000
,
00001000
00010000
00001000
00000000
01000000
00100000
01000000
00000000
,
00010000
01000000
10000000
00000000
10000000
00100000
00010000
00000000
,
00010000
00000000
01000000
00001000
00010000
00001000
00000010
00000000
,
00000100
00000000
00000000
00000000
00000100
00000000
00000000
00000100
00000000
00000000
00000010
00000000
00000000
00000000
00000001
00000000
,
00001000
00000000
00000000
00000000
00000010
00000000
00000000
00001000
00000000
00000000
00000001
00000000
00000000
00000000
00000000
00000000
,
00001000
00000100
00000001
00000000
00000001
00000010
00001000
00000000
,
00001000
00000000
00000100
00010000
00001000
00010000
00100000
00000000
,
01000000
00000000
00000000
00000000
01000000
00000000
00000000
01000000
00000000
00000000
00100000
00000000
00000000
00000000
10000000
00000000
,
00010000
00000000
00000000
00000000
00100000
00000000
00000000
00010000
00000000
00000000
10000000
00000000
00000000
00000000
00000000
00000000
,
00010000
00100000
00010000
00000000
10000000
01000000
10000000
00000000
,
00010000
00000000
10000000
00100000
00010000
00100000
10000000
00000000
,
00200000
00320000
00032000
00003200
,
00000302
00000023
00002030
00013000
,
00000100
00001000
00000100
00000000
00000010
00000001
00000010
00000000
,
00000001
00000000
00001000
00000010
00000001
00000010
00000100
00000000
,
00000100
00000100
00000100
00000100
,
00002000
02003000
03002000
00003100
;

//---------------dance-double - Edit by silenttype01----------------
#NOTES:
     dance-double:
     Edit by silenttype01:
     Hard:
     8:
     0.445,0.537,0.132,0.154,0.193:
00000000
00000000
00000000
00000000
,
00000000
00000000
00000000
00000000
,
00000000
00000000
00000000
00000000
,
00000000
00000000
00000000
00000000
,
00000000
00000000
00000000
00000000
,
00000000
00000000
00000000
00000000
,
00000000
00000000
00000000
00000000
,
00000000
00000000
00000000
00000000
,
00000000
00000000
00000000
00000000
00000000
00000000
00010000
00001000
,
01000000
00100000
01000000
00010000
10000000
10000000
01000000
02000000
,
00000000
00000000
03010000
00010000
01000000
01000000
01000000
10000000
,
00100000
00000000
00000000
00000000
00100000
00000000
00000000
00010000
00000000
00000000
00001000
00000000
00000000
00000000
00000100
00000000
,
00000001
00000000
00000000
00000000
00000001
00000000
00000000
00000010
00000000
00000000
00000100
00000000
00000000
00000000
00010000
00000000
,
00000100
00000010
00000100
00001000
00000001
00000001
00000100
00000200
,
00000000
00000000
00001300
00001000
00000100
00000100
00000100
00000001
,
00000010
00000000
00000000
00000000
00000010
00000000
00000000
00001000
00000000
00000000
00010000
00000000
00000000
00000000
01000000
00000000
,
10000000
00000000
00000000
00000000
10000000
00000000
00000000
00100000
00000000
00000000
10000000
00000000
00000000
00000000
00100000
00000000
,
00010000
00100000
10000000
00100000
00010000
00100000
00000000
00100000
,
10000000
01000000
00010000
00100000
20000000
00000000
30020000
00000000
,
00030000
00100000
01000000
10000000
00010000
00100000
00000000
00110000
,
00000000
00101000
00000000
00220000
00000000
00330000
00000000
00000000
,
00010000
00001000
01000000
00001000
00100000
00100000
00100000
01001000
,
00000000
00010000
00000100
00000010
00000000
00000220
00000000
00000330
,
00000000
00000010
00001000
00000010
00000001
00000010
00001000
00020000
,
00000000
00032000
00000000
00003020
00000000
00000030
00000000
00000000
,
00000000
00000000
00000010
00000001
00000000
00000000
00000001
00000100
00000000
00000000
00000100
00001000
00000000
00000000
00001000
00010000
,
00000000
00000000
00010000
01000000
00000000
00000000
01000000
10000000
00000000
00000000
10000000
00010000
00000000
00000000
00000000
00000000
,
00000000
00000000
10000000
00100000
00000000
00000000
00100000
00010000
00000000
00000000
00010000
00001000
00000000
00000000
00001000
00000010
,
00000000
00000000
00000010
00000001
00000000
00000000
00000001
00001000
00000000
00000000
00001000
00000100
00000000
00000000
00000000
00000000
,
00000000
00011000
00000000
00100000
00000000
01000000
00000000
10010000
,
00000000
00010000
00000000
00000110
00000000
00001001
00000000
00001000
,
00000010
00000000
00000001
00000000
00001000
00000000
00000000
00000000
00000010
00000001
00000000
00001000
00000000
00000000
00000000
00000000
,
00000010
00000000
00000001
00000000
00001000
00000000
00000000
00000000
00000010
00000001
00000000
00001000
00000000
00000000
00000000
00000000
,
00000100
00000010
00000100
00001000
00000001
00000001
00000100
00000200
,
00000000
00000000
00001300
00001000
00000100
00000100
00000100
00000001
,
00000010
00000000
00000000
00000000
00000010
00000000
00000010
00001000
00000000
00001000
00010000
00000000
00000000
00000000
01000000
00000000
,
10000000
00000000
00000000
00000000
10000000
00000000
10000000
00100000
00000000
00100000
01000000
00000000
00000000
00000000
00001000
00000000
,
01000000
00100000
01000000
00010000
10000000
10000000
01000000
02000000
,
00000000
00000000
03010000
00010000
01000000
01000000
01000000
10000000
,
00100000
00000000
00000000
00000000
00100000
00000000
00100000
00010000
00000000
00010000
00001000
00000000
00000000
00000000
00000100
00000000
,
00000001
00000000
00000000
00000000
00000001
00000000
00000001
00000010
00000000
00000010
00000001
00000000
00000001
00000000
00000001
00000000
,
00000010
00000001
00001000
00000010
00001000
00000001
00000010
00001000
,
00010000
01000000
10000000
00010000
00100000
00010000
10000000
00100000
,
00010000
00100000
01000000
00001000
01000000
00100000
00010000
00100000
,
10000000
01000000
00000000
01000000
00100000
00000000
00100000
00001000
00000000
00001000
00000000
00010000
00001000
00000000
00011000
00000000
,
00011000
00000000
00010000
00001000
00000010
00001000
00010000
00100000
,
00010000
00001000
00000100
00001000
00010000
01000000
00010000
00001000
,
00000010
00001000
00010000
00100000
00010000
00001000
00000100
00001000
,
00002100
00000100
00000100
00003M00
;
