#TITLE:I Will Survive;
#SUBTITLE:(EuroMix);
#ARTIST:Gloria Gaynor;
#TITLETRANSLIT:;
#SUBTITLETRANSLIT:;
#ARTISTTRANSLIT:;
#CREDIT:;
#BANNER:I Will Survive (EuroMix).png;
#BACKGROUND:I Will Survive (EuroMix)-bg.png;
#LYRICSPATH:;
#CDTITLE:./CDTITLES/UNIVERSAL.PNG;
#MUSIC:I Will Survive (EuroMix).ogg;
#OFFSET:0.000;
#SAMPLESTART:18.118;
#SAMPLELENGTH:15.000;
#SELECTABLE:YES;
#DISPLAYBPM:116.000;
#BPMS:0.000=115.960;
#STOPS:;
#BGCHANGES:;

//---------------dance-single - ----------------
#NOTES:
     dance-single:
     :
     Beginner:
     1:
     :
0000
0000
0000
0000
,
0000
0000
0000
0000
,
0000
0000
0000
0000
,
0000
0000
0000
0000
,
0000
0000
0000
0000
,
0001
0000
0000
0000
,
0000
0000
0000
0000
,
1000
0000
0000
0000
,
0000
0000
0000
0000
,
1000
0000
0000
0000
,
0001
0000
0000
0000
,
1000
0000
0000
0000
,
0001
0000
0000
0000
,
1000
0000
0001
0000
,
1000
0000
0000
0000
,
1000
0000
0000
0000
,
1000
0000
0000
0000
,
1000
0000
0001
0000
,
1000
0000
0000
0000
,
1000
0000
0001
0000
,
1000
0000
0000
0000
,
1000
0000
0000
0000
,
0001
0000
0000
0000
,
1000
0000
0000
0000
,
0001
0000
0000
0000
,
1000
0000
1001
0000
,
1000
0000
1001
0000
,
1000
0000
0000
0000
,
1001
0000
0000
0000
,
1000
0000
0001
0000
,
1000
0000
0000
0000
,
1001
0000
0000
0000
,
1001
0000
0000
0000
,
1000
0000
0000
0000
,
1000
0000
0000
0000
,
1000
0000
0000
0000
,
1000
0000
0000
0000
,
1000
0000
0001
0000
,
1000
0000
0001
0000
,
1001
0000
0000
0000
,
1001
0000
0000
0000
,
0000
0000
0000
0000
,
0000
0000
0000
0000
,
1000
0000
0001
0000
,
1000
0000
0000
0000
,
1000
0000
0001
0000
,
1000
0000
0000
0000
,
1000
0000
0000
0000
,
1000
0000
0000
0000
;

//---------------dance-single - ----------------
#NOTES:
     dance-single:
     :
     Easy:
     2:
     :
0000
0000
0000
0000
,
0000
0000
0000
0000
,
0000
0000
0000
0000
,
0000
0000
0000
0000
,
0000
0000
0000
0000
,
0001
0000
0000
0000
,
0001
0000
0000
0000
,
1000
0000
0000
0000
,
1000
0000
0000
0000
,
1000
1000
0000
0000
,
0001
0001
0000
0000
,
1000
0000
0001
0000
,
1000
0000
0001
0000
,
1000
1000
0000
0000
,
0001
0001
0000
0000
,
0010
0000
0100
0000
,
0010
0000
0100
0000
,
1000
1000
0000
0000
,
0001
0001
0000
0000
,
1000
1000
1000
0000
,
0001
0001
0001
0000
,
0010
0010
0000
0000
,
0100
0100
0000
0000
,
1000
1000
1000
0000
,
0001
0001
0001
0000
,
0010
0000
0100
0000
,
1001
0000
0000
0000
,
0100
0000
0010
0000
,
1001
0000
0000
0000
,
1000
1000
0000
0000
,
0001
0001
0000
0000
,
1001
0000
0000
0000
,
1001
0000
0000
0000
,
0010
0000
0100
0000
,
1000
1000
1000
0000
,
0010
0000
0100
0000
,
0001
0001
0001
0000
,
1000
0000
0100
0000
,
0010
0010
0010
0000
,
1001
0000
0000
0000
,
1001
0000
0000
0000
,
0000
0000
0000
0000
,
0000
0000
0000
0000
,
1000
0100
0010
0000
,
0001
0100
0010
0000
,
1000
0001
0100
0000
,
0010
1000
0100
0000
,
0010
0001
0100
0000
,
1000
0100
0001
0000
;

//---------------dance-single - ----------------
#NOTES:
     dance-single:
     :
     Medium:
     5:
     :
0000
0000
0000
0000
,
0000
0000
0000
0000
,
0000
0000
0000
0000
,
0000
0000
0000
0000
,
0000
0000
0000
0000
,
0001
0000
0000
0000
,
1000
0000
0000
0000
0000
0000
0000
0001
,
1000
0000
0000
0000
0000
0000
0000
0001
,
1000
0000
0000
0000
0000
0000
0000
1000
,
1000
0000
0100
0000
0000
0000
0000
1000
,
1000
0100
0000
0000
,
0010
0010
0000
0000
,
0001
0000
0001
0000
0000
0000
0000
1000
,
1000
0000
0010
0000
0000
0000
0000
0001
,
0001
0100
0000
0000
,
0010
0010
0000
0000
,
0100
0100
0000
0000
,
1000
1000
1000
0000
0000
0000
1001
0000
,
0001
0001
0001
0000
0000
0000
1001
0000
,
0010
0010
0010
0000
0000
0000
0000
0000
,
0100
0100
0100
0000
0000
0000
0000
0000
,
1000
1000
1000
0000
0000
0000
1001
0000
,
0001
0001
0001
0000
0000
0000
1001
0000
,
0010
0010
0010
0000
0000
0000
0000
0000
,
0100
0100
0100
0000
0000
0000
0000
0000
,
1000
0010
0100
0000
0001
0000
1001
0000
,
0010
1000
0100
0000
0010
0000
1001
0000
,
0100
0100
0010
0010
,
1000
1000
0000
0000
,
0001
0010
0100
0000
1000
0000
1001
0000
,
0100
0010
1000
0000
0001
0000
0110
0000
,
0100
0010
0100
0000
0000
0000
0000
0000
,
1001
1001
0000
0000
,
1000
0100
0010
0000
,
0001
0100
0001
0000
1001
0000
0000
0000
,
1000
0010
0100
0000
,
0001
0010
0001
0000
1001
0000
0000
0000
,
0010
0010
0000
0000
,
0100
0100
0000
0000
,
0010
0100
0010
0000
0000
0000
0000
0000
,
1001
0000
0000
0000
,
0000
0000
0000
0000
,
0000
0000
0000
0000
,
1000
0010
0100
0000
0001
0000
1000
0000
,
0100
0010
0001
0000
1000
0000
0010
0000
,
0100
0001
0010
0000
0100
0000
1000
0000
,
0010
0100
0001
0000
1000
0000
0100
0000
,
0010
0001
1000
0000
0010
0000
0100
0000
,
0001
1000
0010
0000
0100
0000
0001
0000
;

//---------------dance-single - ----------------
#NOTES:
     dance-single:
     :
     Hard:
     7:
     :
0000
0000
0000
0000
,
0000
0000
0000
0000
,
0000
0000
0000
0000
,
0000
0000
0000
0000
,
0000
0000
0000
0000
,
0000
0001
0000
0010
0000
0100
0000
1000
,
0000
0100
0000
0010
0000
0001
0000
0100
,
0110
0000
0000
0000
0000
0000
1000
1000
,
1000
0000
0000
0000
,
0000
0001
0000
1000
1000
0000
0000
0000
,
0000
0010
0000
0100
0100
0000
0000
0000
,
0001
1000
0100
0000
0000
0000
0000
0000
,
0010
0001
0100
0000
0000
0000
0000
0000
,
0000
0010
0000
1000
1000
0000
0000
0000
,
0000
0001
0000
0100
0100
0000
0000
0000
,
0010
1000
0100
0000
0000
0000
0000
0000
,
0010
0001
0100
0010
0000
1000
1000
0000
,
0100
0010
0001
0100
0000
0000
0000
0000
,
0010
1000
0001
0100
0000
0000
0000
0000
,
1000
0100
1000
0000
0000
0000
0000
0000
,
0001
0010
0001
0100
0000
0000
0000
0000
,
0000
1000
0000
0100
0100
0000
0000
0000
,
0000
0010
0000
0001
0001
0000
0000
0000
,
1000
0100
1000
0000
0000
0000
0000
0000
,
0010
0001
0100
0010
1000
0100
0010
0000
,
0000
0001
0000
0100
0100
0000
1001
0000
,
0010
0100
0010
0100
0000
0000
1001
0000
,
0010
0100
1000
0000
0000
0000
1001
0000
,
0100
0000
0000
0000
,
0001
0010
0001
0100
0000
0000
0000
0000
,
0010
1000
0100
1000
0000
0000
0000
0000
,
0001
0001
0001
0000
0000
0000
0000
0000
,
0100
0100
0100
0000
0000
0000
0000
0000
,
0010
1000
0001
0100
0000
0000
0000
0000
,
0010
1000
0100
0000
0000
0000
0000
0000
,
0010
0001
0100
0010
0000
0000
0000
0000
,
1000
0100
1000
0000
0000
0000
0000
0000
,
0010
0001
0100
0010
0000
1000
0000
0000
,
0100
0010
0001
0100
0000
0010
0000
0000
,
1000
0000
0100
0000
0010
0001
0100
0000
,
1001
0000
0000
0000
,
0000
0000
0000
0000
,
0000
0000
0000
0000
,
1000
0010
0100
0001
1000
0100
0010
0001
,
1000
0010
0100
0001
1000
0100
0010
0001
,
0100
0010
1000
0100
0010
0001
0100
0010
,
1000
0100
0010
0001
1000
0010
0100
0001
,
1000
0100
0010
0001
0100
0010
1000
0100
,
0010
0001
0100
0010
1000
0100
0010
0000
;

//---------------dance-double - ----------------
#NOTES:
     dance-double:
     :
     Easy:
     3:
     :
00000000
00000000
00000000
00000000
,
00000000
00000000
00000000
00000000
,
00000000
00000000
00000000
00000000
,
00000000
00000000
00000000
00000000
,
00000000
00000000
00000000
00000000
,
00000001
00000000
00000000
00000000
,
00001000
00000000
00000000
00000000
,
00000100
00000000
00000000
00000000
,
00010000
00000000
00000000
00000000
,
00001000
00001000
00001000
00000000
,
00100000
00100000
00100000
00000000
,
00010000
00010000
00010000
00000000
,
10000000
10000000
10000000
00000000
,
01000000
01000000
01000000
00000000
,
00100000
00100000
00100000
00000000
,
00001000
00001000
00000000
00000000
,
00010000
00000000
00000000
00000000
,
00000100
00000100
00000100
00000000
,
00000010
00000010
00000010
00000000
,
00000001
00000000
00000000
00000000
,
00001000
00000000
00000000
00000000
,
00000100
00000100
00000100
00000000
,
00010000
00010000
00010000
00000000
,
00001000
00000000
00000000
00000000
,
00100000
00000000
00000000
00000000
,
01000000
00000000
00100000
00000000
,
00001000
00000000
00010000
00000000
,
00000100
00000000
00000000
00000000
,
00000010
00000000
00000000
00000000
,
00000001
00000000
00000000
00000000
,
00001000
00000000
00000000
00000000
,
00000100
00010000
00000000
00000000
,
00001000
00100000
00000000
00000000
,
00010000
00000000
10000000
00000000
,
00010000
00000000
00000000
00000000
,
00100000
00000000
00001000
00000000
,
00010000
00000000
00000000
00000000
,
00000100
00000100
00000100
00000000
,
00000010
00000010
00000010
00000000
,
00000001
00000000
00000000
00000000
,
00001000
00000000
00000000
00000000
,
00000000
00000000
00000000
00000000
,
00000000
00000000
00000000
00000000
,
00000100
00010000
00001000
01000000
,
00100000
00000000
00000000
00000000
,
10000000
01000000
00001000
00000100
,
00000010
00000000
00000000
00000000
,
00000001
00000100
00010000
01000000
,
00100000
00000000
00000000
00000000
;

//---------------dance-double - ----------------
#NOTES:
     dance-double:
     :
     Medium:
     5:
     :
00000000
00000000
00000000
00000000
,
00000000
00000000
00000000
00000000
,
00000000
00000000
00000000
00000000
,
00000000
00000000
00000000
00000000
,
00000000
00000000
00000000
00000000
,
00000001
00000000
00001000
00000000
,
00010000
00000000
10000000
00000000
,
01100000
00000000
00000000
00000000
,
10010000
00000000
00000000
00000000
,
00100000
00100000
00100000
00000000
00001000
00000000
00000000
00000000
,
00010000
00010000
00010000
00000000
00000100
00000000
00000000
00000000
,
00000010
00000010
00000000
00000000
,
00000001
00000001
00000000
00000000
,
00001000
00001000
00001000
00000000
00000100
00000000
00000000
00000000
,
00010000
00010000
00010000
00000000
00001000
00000000
00000000
00000000
,
00100000
00100000
00000000
00000000
,
00010000
00010000
00000000
00000000
,
10010000
00000000
00000000
00000000
,
00011000
00000000
00000000
00000000
,
00000100
00000100
00000000
00000000
,
00000010
00000010
00000000
00000000
,
00001001
00000000
00011000
00000000
,
10010000
00000000
00000000
00000000
,
01000000
01000000
00000000
00000000
,
00100000
00100000
00000000
00000000
,
10010000
01000000
00001000
00000000
,
00011000
00000010
00000100
00000000
,
00001001
00000110
00000000
00000000
,
00011000
01100000
00000000
00000000
,
10000000
01000000
00100000
00000000
00000000
00000000
00000000
00000000
,
00001000
00010000
00000010
00000000
00000000
00000000
00000000
00000000
,
00001001
00000000
00000000
00000000
,
10010000
00000000
00000000
00000000
,
00100000
01000000
00001000
00000000
,
00010000
00000100
00000010
00000000
,
00000001
00001000
00000100
00000000
00000000
00000000
00000000
00000000
,
00010000
00001000
01000000
00000000
00000000
00000000
00000000
00000000
,
00100000
00100000
00100000
00000000
,
10000000
01000000
00100000
00000000
,
00001000
00000000
00010000
00000000
,
00001001
00000000
00000000
00000000
,
00000000
00000000
00000000
00000000
,
00000000
00000000
00000000
00000000
,
00000010
00000000
00000100
00000000
00010000
00000000
00001000
00100000
,
00010000
00000000
10000000
00000000
01000000
00000000
00100000
00001000
,
00010000
00000000
00000100
00000000
00000010
00000000
00000001
00001000
,
00000100
00000000
00010000
00000000
00001000
00000000
00100000
00010000
,
10000000
00000000
01000000
00000000
00100000
00000000
00001000
00010000
,
00000100
00000010
00000001
00000000
;

//---------------dance-double - ----------------
#NOTES:
     dance-double:
     :
     Hard:
     6:
     :
00000000
00000000
00000000
00000000
,
00000000
00000000
00000000
00000000
,
00000000
00000000
00000000
00000000
,
00000000
00000000
00000000
00000000
,
00000000
00000000
00000000
00000000
,
00000001
00001000
00000100
00000000
,
00010000
01000000
10000000
00000000
,
00010000
00000000
00000000
00000000
,
01000000
00000000
00000000
00000000
,
00001000
00000000
00100000
00010000
00000000
00000000
00000000
00000000
,
00001000
00000000
00010000
00000100
00000000
00000000
00000000
00000000
,
00000010
00000010
00000010
00000000
00000000
00000000
00000000
00000000
,
00000001
00000001
00000001
00000000
00000000
00000000
00000000
00000000
,
00001000
00000000
00000100
00010000
00000000
00000000
00000000
00000000
,
00001000
00000000
00100000
00010000
00000000
00000000
00000000
00000000
,
10000000
01000000
10000000
00000000
00000000
00000000
00000000
00000000
,
00100000
00010000
00100000
00000000
00000000
00000000
00000000
00000000
,
00001000
00000000
00001000
00000000
00001000
00000000
00010000
00000100
,
00001000
00000000
00001000
00000000
00001000
00000000
00000001
00000100
,
00000010
00000000
00001000
00000000
00000100
00000000
00010000
00001000
,
00100000
00000000
01000000
00000000
10000000
00000000
00010000
01000000
,
00001000
00010000
00000100
00000000
,
00000010
00000010
00000010
00000000
,
00000001
00000100
00000001
00000000
00000000
00000000
00000000
00000000
,
00001000
00000100
00001000
00000000
00000000
00000000
00000000
00000000
,
00011000
00000000
00100000
00010000
00100000
00000000
00000000
00000000
,
10010000
00000000
01000000
00100000
01000000
00000000
00000000
00000000
,
10000000
00010000
01000000
00000000
00001000
00000000
00010000
00000000
,
00000100
00000010
00000100
00000000
00001001
00000000
00000000
00000000
,
00011000
00000000
00100000
00010000
01000000
00000000
00000000
00000000
,
10010000
00000000
00100000
00001000
01000000
00000000
00000000
00000000
,
00010000
00100000
00001000
00000000
00000000
00000000
00000000
00000000
,
00010000
00000010
00001000
00000000
00000000
00000000
00000000
00000000
,
00000001
00000001
00000001
00011000
,
00100000
01000000
10000000
01100000
,
00001000
00000000
00000000
00010000
,
00001001
00000000
00000000
00000000
,
00000010
00000100
00010000
00000000
00000000
00000000
00000000
00000000
,
00001000
00100000
01000000
00000000
00000000
00000000
00000000
00000000
,
10010000
00100000
00000000
00001000
,
00001001
00000000
00000000
00000000
,
00000000
00000000
00000000
00000000
,
00000000
00000000
00000000
00000000
,
00000010
00000100
00010000
00001000
00000000
01000000
10000000
00000000
,
01000000
00010000
00100000
00000000
00001000
00010000
00000100
00000000
,
00000010
00000001
00000100
00000000
00000010
00010000
00001000
00000000
,
00100000
01000000
10000000
00000000
00010000
01000000
00001000
00000000
,
00010000
00000100
00000010
00000000
00000001
00001000
00000100
00000000
,
00010000
01000000
10000000
00000000
00000000
00000000
00000000
00000000
;

//---------------dance-single - Edit by silenttype01----------------
#NOTES:
     dance-single:
     Edit by silenttype01:
     Challenge:
     8:
     0.334,0.517,0.284,0.117,0.132: // measure 1
0000
0000
0000
0000
,  // measure 2
0000
0000
0000
0000
,  // measure 3
0000
0000
0000
0000
,  // measure 4
0000
0000
0000
0000
,  // measure 5
0000
0000
0000
0000
,  // measure 6
0000
0000
0000
0000
,  // measure 7
0000
0000
0000
0000
,  // measure 8
0000
0000
0000
0000
,  // measure 9
0000
0000
0000
0000
,  // measure 10
0000
0001
0000
0010
0000
0100
0000
1000
,  // measure 11
0000
0101
0000
1010
0000
0101
0000
1010
,  // measure 12
0000
1000
0000
0100
0000
0010
0000
0001
,  // measure 13
0000
0011
0000
1100
0000
0011
0000
1100
,  // measure 14
0000
0010
0000
0001
0000
0100
0000
0010
,  // measure 15
0000
1010
0000
0101
0000
1001
0000
0110
,  // measure 16
0000
0100
0000
0001
0000
0010
0000
0100
,  // measure 17
0000
1100
0000
0101
0000
1010
0000
0011
,  // measure 18
0000
0000
0001
0000
0000
0100
0000
0000
0001
0000
0010
0000
0000
0000
0001
0000
,  // measure 19
0000
0000
1000
0000
0000
0001
0000
0000
1000
0000
0100
0000
0000
0000
0010
0000
,  // measure 20
0000
0000
0100
0000
0000
1000
0000
0000
0001
0000
0010
0000
0000
0000
1000
0000
,  // measure 21
0000
0000
0010
0000
0000
0001
0000
0000
0100
0000
0010
0000
0000
0000
0001
0000
,  // measure 22
0000
0000
1000
0000
0000
0100
0000
0000
0001
0000
1000
0000
0000
0000
0001
0000
,  // measure 23
0000
0000
0010
0000
0000
0100
0000
0000
1000
0000
0001
0000
0000
0000
0010
0000
,  // measure 24
0000
0000
1000
0000
0000
0100
0000
0000
0001
0000
0010
0000
0000
0000
0010
0000
,  // measure 25
0000
0000
0001
0000
0000
0100
0000
0000
1000
0000
0010
0000
0000
0000
0010
0000
,  // measure 26
1001
0000
0100
0000
0000
1100
0000
0000
0100
0000
1000
0000
0100
0000
0010
0000
,  // measure 27
0001
0000
0011
0000
0000
0001
0000
0000
1001
0000
1000
0000
0010
0000
0100
0000
,  // measure 28
0010
0000
1000
0000
0000
1010
0000
0000
1000
0000
0001
0000
0100
0000
0010
0000
,  // measure 29
1000
0000
1001
0000
0000
0001
0000
0000
0011
0000
0010
0000
0100
0000
0010
0000
,  // measure 30
0001
0000
0100
0000
0000
0110
0000
0000
1000
0000
0001
0000
0100
0000
1000
0000
,  // measure 31
0100
0000
0101
0000
0000
0001
0000
0000
1010
0000
1000
0000
0010
0000
0100
0000
,  // measure 32
0010
0000
1000
0000
0000
1100
0000
0000
0001
0000
0010
0000
1000
0000
0010
0000
,  // measure 33
0001
0000
0101
0000
0000
0100
0000
0000
1010
0000
0100
0000
0001
0100
0001
0000
,  // measure 34
0020
0001
0100
1000
,  // measure 35
0100
0001
0100
1000
,  // measure 36
0032
0100
1000
0010
,  // measure 37
0100
1000
0010
0100
,  // measure 38
2003
0010
0100
0001
,  // measure 39
3200
0001
1000
0001
,  // measure 40
2300
3020
0230
0302
,  // measure 41
2000
0000
0000
0000
,  // measure 42
0000
0000
0000
0000
,  // measure 43
0000
3003
0000
0000
0000
0000
0000
0000
,  // measure 44
0001
0100
0010
1000
0100
0010
0001
0100
,  // measure 45
0020
0000
0000
0000
0000
0000
0000
0000
0000
1030
0000
0000
0001
0100
0001
0100
0000
0000
0001
0100
0001
0100
0000
0000
,  // measure 46
0010
0000
1000
0000
0100
0000
0010
0100
0010
0000
0002
0000
0000
0000
1003
0100
,  // measure 47
1000
0000
0100
1000
0100
0000
0010
0100
0010
0000
0100
0010
0100
0000
0010
0001
,  // measure 48
0020
0000
0000
0000
,  // measure 49
0030
0000
0000
0000
;
