#TITLE:I DON'T WANT TO MISS A THING;
#SUBTITLE:(PLANET LUTION MIX);
#ARTIST:DEJA VU featuring TASMIN;
#TITLETRANSLIT:;
#SUBTITLETRANSLIT:;
#ARTISTTRANSLIT:;
#CREDIT:;
#BANNER:I DON'T WANT TO MISS A THING (PLANET LUTION MIX).png;
#BACKGROUND:I DON'T WANT TO MISS A THING (PLANET LUTION MIX)-bg.png;
#LYRICSPATH:;
#CDTITLE:DanceDanceRevolutionSolo2000.png;
#MUSIC:I DON'T WANT TO MISS A THING (PLANET LUTION MIX).ogg;
#OFFSET:0.000;
#SAMPLESTART:74.820;
#SAMPLELENGTH:15.000;
#SELECTABLE:YES;
#DISPLAYBPM:170.000;
#BPMS:0.000=170.008;
#STOPS:;
#BGCHANGES:;

//---------------dance-single - ----------------
#NOTES:
     dance-single:
     :
     Easy:
     3:
     0.239,0.267,0.010,0.000,0.000:
0000
0000
0000
0000
,
0000
0000
0000
0000
,
0000
0000
0000
0000
,
0000
0000
0000
0000
,
0000
0000
0000
0000
,
1000
0000
0000
0000
,
0001
0000
0000
0000
,
1000
0000
0000
0000
,
0001
0000
0000
0000
,
0010
0100
0010
0000
,
1000
0001
1000
0000
,
0010
0100
0010
0000
,
1000
0001
1000
0000
,
0010
0100
0001
0000
,
1000
0001
1000
0000
,
0010
0100
1000
0000
,
0001
1000
0001
0000
,
1000
0100
0010
0000
,
0001
0100
0010
0000
,
1000
0010
0001
0010
,
1000
0100
0010
0001
,
1000
0000
0100
0000
,
1000
0100
0010
0001
,
0010
0000
0001
0000
,
0010
0001
1000
0100
,
1000
0000
0100
0000
,
0010
0100
0001
0010
,
0100
0000
1000
0000
,
0010
0001
0010
0100
,
1000
0000
0001
0000
,
0100
0010
1000
0010
,
1000
0000
0001
0000
,
0010
0100
1000
0010
,
0100
0000
0001
0000
,
0100
0000
0001
0000
,
1000
0000
0010
0000
,
1000
0000
0010
0000
,
0100
0000
0001
0000
,
1000
0100
0010
0001
,
1000
0010
1000
0000
,
0001
0010
0001
0000
,
1000
0000
0100
0000
,
1000
0000
0100
0000
,
0010
0000
0001
0000
,
0010
0000
0001
0000
,
1000
0000
0100
0000
,
0010
0001
0100
0001
,
1000
0001
0010
0000
,
0100
1000
0010
0100
,
0001
1000
0001
0000
,
0100
0000
0010
0000
,
1000
0000
0000
0000
,
0000
0000
0000
0000
,
0100
0000
0010
0000
,
0001
0100
0001
0100
,
0001
0000
0010
0000
,
0100
1000
0100
1000
,
0001
0000
0100
0000
,
0001
1000
0010
1000
,
0001
0000
0100
0000
,
0010
1000
0100
1000
,
0001
0000
0010
0000
,
0100
1000
0100
0010
,
0001
0000
0100
0000
,
0010
1000
0100
0010
,
1001
0000
0000
0000
;

//---------------dance-single - ----------------
#NOTES:
     dance-single:
     :
     Medium:
     4:
     0.261,0.334,0.041,0.000,0.000:
0000
0000
0000
0000
,
0000
0000
0000
0000
,
0000
0000
0000
0000
,
0000
0000
0000
0000
,
0000
0000
0000
0000
,
1000
0000
0100
0000
,
0010
0000
0001
0000
,
0100
0000
0010
0000
,
1000
0000
0100
0000
,
0010
0001
0100
0000
,
0010
1000
0100
1000
,
0001
0000
0100
0000
,
0000
0000
0000
0000
,
0010
1000
0100
1000
,
0001
0010
0000
0000
,
0100
0000
1000
0000
,
0000
0000
0000
0000
,
0001
0100
0010
1000
,
0100
1000
0001
0010
,
0100
0000
1000
0000
,
0010
0100
0001
1000
,
0001
0000
0010
0100
,
1000
0000
0001
1000
0000
0000
0000
0000
,
0000
0000
0010
0100
,
0001
0000
0010
0100
0000
0100
0000
0100
,
1000
0000
0001
0100
0000
0000
0000
0000
,
0001
0100
0001
0010
,
0100
0000
1000
0001
,
0100
0000
0010
1000
0000
0000
0000
0000
,
0000
0000
0100
1000
,
0010
0000
0100
0001
0000
0010
0000
0001
,
1000
0000
0010
0100
0000
0000
0000
0000
,
0001
0010
0100
1000
,
0001
0000
1000
0000
,
0001
0010
0001
0000
,
0100
0000
0010
0000
,
1000
0010
1000
0000
,
0001
0000
0100
0000
,
0001
0010
0100
1000
,
0010
0100
0001
1000
,
0001
0010
0100
0000
,
1000
0000
0010
0000
,
1000
0010
1000
0000
,
0001
0000
0010
0000
,
0100
1000
0100
0000
,
1000
0000
0001
0000
,
0100
0010
1000
0001
,
0100
0001
0010
0100
,
1000
1000
1000
1000
,
0001
0010
0001
0001
,
0110
0000
1001
0000
,
0110
0000
0000
0000
,
0000
0000
0000
0000
,
1000
0000
0001
0100
,
0010
0000
1000
0100
0000
0000
0000
0000
,
0000
0000
1000
0001
,
0100
0000
0010
0100
0000
0001
0000
1000
,
0001
0000
0100
0010
0000
0000
0000
0000
,
1000
0100
0010
0001
,
0100
0000
0001
0010
,
0001
0000
0100
0001
0000
0000
0000
0000
,
0000
0000
1000
0100
,
0010
0000
0001
1000
0000
0001
0000
0010
,
0001
0000
0100
0010
0000
0000
0000
0000
,
1000
0100
1000
0001
,
0110
0000
0000
0000
;

//---------------dance-single - ----------------
#NOTES:
     dance-single:
     :
     Hard:
     7:
     0.408,0.400,0.010,0.000,0.056:
0000
0000
0000
0000
,
0000
0000
0000
0000
,
0000
0000
0000
0000
,
0000
0000
0000
0000
,
0000
0000
0000
0000
,
0000
0000
1000
0000
0000
0100
0000
0100
,
0000
0010
0000
0001
,
0000
0000
0100
0000
0000
0010
0000
0010
,
0000
1000
0000
0001
,
1000
0100
0010
0001
,
0100
0001
1000
0010
,
0100
0001
0010
0100
,
1000
0000
0001
0000
0100
0000
0001
0100
,
0010
1000
0100
1000
,
0001
0000
0010
0000
0001
0000
0100
0010
,
1000
0100
0010
0001
,
1000
0000
0001
0000
0100
0010
0100
0010
,
1000
0100
0010
0001
,
0010
0000
0100
0000
1000
0000
0001
1000
,
0100
0000
0100
0000
0100
0000
0010
0100
,
1000
0000
0001
0000
0100
0000
0010
0000
1000
0000
0000
0100
0000
0000
0010
0000
,
0001
0100
0010
1000
,
0100
0000
0010
0000
0001
0000
0010
0001
,
1000
0010
0100
0001
,
1000
0000
0100
0000
0010
0001
0010
0001
,
1000
0000
0100
0000
0010
0000
0001
0100
,
0010
0000
0000
0000
1000
0000
0000
0000
0100
0000
0000
0010
0000
0000
0001
0000
,
1000
0001
0100
0010
,
1000
0000
0100
0000
0010
0000
0001
1000
,
0001
1000
0010
0100
,
0001
0000
1000
0000
0100
0010
0000
0001
,
1000
0010
0100
0001
,
1000
0000
0001
0000
0010
0000
0100
0000
1000
0000
0000
0001
0000
0000
1000
0000
,
0100
0010
0001
0100
,
0010
1000
0010
0100
,
0001
0000
0000
0000
1000
0000
0000
0000
0100
0000
0000
0010
0000
0000
0001
0000
,
1000
0000
0100
0000
1000
0000
0010
1000
,
0100
0000
0010
0000
0001
0010
0001
0010
,
0100
1000
0010
0100
,
0001
0000
0000
0000
0010
0000
0000
0000
0100
0000
0000
1000
0000
0000
0001
0000
,
1000
0000
0010
0000
0100
0000
0001
1000
,
0100
0000
0000
0000
0010
0000
0000
0000
0001
0000
0000
1000
0000
0000
0100
0000
,
1000
0010
0100
0001
,
1000
0100
1000
0001
,
0100
0000
0000
0000
0010
0000
0000
0000
1000
0000
0000
0010
0000
0000
0100
0000
,
0001
0000
0010
0000
0100
0000
1000
0001
,
0100
0000
0010
0000
1000
0010
1000
0001
,
0010
0100
1000
0001
,
0100
0000
0000
0000
0010
0000
0000
0000
1000
0000
0000
0001
0000
0000
1000
0000
,
0100
0000
0010
0000
0001
0000
1000
0001
,
1000
0000
0001
0000
0100
0010
0100
0010
,
0100
0000
0000
0000
0000
0001
0000
0001
,
0001
0000
0000
0000
,
1000
0100
1000
0010
,
0100
0000
0000
0000
0001
0000
0000
0000
1000
0000
0000
0100
0000
0000
1000
0000
,
0001
0010
0001
0100
,
0010
0000
1000
0000
0100
0010
0100
0001
,
0100
0000
1000
0000
0010
0000
0100
0001
,
1000
0000
0000
0000
0100
0000
0000
0000
0010
0000
0000
0001
0000
0000
1000
0000
,
0100
0010
0001
0010
,
0100
0000
1000
0000
0001
0100
0001
0100
,
0001
1000
0100
0010
,
0001
0000
1000
0000
0010
0100
0000
0001
,
1000
0000
0100
0000
0010
0000
0001
1000
,
0100
0000
0010
0000
0001
0000
1000
0000
0001
0000
0000
0010
0000
0000
0100
0000
,
1001
0000
0000
0000
;

//---------------dance-solo - ----------------
#NOTES:
     dance-solo:
     :
     Easy:
     3:
     0.239,0.267,0.010,0.000,0.000:
000000
000000
000000
000000
,
000000
000000
000000
000000
,
000000
000000
000000
000000
,
000000
000000
000000
000000
,
000000
000000
000000
000000
,
010000
000000
000000
000000
,
000010
000000
000000
000000
,
100000
000000
000000
000000
,
000001
000000
000000
000000
,
000100
001000
000100
000000
,
100000
000001
100000
000000
,
000100
001000
000100
000000
,
100000
000001
100000
000000
,
000100
001000
000010
000000
,
100000
000001
100000
000000
,
000100
001000
010000
000000
,
000001
100000
000001
000000
,
100000
001000
000100
000000
,
000001
001000
000100
000000
,
010000
010000
000010
000010
,
100000
001000
000100
000001
,
100000
000000
001000
000000
,
100000
001000
000100
000001
,
000100
000000
000001
000000
,
000100
000001
100000
001000
,
100000
000000
001000
000000
,
000100
001000
000001
000100
,
001000
000000
100000
000000
,
000100
000001
000100
001000
,
010000
000000
000001
000000
,
001000
000100
100000
010000
,
100000
000000
000010
000000
,
000100
001000
100000
000100
,
001000
000000
000001
000000
,
001000
000000
000001
000000
,
100000
000000
000100
000000
,
100000
000000
000100
000000
,
001000
000000
000001
000000
,
100000
001000
000100
000001
,
010000
000100
100000
000000
,
000010
000100
000001
000000
,
100000
000000
001000
000000
,
100000
000000
001000
000000
,
000100
000000
000001
000000
,
000100
000000
000001
000000
,
100000
000000
001000
000000
,
000100
000001
001000
000010
,
100000
000001
000100
000000
,
001000
100000
000100
001000
,
000010
100000
000001
000000
,
001000
000000
000100
000000
,
100000
000000
000000
000000
,
000000
000000
000000
000000
,
001000
000000
000100
000000
,
000001
001000
000010
001000
,
000001
000000
000100
000000
,
001000
100000
001000
010000
,
000001
000000
001000
000000
,
000010
100000
000100
100000
,
000001
000000
001000
000000
,
000100
100000
001000
010000
,
000001
000000
000100
000000
,
001000
010000
001000
000010
,
000001
000000
001000
000000
,
000100
100000
001000
000100
,
100001
000000
000000
000000
;

//---------------dance-solo - ----------------
#NOTES:
     dance-solo:
     :
     Medium:
     5:
     0.261,0.334,0.041,0.000,0.000:
000000
000000
000000
000000
,
000000
000000
000000
000000
,
000000
000000
000000
000000
,
000000
000000
000000
000000
,
000000
000000
000000
000000
,
100000
000000
001000
000000
,
000100
000000
000001
000000
,
001000
000000
000100
000000
,
100000
000000
001000
000000
,
000100
000001
001000
000000
,
000100
100000
001000
010000
,
000001
000000
001000
000000
,
000000
000000
000000
000000
,
000100
100000
001000
010000
,
000001
000100
000000
000000
,
001000
000000
100000
000000
,
000000
000000
000000
000000
,
000001
001000
000100
100000
,
001000
010000
000001
000100
,
001000
000000
100000
000000
,
000100
001000
000010
100000
,
000001
000000
000100
001000
,
010000
000000
000001
100000
000000
000000
000000
000000
,
000000
000000
000100
001000
,
000001
000000
000100
001000
000000
001000
000000
001000
,
100000
000000
000001
001000
000000
000000
000000
000000
,
000010
001000
000001
000100
,
001000
000000
010000
000001
,
001000
000000
000100
100000
000000
000000
000000
000000
,
000000
000000
001000
100000
,
000100
000000
001000
000010
000000
000100
000000
000001
,
010000
000000
000100
001000
000000
000000
000000
000000
,
000001
000100
001000
100000
,
000001
000000
010000
000000
,
000010
000010
000010
000000
,
001000
000000
000100
000000
,
100000
010000
100000
000000
,
000001
000000
001000
000000
,
000001
000100
001000
100000
,
000100
001000
000010
100000
,
000001
000100
001000
000000
,
100000
000000
000100
000000
,
010000
010000
010000
000000
,
000010
000000
000100
000000
,
001000
010000
001000
000000
,
100000
000000
000001
000000
,
001000
000100
100000
000010
,
001000
000001
000100
001000
,
100000
100000
100000
100000
,
000001
000010
000001
000010
,
001100
000000
100001
000000
,
001100
000000
000000
000000
,
000000
000000
000000
000000
,
100000
000000
000001
001000
,
000100
000000
100000
001000
000000
000000
000000
000000
,
000000
000000
010000
000001
,
001000
000000
000100
001000
000000
000001
000000
100000
,
000010
000000
001000
000100
000000
000000
000000
000000
,
100000
001000
000100
000001
,
001000
000000
000010
000100
,
000001
000000
001000
000010
000000
000000
000000
000000
,
000000
000000
100000
001000
,
000100
000000
000001
010000
000000
000010
000000
000100
,
000001
000000
001000
000100
000000
000000
000000
000000
,
100000
001000
010000
000001
,
001100
000000
000000
000000
;

//---------------dance-solo - ----------------
#NOTES:
     dance-solo:
     :
     Hard:
     7:
     0.408,0.400,0.010,0.000,0.056:
000000
000000
000000
000000
,
000000
000000
000000
000000
,
000000
000000
000000
000000
,
000000
000000
000000
000000
,
000000
000000
000000
000000
,
000000
000000
010000
000000
000000
001000
000000
001000
,
000000
000100
000000
000001
,
000000
000000
001000
000000
000000
000100
000000
000100
,
000000
100000
000000
000001
,
010000
001000
000100
000001
,
001000
000010
100000
000100
,
001000
000001
000100
001000
,
010000
000000
000001
000000
001000
000000
000010
001000
,
000100
100000
001000
010000
,
000001
000000
000100
000000
000010
000000
001000
000100
,
100000
001000
000100
000001
,
100000
000000
000010
000000
001000
000100
001000
000100
,
100000
001000
000100
000001
,
000010
000000
001000
000000
010000
000000
000001
100000
,
001000
000000
001000
000000
001000
000000
000100
001000
,
100000
000000
000001
000000
001000
000000
000100
000000
100000
000000
000000
001000
000000
000000
000100
000000
,
000001
001000
000100
100000
,
001000
000000
010000
000000
100000
000000
000100
000001
,
100000
000100
001000
000001
,
100000
000000
001000
000000
000100
000001
000100
000010
,
100000
000000
001000
000000
000100
000000
000001
001000
,
000100
000000
000000
000000
100000
000000
000000
000000
001000
000000
000000
000100
000000
000000
000001
000000
,
100000
000010
001000
000100
,
100000
000000
001000
000000
000100
000000
000001
010000
,
000010
100000
000100
001000
,
000001
000000
100000
000000
001000
000100
000000
000001
,
100000
000100
001000
000010
,
100000
000000
000001
000000
000100
000000
001000
000000
010000
000000
000000
000001
000000
000000
100000
000000
,
001000
000100
000001
001000
,
000100
100000
010000
001000
,
000010
000000
000000
000000
100000
000000
000000
000000
001000
000000
000000
000100
000000
000000
000001
000000
,
100000
000000
001000
000000
010000
000000
000100
100000
,
001000
000000
000100
000000
000001
000010
000001
000100
,
001000
100000
000100
001000
,
000001
000000
000000
000000
000100
000000
000000
000000
001000
000000
000000
010000
000000
000000
000001
000000
,
100000
000000
000100
000000
001000
000000
000001
100000
,
001000
000000
000000
000000
000100
000000
000000
000000
000001
000000
000000
010000
000000
000000
001000
000000
,
100000
000100
001000
000010
,
100000
001000
010000
000001
,
001000
000000
000000
000000
000100
000000
000000
000000
100000
000000
000000
010000
000000
000000
001000
000000
,
000010
000000
000100
000000
001000
000000
100000
000001
,
001000
000000
000100
000000
100000
010000
100000
000010
,
000100
001000
100000
000001
,
001000
000000
000000
000000
000100
000000
000000
000000
100000
000000
000000
000010
000000
000000
100000
000000
,
001000
000000
000100
000000
000001
000000
010000
000010
,
100000
000000
100000
000000
001000
000100
001000
000100
,
001000
000000
000000
000000
000000
000001
000000
000001
,
000001
000000
000000
000000
,
100000
001000
010000
000100
,
001000
000000
000000
000000
000001
000000
000000
000000
100000
000000
000000
001000
000000
000000
010000
000000
,
000001
000100
000010
001000
,
000100
000000
100000
000000
001000
000100
001000
000010
,
001000
000000
100000
000000
000100
000000
001000
000001
,
100000
000000
000000
000000
001000
000000
000000
000000
000100
000000
000000
000001
000000
000000
010000
000000
,
001000
000100
000001
000010
,
001000
000000
010000
000000
000001
001000
000001
001000
,
000010
100000
001000
000100
,
000001
000000
100000
000000
000100
001000
000000
000010
,
100000
000000
001000
000000
000100
000000
000001
100000
,
001000
000000
000100
000000
000001
000000
010000
000000
000010
000000
000000
000100
000000
000000
001000
000000
,
100001
000000
000000
000000
;

//---------------dance-double - Edit by silenttype01----------------
#NOTES:
     dance-double:
     Edit by silenttype01:
     Easy:
     5:
     0.235,0.267,0.010,0.010,0.000:
00000000
00000000
00000000
00000000
,
00000000
00000000
00000000
00000000
,
00000000
00000000
00000000
00000000
,
00000000
00000000
00000000
00000000
,
00000000
00000000
00000000
00000000
,
00000000
00000000
00000000
00000000
,
00000000
00000000
00000000
00000000
,
00000000
00000000
00000000
00000000
,
00000000
00000000
00000000
00000000
,
01000000
00100000
01000000
00000000
,
00010000
10000000
00010000
00000000
,
01000000
00100000
01000000
00000000
,
00001000
00010000
00001000
00000000
,
00000100
00000010
00001000
00000000
,
00000001
00001000
00000001
00000000
,
00000100
00000010
00001000
00000000
,
00000010
00010000
00000010
00000000
,
00010000
00000100
00010000
00000000
,
00001000
00100000
01000000
00000000
,
10000000
01000000
00010000
01000000
,
10000000
00100000
01000000
00010000
,
10000000
00000000
00100000
00000000
,
00010000
00001000
00010000
00100000
,
00010000
00000000
00001000
00000000
,
00000010
00001000
00010000
00001000
,
00000010
00000000
00000001
00000000
,
00000100
00000010
00001000
00000100
,
00000010
00000000
00000001
00000000
,
00000100
00001000
00000100
00000010
,
00001000
00000000
00000001
00000000
,
00000010
00000100
00010000
00000100
,
00010000
00000000
00001000
00000000
,
01000000
00001000
01000000
00001000
,
00010000
00000000
00010000
00000000
,
00001000
00000000
00001000
00000000
,
00000010
00000000
00000010
00000000
,
00001000
00000000
00001000
00000000
,
00010000
00000000
00010000
00000000
,
00010000
00100000
00010000
00001000
,
00010000
00000100
00010000
00000000
,
00001000
01000000
00001000
00000000
,
00010000
00000000
00100000
00000000
,
10000000
00000000
00100000
00000000
,
01000000
00000000
00010000
00000000
,
01000000
00000000
00001000
00000000
,
00010000
00000000
00000010
00000000
,
00000100
00000001
00000010
00000001
,
00001000
00000001
00000100
00000000
,
00001000
00010000
00000100
00001000
,
00010000
00100000
01000000
00000000
,
10000000
00000000
00010000
00000000
,
00200000
00000000
00000000
00000000
,
00000000
00300000
00000000
00000000
,
00100000
00000000
01000000
00000000
,
10000000
00100000
00010000
00100000
,
10000000
00000000
00100000
00000000
,
00010000
00100000
00010000
00001000
,
00000010
00000000
00000001
00000000
,
00001000
00000010
00000001
00000010
,
00001000
00000000
00000100
00000000
,
00000010
00001000
00010000
00001000
,
00000010
00000000
00001000
00000000
,
00010000
00100000
00010000
00001000
,
00010000
00000000
00100000
00000000
,
10000000
01000000
00010000
00001000
,
00011000
00000000
00000000
00000000
;

//---------------dance-single - Edit by silenttype01----------------
#NOTES:
     dance-single:
     Edit by silenttype01:
     Challenge:
     9:
     0.615,0.601,0.226,0.380,0.128: // measure 1
0000
0000
0000
0000
,  // measure 2
0000
0000
0000
0000
,  // measure 3
0000
0000
0000
0000
,  // measure 4
0000
0000
0000
0000
,  // measure 5
0000
0000
0000
0000
,  // measure 6
0000
0000
0000
0000
,  // measure 7
0000
0000
0000
0000
,  // measure 8
0000
0000
0000
0000
,  // measure 9
0000
0000
0000
0000
,  // measure 10
0100
0001
1000
0001
0010
0001
0100
0000
,  // measure 11
0001
0010
1000
0010
0001
0010
1000
0000
,  // measure 12
1000
0010
1000
0000
0010
0001
0010
0000
,  // measure 13
0001
0100
0001
0000
0102
0000
0100
0100
,  // measure 14
0103
0000
0100
0001
1000
0001
0010
0001
,  // measure 15
0100
0000
0001
1000
0200
0000
1000
1000
,  // measure 16
1300
0000
0001
0010
0100
0010
0001
1000
,  // measure 17
0010
0000
0000
0000
1000
0000
0000
0001
0000
0000
0010
0000
0100
0000
0010
0000
,  // measure 18
0100
0000
1000
0100
0010
0001
1000
0100
,  // measure 19
0002
0000
0203
0000
2300
0000
0001
0001
,  // measure 20
3002
0000
0100
0000
0010
0000
0103
0001
,  // measure 21
0100
0000
0001
0000
0100
0000
0001
0000
0100
0000
0000
0010
0000
0000
1000
0000
,  // measure 22
0001
0100
0010
0100
0001
0100
0010
0100
,  // measure 23
0001
0000
0100
0000
0010
0000
0100
0000
0001
0000
0000
0100
0000
0000
0010
0000
,  // measure 24
1000
0010
0100
0010
1000
0010
0100
0010
,  // measure 25
1000
0000
0010
0000
0100
0000
0010
0000
1000
0000
1000
0000
0010
0000
0010
0100
,  // measure 26
0010
1000
0001
0100
0010
1000
0001
0001
,  // measure 27
0001
0000
1000
0000
0100
0000
0010
0000
0001
0000
0000
1000
0000
0000
0100
0000
,  // measure 28
0010
0001
1000
0001
0010
0001
1000
0001
,  // measure 29
0010
0000
0001
0000
1000
0000
0001
0000
0010
0000
0000
0001
0000
0000
1000
0000
,  // measure 30
0100
1000
0001
1000
0100
1000
0001
1000
,  // measure 31
0100
0000
1000
0000
0001
0000
1000
0000
0100
0000
0010
0000
0000
0000
0001
0010
,  // measure 32
0001
0010
0100
1000
0100
0001
0100
0100
,  // measure 33
1000
0000
1000
0000
0100
0000
0100
0000
0010
0000
0000
0010
0000
0000
0001
0000
,  // measure 34
0100
0001
0010
0100
1000
0001
0010
0000
,  // measure 35
0011
0101
1010
1100
,  // measure 36
0200
0000
0000
0000
0310
0000
0000
0000
0101
0000
0000
0001
0000
0000
0100
0000
,  // measure 37
0020
0000
2030
0000
3001
0000
1001
1000
,  // measure 38
0002
0000
0103
0000
0101
0010
1000
0100
,  // measure 39
0011
0020
0032
0203
,  // measure 40
2300
0000
0000
0000
3100
0000
0000
0000
0101
0000
0000
0010
0000
0000
1000
0000
,  // measure 41
0200
0000
0320
0000
0031
0000
0011
0001
,  // measure 42
0100
0000
0000
0000
0010
0000
0000
0000
1000
0000
0000
1000
0000
0000
1000
0000
,  // measure 43
0200
0320
0230
2300
,  // measure 44
3002
0203
2300
3200
,  // measure 45
0302
0000
0000
0000
2003
0000
0000
0000
3100
0000
0000
0110
0000
0000
0010
0000
,  // measure 46
0002
0000
2003
0000
3002
0000
1003
0100
,  // measure 47
2000
0000
3001
0000
0101
0010
1000
0100
,  // measure 48
0011
0002
0023
0230
,  // measure 49
2300
0000
0000
0000
3100
0000
0000
0000
1100
0000
0000
1000
0000
0000
1100
0000
,  // measure 50
0200
0000
0320
0000
0031
0000
0100
0001
,  // measure 51
0100
0000
0000
0000
0010
0000
0000
0000
1000
0001
1000
0001
1000
0001
1000
0001
,  // measure 52
2000
0000
0000
0000
0000
0000
0000
0000
0000
0000
0000
0001
0000
0000
0001
0000
,  // measure 53
0001
3000
0000
0000
,  // measure 54
1000
0100
0001
0100
0010
0001
0100
0001
,  // measure 55
0010
0000
0100
0000
0001
0000
0100
0000
1000
0000
0001
0010
0000
0001
0010
0000
,  // measure 56
0100
0000
0010
0001
0100
0001
1000
0100
,  // measure 57
0001
0000
0100
0000
1000
0000
0001
0000
0100
0000
0100
0000
0001
0000
0001
0010
,  // measure 58
0001
0000
1000
0010
0001
0010
1000
1000
,  // measure 59
1000
0000
0010
0000
0100
0000
0010
0000
1000
0000
0000
1001
0000
0000
0001
0000
,  // measure 60
1001
0000
1000
0010
0001
0010
1000
0001
,  // measure 61
0100
0000
0010
0000
0001
0000
0010
0000
1000
0000
0001
1000
0000
0001
1000
0000
,  // measure 62
0001
0000
0100
0001
1000
0100
0001
1000
,  // measure 63
0010
0001
1000
0010
0100
0110
0000
0110
,  // measure 64
0010
0100
0001
1000
0100
0010
0001
0001
,  // measure 65
1000
0000
1000
0000
0001
0000
0001
0000
0110
0000
0000
1000
0000
0000
0001
0000
,  // measure 66
0110
0000
0000
0000
;

//---------------dance-double - Edit by silenttype01----------------
#NOTES:
     dance-double:
     Edit by silenttype01:
     Medium:
     7:
     0.387,0.400,0.010,0.010,0.010:
00000000
00000000
00000000
00000000
,
00000000
00000000
00000000
00000000
,
00000000
00000000
00000000
00000000
,
00000000
00000000
00000000
00000000
,
00000000
00000000
00000000
00000000
,
00000000
00000000
00000000
00000000
,
00000000
00000000
00000000
00000000
,
00000000
00000000
00000000
00000000
,
00000000
00000000
00000000
00000000
,
00001000
00000100
00000001
00001000
,
00000010
00001000
00000001
00000100
,
00000010
00001000
00000100
00000010
,
00010000
00000000
00001000
00000000
01000000
00000000
00100000
00010000
,
10000000
00010000
00100000
00010000
,
10000000
00000000
01000000
00000000
10000000
00000000
00100000
01000000
,
00001000
00100000
00001000
00000010
,
00000001
00000000
00001000
00000000
00000010
00000100
00000010
00000100
,
00000001
00000010
00001000
00010000
,
00100000
00000000
10000000
00000000
01000000
00000000
00010000
00001000
,
00000100
00000000
00000100
00000000
00000100
00000000
00000100
00000010
,
00010000
00000000
00001000
00000000
00000010
00000000
00000100
00000000
00010000
00000000
00000000
00000010
00000000
00000000
00000100
00000000
,
00001000
00100000
01000000
00010000
,
00000010
00000000
00000100
00000000
00001000
00000000
00000100
00000001
,
00001000
00000100
00000010
00001000
,
00010000
00000000
00100000
00000000
01000000
10000000
01000000
10000000
,
01000000
00000000
00010000
00000000
00100000
00000000
00010000
00100000
,
01000000
00000000
00100000
00000000
00001000
00010000
00000100
00000000
,
00001000
00000001
00000010
00000100
,
00001000
00000000
00000010
00000000
00000100
00000000
00001000
00010000
,
00001000
00010000
01000000
00100000
,
00001000
00000000
00010000
00000000
00100000
01000000
00000000
00001000
,
00010000
00000000
00000100
00000000
00000010
00000000
00001000
00010000
,
01000000
00000000
01000000
00000000
00010000
00001000
00010000
00000000
,
00000010
00000100
00001000
00010000
,
00100000
00100000
00100000
00010000
,
00001000
00000000
00000010
00000000
00000001
00000100
00000001
00000010
,
00000100
00000000
00000100
00000000
00000100
00000000
00010000
00001000
,
00010000
00000000
00000100
00000000
00001000
00000100
00001000
00000100
,
00000001
00001000
00000100
00000010
,
00001000
00010000
01000000
00010000
,
00100000
00000000
01000000
00000000
00100000
00000000
00001000
00010000
,
00001000
00000000
00010000
00000000
00100000
00010000
00100000
00010000
,
00100000
00010000
00001000
00000010
,
00000100
00000010
00000001
00001000
,
00000010
00000100
00000001
00000100
,
00001000
00000000
00010000
00000000
01000000
00000000
10000000
01000000
,
10000000
00000000
01000000
00000000
00010000
00001000
00010000
00001000
,
00010000
00001000
00000100
00000001
,
00000100
00001000
00010000
01000000
,
10000000
00000000
01000000
00000000
00010000
00000000
00001000
00010000
,
00001000
00000000
00010000
00000000
00001000
00100000
00010000
01000000
,
00002000
00000000
00000000
00000000
,
00013000
00000000
00000000
00000000
,
00010000
00100000
00010000
10000000
,
00010000
00000000
00000000
00000000
01000000
00000000
00000000
00000000
00010000
00000000
00000000
00001000
00000000
00000000
00010000
00000000
,
00001000
00000100
00001000
00000001
,
00001000
00000000
00000010
00000000
00001000
00010000
00001000
00000100
,
00001000
00000000
00010000
00000000
00100000
00000000
10000000
00100000
,
10000000
00010000
00001000
00000001
,
00000010
00000100
00001000
00000100
,
00000010
00000000
00000001
00000000
00000100
00000010
00000100
00000010
,
00000100
00000010
00000100
00001000
,
00010000
00000000
00000100
00000000
00000010
00000100
00000000
00010000
,
00001000
00000000
00100000
00000000
01000000
00000000
00010000
00000010
,
00001000
00000100
00010000
00001000
00100000
00010000
01000000
00000000
,
10010000
00000000
00000000
00000000
;

//---------------dance-double - Edit by silenttype01----------------
#NOTES:
     dance-double:
     Edit by silenttype01:
     Hard:
     9:
     0.622,0.601,0.318,0.380,0.128:
00000000
00000000
00000000
00000000
,
00000000
00000000
00000000
00000000
,
00000000
00000000
00000000
00000000
,
00000000
00000000
00000000
00000000
,
00000000
00000000
00000000
00000000
,
00000000
00000000
00000000
00000000
,
00000000
00000000
00000000
00000000
,
00000000
00000000
00000000
00000000
,
00000000
00000000
00000000
00000000
,
01000000
10000000
00010000
10000000
00100000
10000000
01000000
00000000
,
10000000
00100000
00010000
00100000
10000000
00100000
00010000
00000000
,
00100000
00010000
00001000
00000000
00010000
00001000
00000010
00000000
,
00001000
00000010
00000001
00000000
00000021
00000000
00000001
00000001
,
00000031
00000000
00000100
00000001
00001000
00000001
00000010
00000001
,
00000100
00000000
00000001
00000010
00002000
00000000
00010000
00010000
,
00013000
00000000
00001000
00100000
01000000
00100000
00001000
00010000
,
00100000
00000000
00000000
00000000
10000000
00000000
00000000
00010000
00000000
00000000
00100000
00000000
01000000
00000000
00100000
00000000
,
01000000
00000000
10000000
01000000
00010000
01000000
10000000
01000000
,
00020000
00000000
00032000
00000000
00003020
00000000
00001000
00001000
,
00002030
00000000
00010000
00000000
00000010
00000000
00013000
00001000
,
00000010
00000000
00001000
00000000
00010000
00000000
00001000
00000000
00000010
00000000
00000000
00000001
00000000
00000000
00001000
00000000
,
00000001
00000100
00000010
00001000
00000001
00000100
00000010
00010000
,
00001000
00000000
00000010
00000000
00000001
00000000
00000100
00000000
00000010
00000000
00000000
00010000
00000000
00000000
00001000
00000000
,
00000010
00000000
00001000
00000010
00000001
00000010
00001000
00000010
,
00000001
00000000
00000010
00000000
00001000
00000000
00000010
00000000
00000001
00000000
00000001
00000000
00000100
00000000
00000100
00000001
,
00000100
00000000
00000001
00000100
00001000
00010000
00100000
00100000
,
00100000
00000000
00010000
00000000
00001000
00000000
00010000
00000000
00001000
00000000
00000000
00000100
00000000
00000000
00000010
00000000
,
00000100
00000000
00001000
00000100
00001000
00000100
00001000
00010000
,
00100000
00000000
01000000
00000000
00100000
00000000
01000000
00000000
00010000
00000000
00000000
10000000
00000000
00000000
00010000
00000000
,
00100000
00000000
10000000
00100000
00010000
00100000
10000000
00100000
,
00010000
00000000
00100000
00000000
10000000
00000000
00100000
00000000
00010000
00000000
01000000
00000000
00000000
00000000
00001000
00010000
,
00001000
00000000
00010000
00100000
10000000
01000000
00010000
00010000
,
01000000
00000000
01000000
00000000
10000000
00000000
10000000
00000000
00100000
00000000
00000000
00100000
00000000
00000000
00010000
00000000
,
00010000
00001000
00000100
00000001
,
00000110
00000101
00001100
00011000
,
00200000
00000000
00000000
00000000
10300000
00000000
00000000
00000000
01010000
00000000
00000000
10100000
00000000
00000000
10000000
00000000
,
02000000
00000000
03020000
00000000
00031000
00000000
00011000
00010000
,
00002000
00000000
00003100
00000000
00000110
00000001
00001000
00000010
,
00001001
00000002
00000203
00002300
,
00023000
00000000
00000000
00000000
00031000
00000000
00000000
00000000
00000110
00000000
00000000
00001100
00000000
00000000
00001001
00000000
,
00000200
00000000
00020300
00000000
00031000
00000000
00011000
00001000
,
00110000
00000000
00000000
00000000
00100000
00000000
00000000
00000000
00011000
00000000
00000000
00101000
00000000
00000000
00010010
00000000
,
00002000
00023000
00230000
02300000
,
03200000
00320000
00032000
00003200
,
00002300
00000000
00000000
00000000
00023000
00000000
00000000
00000000
00130000
00000000
00000000
10010000
00000000
00000000
01000000
00000000
,
00200000
00000000
00302000
00000000
00023000
00000000
00031000
00011000
,
00020000
00000000
00030100
00000000
00000110
00000001
00001000
00000010
,
00001001
00000002
00000023
00000230
,
00000320
00000000
00000000
00000000
00001030
00000000
00000000
00000000
00011000
00000000
00000000
00010000
00000000
00000000
01010000
00000000
,
02000000
00000000
23000000
00000000
30100000
00000000
01010000
00010000
,
00110000
00000000
00000000
00000000
00001000
00000000
00000000
00000000
00010000
00001000
00010000
00001000
00010000
00001000
00010000
00001000
,
00020000
00000000
00000000
00000000
00000000
00000000
00000000
00000000
00000000
00000000
00000000
00001000
00000000
00000000
00001000
00000000
,
00001000
00030000
00000000
00000000
,
00001000
00000100
00000001
00000010
00001000
00000010
00000001
00000010
,
00001000
00000000
00010000
00000000
01000000
00000000
10000000
00000000
00100000
00000000
00010000
00100000
00000000
00010000
00100000
00000000
,
01000000
00100000
00010000
00001000
00000100
00000001
00001000
00000010
,
00001000
00000000
00000010
00000000
00010000
00000000
00100000
00000000
10000000
00000000
10000000
00000000
01000000
00000000
01000000
00100000
,
01000000
00100000
00010000
00100000
10000000
00100000
00010000
00010000
,
00010000
00000000
10000000
00000000
00100000
00000000
01000000
00000000
00010000
00000000
00000000
10010000
00000000
00000000
01000000
00000000
,
00010000
10000000
01000000
00100000
00001000
00000010
00001000
00100000
,
01000000
00000000
00100000
00000000
00010000
00000000
10000000
00000000
00100000
00000000
10000000
00100000
00000000
10000000
00100000
00000000
,
00010000
00001000
00000100
00000001
00001000
00000001
00000100
00000010
,
00010000
00100000
00010000
00000010
00000100
00000110
00000000
00000110
,
00000010
00000100
00001000
00010000
00100000
00010000
00001000
00001000
,
00000100
00000000
00000100
00000000
00000001
00000000
00000001
00000000
00000110
00000000
00000000
00001001
00000000
00000000
00000010
00000000
,
00000100
00000000
00000000
00000000
;
