#TITLE:HOLIDAY;
#SUBTITLE:(ALmighty Definitive Mix);
#ARTIST:WHO'S THAT GIRL!;
#TITLETRANSLIT:;
#SUBTITLETRANSLIT:;
#ARTISTTRANSLIT:;
#CREDIT:;
#BANNER:HOLIDAY (ALMIGHTY DEFINITIVE MIX).png;
#BACKGROUND:HOLIDAY (ALMIGHTY DEFINITIVE MIX)-bg.png;
#LYRICSPATH:;
#CDTITLE:Dance Dance Revolution 3rd Mix.png;
#MUSIC:HOLIDAY (ALMIGHTY DEFINITIVE MIX).ogg;
#OFFSET:0.000;
#SAMPLESTART:16.407;
#SAMPLELENGTH:15.000;
#SELECTABLE:YES;
#DISPLAYBPM:128.000;
#BPMS:0.000=127.994;
#STOPS:;
#BGCHANGES:;

//---------------dance-single - ----------------
#NOTES:
     dance-single:
     :
     Beginner:
     1:
     0.139,0.157,0.021,0.000,0.000:
0000
0000
0000
0000
,
0000
0000
0000
0000
,
0000
0000
0000
0000
,
0000
0000
0000
0000
,
0000
0000
0000
0000
,
0001
0000
0001
0000
,
0010
0000
0010
0000
,
0001
0000
1000
0000
,
0001
0000
0100
0000
,
0010
0000
0100
0000
,
0100
0000
0100
0000
,
0010
0000
0100
0000
,
0010
0000
0100
0000
,
0001
0000
0100
0000
,
0100
0000
0100
0000
,
0010
0000
0001
0000
,
0010
0000
1001
0000
,
0100
0000
1000
0000
,
0100
0000
0001
0000
,
1000
0000
0100
0000
,
0001
0000
0100
0000
,
1000
0000
0100
0000
,
0001
0000
0010
0000
,
0100
0100
0000
0000
,
0010
0010
0000
0000
,
0100
0000
1000
0000
,
0010
0000
0001
0000
,
0010
0000
0100
0000
,
0010
0000
0100
0000
,
0010
0000
0001
0000
,
0010
0000
1000
0000
,
0001
0000
0010
0000
,
1000
0000
0100
0000
,
0001
0000
1000
0000
,
0001
0000
1000
0000
,
0010
0000
0010
0000
,
1000
0000
0001
0000
,
1000
0000
0001
0000
,
1000
0000
0001
0000
,
0010
0000
0010
0000
,
0010
0000
1001
0000
,
0001
0000
0010
0000
,
0001
0000
0100
0000
,
0001
0000
0010
0000
,
0001
0000
0100
0000
,
0001
0000
0010
0000
,
0001
0000
0001
0000
,
1000
0000
1000
0000
,
0010
0000
1000
0000
,
0010
0000
0010
0000
,
0001
0000
0000
0000
;

//---------------dance-single - ----------------
#NOTES:
     dance-single:
     :
     Easy:
     4:
     0.233,0.235,0.021,0.000,0.000:
0000
0000
0000
0000
,
0000
0000
0000
0000
,
0000
0000
0000
0000
,
0000
0000
0000
0000
,
0000
0000
0000
0000
,
0001
0000
0001
0000
,
0010
0000
0010
0000
,
0001
0001
1000
1000
,
0001
0001
0100
0100
,
0010
1000
0100
0000
,
0100
0000
0100
0000
,
0010
0001
0100
0000
,
0010
0010
0100
0100
,
0001
1000
0100
0000
,
0100
0000
0100
0000
,
0010
1000
0001
0100
,
0010
0100
1001
0000
,
0100
0010
1000
0000
,
0100
0010
0001
0000
,
1000
0010
0100
0000
,
0001
1000
0100
0000
,
1000
0001
0100
0000
,
0010
1000
0100
0000
,
0010
0001
1000
0000
,
0010
0100
0001
0000
,
0100
0010
1000
1000
,
0010
0100
0001
0001
,
0010
1000
0100
0100
,
0010
0001
0100
0100
,
0010
1000
0001
0001
,
0010
0100
1000
1000
,
0001
0100
0010
0010
,
1000
0001
0100
0100
,
0001
0001
1000
1000
,
0001
1000
0001
1000
,
0010
0000
0010
0000
,
1000
0001
1000
0001
,
1000
0010
0001
0100
,
1000
0010
0001
0100
,
0010
0000
0010
0000
,
0010
0100
1001
0000
,
0001
1000
0010
0100
,
0001
1000
0100
0010
,
0001
0100
0010
1000
,
0001
1000
0100
0010
,
0001
1000
0010
0100
,
0001
0010
0001
0100
,
1000
0010
1000
0001
,
0010
0001
1000
0100
,
0010
0000
0010
0000
,
0001
0000
0000
0000
;

//---------------dance-single - ----------------
#NOTES:
     dance-single:
     :
     Medium:
     5:
     0.326,0.340,0.021,0.000,0.000:
0000
0000
0000
0000
,
0000
0000
0000
0000
,
0000
0000
0000
0000
,
0000
0000
0000
0000
,
0000
0000
0000
0000
,
0010
0000
0010
0000
,
1000
0000
1000
0000
,
0001
0010
0001
0010
,
1000
0100
1000
0100
,
0010
0001
0100
0000
0010
1000
0100
0000
,
0100
0000
0100
0000
,
0010
0001
0100
0000
0010
1000
0100
0000
,
0010
0000
0001
1000
0000
0000
0000
0000
,
0001
1000
0100
0000
0010
0001
0100
0000
,
1000
0000
0000
0000
1000
0000
0010
1000
,
0100
0000
0000
0000
0000
0000
0010
1000
,
0001
0100
1001
0000
,
0010
1000
0100
0000
0010
0001
0100
0000
,
0010
0000
0001
0000
1000
0100
1000
0000
,
0001
0010
0100
0000
1000
0010
0100
0000
,
0001
0000
0100
0000
0001
1000
0001
0100
,
0001
0000
0010
0000
0100
1000
0100
0000
,
0010
0000
0001
0000
0010
1000
0100
0000
,
0010
0000
0001
0000
1000
0010
0100
0000
,
0001
1000
0010
0100
,
0010
0000
0001
0000
0100
0010
1000
0000
,
0010
0100
1000
0000
0001
1000
0100
0000
,
0010
0000
0001
0000
1000
0001
0100
0000
,
0010
0000
1000
0000
0010
0001
0100
0000
,
1000
0010
0100
0000
0001
0010
0100
0000
,
1000
0000
0100
0000
0001
1000
0100
0000
,
0010
0001
0100
0000
0010
1000
0100
0000
,
0010
0000
0001
0000
1000
0010
0001
0000
,
0001
0001
1000
1000
,
0001
1000
0001
1000
,
0010
1000
0010
0000
0100
0001
0100
0000
,
1000
0000
0001
0000
1000
0000
0001
0100
,
1000
0000
0010
0000
0001
0000
1000
0100
,
0001
0000
1000
0000
1000
0000
0010
1000
,
0001
0000
0000
0000
0000
0000
0010
0100
,
0001
1000
1001
0000
,
0100
0000
1000
0000
0001
0100
1000
0000
,
0100
0000
0001
0000
1000
0100
0001
0000
,
0010
0001
0100
0000
0010
1000
0100
0000
,
0010
0000
1000
0000
0010
0100
0010
1000
,
0100
0000
0001
0000
0001
0100
1000
0000
,
0100
0010
0001
0000
1000
0100
0001
0000
,
1000
0000
0100
0000
0001
1000
0100
0000
,
0010
0001
0100
0000
0010
1000
0100
1000
,
0010
0000
0010
0000
0010
0000
0010
0010
,
0001
0000
0000
0000
;

//---------------dance-single - ----------------
#NOTES:
     dance-single:
     :
     Hard:
     6:
     0.384,0.418,0.282,0.000,0.000:
0000
0000
0000
0000
,
0000
0000
0000
0000
,
0000
0000
0000
0000
,
0000
0000
0000
0000
,
0000
0000
0000
0000
,
0001
0000
1000
0000
0001
1000
0100
0000
,
1000
0000
0001
0000
1000
0001
0100
0000
,
0010
0000
0010
0000
1000
0010
0100
0000
,
0001
0000
1000
0000
0100
0010
0001
0000
,
1001
0000
0100
0000
1001
0100
0010
0000
,
0100
0000
0100
0000
,
1001
0000
0100
0000
1001
0100
0010
0000
,
0100
0000
0100
0000
,
1001
0000
0100
0000
0011
0100
0010
0000
,
1000
0000
0000
0000
0100
0000
0010
1000
,
0001
0000
0100
0000
0100
0000
0010
1000
,
0100
0010
1001
0100
,
0001
0000
1000
0000
1001
0100
0010
0000
,
0001
1000
0100
0000
1000
0001
0100
0000
,
0001
0001
1000
0000
1000
1000
0001
0000
,
0010
0000
0100
0000
1000
0100
0001
0000
,
0010
0100
1000
0000
0010
0100
0001
0000
,
1010
0001
0100
0000
0011
1000
0100
0000
,
0001
0001
1000
0000
1000
1000
0001
0000
,
0010
1000
0100
0000
0010
0001
0100
0000
,
1010
0001
0100
0000
0011
1000
0100
0000
,
0001
0001
0100
0000
1000
1000
0100
0000
,
0010
0001
0100
0000
0010
1000
0100
0000
,
0010
0000
1000
0000
0100
0010
0001
0000
,
0001
1000
0100
0000
1000
0001
0100
0000
,
0010
1000
0100
0000
0001
1000
0100
0000
,
0010
0000
1000
0000
0001
1000
0100
0000
,
0011
1000
0100
0100
,
1001
0000
0100
0000
1010
0100
0010
0000
,
0100
0000
0100
0001
,
1001
0000
0100
0000
1001
0100
0010
0000
,
0100
0000
0000
0000
0100
0000
0010
1000
,
0100
0000
1000
0010
0001
0000
0010
0001
,
0100
0000
0010
1000
0100
0000
0010
1000
,
0001
0000
0100
0000
0100
0000
0010
0100
,
0001
1000
1001
0000
,
0100
0000
1010
0000
0001
0100
1000
0000
,
0100
0000
0011
0000
1000
0100
0001
0000
,
0100
0010
0001
0000
0010
0100
1000
0000
,
0010
0000
1001
0000
0010
0100
0010
0001
,
0100
0000
1010
0000
0001
0100
1000
0000
,
0100
0000
0011
0000
1000
0100
0001
0000
,
1001
0010
0100
0000
1001
1000
0100
0000
,
1010
0001
0100
0000
0011
1000
0100
0001
,
0010
0000
0010
0000
0010
0000
0010
0010
,
0001
0000
0000
0000
;

//---------------dance-couple - ----------------
#NOTES:
     dance-couple:
     :
     Medium:
     6:
     0.511,0.680,1.000,0.000,0.000:
00000000
00000000
00000000
00000000
,
00000000
00000000
00000000
00000000
,
00000000
00000000
00000000
00000000
,
00000000
00000000
00000000
00000000
,
00000000
00000000
00000000
00000000
,
00010001
00000000
10000000
00000000
00010001
10000000
01000000
00000000
,
10000001
00000000
00010000
00000000
10000001
00010000
01000000
00000000
,
10000001
00000000
00001000
00000000
10000001
00001000
00000100
00000000
,
10001000
00000000
00000001
00000000
10001000
00000001
00000100
00000000
,
00001001
00000000
00000100
00000000
00001001
00000100
00000010
00000000
,
00100100
00000000
00100100
00000000
,
10010000
00000000
01000000
00000000
10010000
01000000
00100000
00000000
,
01000010
00000000
01000010
00000000
,
10001000
01000100
00010001
01000100
,
10001000
00000000
01000100
00000000
00010001
00000000
01000100
10001000
,
00010001
00000000
01000100
00000000
01000100
00000000
00100010
10001000
,
01000100
00100010
10011001
00000000
,
00000001
00000000
00001000
00000000
00001001
00000100
00000010
00000000
,
00000001
00001000
00000100
00000000
00001000
00000001
00000100
00000000
,
00010000
00000000
10000000
00000000
10010000
01000000
00100000
00000000
,
00010000
10000000
01000000
00000000
10000000
00010000
01000000
00000000
,
00100000
01000000
10000000
00000000
00100000
01000000
00010000
00000000
,
00000010
00000100
00001000
00000000
00000010
00000100
00000001
00000000
,
00000001
00000001
10000000
10000000
,
00100010
10000001
01000100
00000000
00100010
00011000
01000100
00000000
,
10001010
00000001
10000100
00000000
10000011
00001000
10000100
00000000
,
10000001
00000001
10000100
00000000
10001000
00001000
10000100
00000000
,
10100001
00010000
01000001
00000000
00110001
10000000
01000001
00000000
,
00010001
00010000
01000001
00000000
10000001
10000000
01000001
00000000
,
00000001
00001000
00000100
00000000
00001000
00000001
00000100
00000000
,
00100000
10000000
01000000
00000000
00010000
10000000
01000000
00000000
,
00100010
00000000
00011000
00000000
10000001
00011000
01000100
00000000
,
00111010
01000100
01000100
01000100
,
10010000
00000000
01000000
00000000
10100000
01000000
00100000
00000000
,
00000100
00000000
00000100
00000000
,
00001001
00000000
00000100
00000000
00001010
00000100
00000010
00000000
,
01000000
00000000
00000000
00000000
01000000
00000000
00000010
00001000
,
00000100
00000000
00001000
00000010
00000001
00000000
00100000
00010000
,
01000000
00000000
00010000
00100000
10000000
00000000
00100010
10000001
,
00011000
00000000
01000100
00000000
01000100
00000000
00100010
01000100
,
00011000
10000001
10011001
01000100
,
00000010
00001000
10000001
00000000
00000100
00000000
10000100
00000000
,
00000010
00000100
10000001
00000000
00001000
00000000
10001001
00000000
,
00100000
10000000
00010001
00000000
01000000
00000000
01000001
00000000
,
00100000
01000000
00010001
00000000
10000000
00000000
10010001
00000000
,
00000100
00000000
01001010
00000000
00000001
00000100
01001000
00000000
,
00000100
00000000
01000011
00000000
00001000
00000100
01000001
00000000
,
01000000
00000000
10100100
00000000
00010000
01000000
10000100
00000000
,
01000000
00000000
00110000
00000100
10000000
01000000
00010100
00000000
,
00100010
00000000
00100010
00000000
00100010
00000000
00100010
00100010
,
00011000
00000000
00000000
00000000
;

//---------------dance-double - ----------------
#NOTES:
     dance-double:
     :
     Easy:
     4:
     0.249,0.235,0.021,0.000,0.000:
00000000
00000000
00000000
00000000
,
00000000
00000000
00000000
00000000
,
00000000
00000000
00000000
00000000
,
00000000
00000000
00000000
00000000
,
00000000
00000000
00000000
00000000
,
10000000
00000000
00010000
00000000
,
00001000
00000000
00000010
00000000
,
00000001
00000001
00000100
00000100
,
00001000
00001000
00100000
00100000
,
01000000
10000000
00010000
00010000
,
00001000
00000000
00001000
00000000
,
00000010
00000001
00000100
00000100
,
00001000
00010000
01000000
10000000
,
01000000
10000000
00010000
00010000
,
00001000
00000000
00001000
00000000
,
00000010
00001000
00010000
00100000
,
01000000
10000000
10010000
00000000
,
10000000
00100000
01000000
01000000
,
00100000
00001000
00010000
00010000
,
00001000
00000010
00000100
00000100
,
00000010
00001000
00000001
00000001
,
00000100
00010000
00100000
00100000
,
01000000
10000000
01000000
01000000
,
00100000
00010000
10000000
10000000
,
00010000
00001000
00000100
00001000
,
00000100
00000001
00000100
00000001
,
00001000
00000010
00001000
00000010
,
00010000
00001000
00010000
00001000
,
01000000
00010000
01000000
00010000
,
10000000
00100000
10000000
00100000
,
00001000
00010000
00001000
00010000
,
00001000
00000100
00010000
00010000
,
00001000
00100000
01000000
01000000
,
10000000
10000000
00010000
00010000
,
00100000
00010000
00100000
00010000
,
00001000
00000000
00010000
00000000
,
00000100
00001000
00000100
00001000
,
00000001
00000100
00001000
00100000
,
01000000
10000000
00010000
10000000
,
01000000
00000000
01000000
00000000
,
10000000
00100000
10010000
00000000
,
10000000
00010000
00001000
00000001
,
00000010
00000001
00000100
00001000
,
00100000
01000000
10000000
00010000
,
01000000
00010000
00000010
00001000
,
00000001
00001000
00010000
10000000
,
00100000
10000000
01000000
00010000
,
00000010
00000100
00000001
00001000
,
00000010
00010000
01000000
10000000
,
00100000
00000000
00100000
00000000
,
00010000
00000000
00000000
00000000
;

//---------------dance-double - ----------------
#NOTES:
     dance-double:
     :
     Medium:
     5:
     0.314,0.340,0.105,0.000,0.000:
00000000
00000000
00000000
00000000
,
00000000
00000000
00000000
00000000
,
00000000
00000000
00000000
00000000
,
00000000
00000000
00000000
00000000
,
00000000
00000000
00000000
00000000
,
00100000
00000000
00100000
00000000
,
00001000
00000000
00001000
00000000
,
00000010
00001000
00010000
10000000
,
00100000
00010000
00001000
00000001
,
00000001
00000010
00000001
00000000
00000100
00000000
00000100
00000000
,
00010000
00000000
00010000
00000000
,
00100000
01000000
00100000
00000000
10000000
00000000
10000000
00000000
,
00010000
01000000
00010000
00000000
01000000
00000000
00001000
00010000
,
00001000
00010000
00000100
00000000
00000010
00000000
00000010
00000000
,
00000001
00000000
00000000
00000000
00000001
00000000
00001000
00000100
,
00010000
00000000
00000000
00000000
00000000
00000000
00001000
00010000
,
01000000
10000000
10010000
00000000
,
10000000
01000000
10000000
00000000
00100000
00000000
00100000
00000000
,
01000000
00010000
01000000
00000000
00001000
00000000
00001000
00000000
,
00010000
00001000
00010000
00000000
00000100
00000000
00000100
00000000
,
00000010
00000001
00000010
00000000
00000001
00000000
00000001
00000000
,
00000100
00001000
00000100
00000000
00010000
00000000
00010000
00000000
,
00100000
00010000
00100000
00000000
00010000
00000000
00010000
00000000
,
01000000
00100000
01000000
00000000
10000000
00000000
10000000
00000000
,
00100000
00001000
00100000
00000000
00010000
00000000
00010000
00001000
,
00000100
00000011
00000100
00000011
,
00001000
00000110
00001000
00000110
,
00010000
00001000
00010000
00001000
,
01000000
00110000
01000000
00110000
,
10000000
01100000
10000000
01100000
,
00001000
00010000
00001000
00010000
,
00000100
00000010
00000100
00000000
00000010
00000000
00000010
00000000
,
00001000
00010000
00001000
00000000
01000000
00000000
01000000
00000000
,
10000000
10000000
00010000
00010000
,
01000000
00001000
01000000
00001000
,
00010000
00010000
00001000
00001000
,
00000100
00000000
00010000
00000000
00000100
00000000
00010000
00000100
,
00000001
00000000
00000100
00000000
00001000
00000000
00100000
00010000
,
01000000
00000000
01000000
00000000
01000000
00000000
00100000
10000000
,
01000000
00000000
00000000
00000000
00000000
00000000
00010000
00001000
,
00010000
00001000
00011000
00000000
,
10000000
00000000
00100000
00000000
01000000
00010000
00100000
00000000
,
00001000
00000000
00000100
00000000
00000001
00001000
00000100
00000000
,
00010000
00000000
00001000
00000000
01000000
00010000
10000000
00000000
,
00100000
00000000
10000000
00000000
00010000
00100000
01000000
00000000
,
00001000
00000000
00000010
00000000
00000100
00000001
00001000
00000000
,
00010000
00000000
00001000
00000000
00010000
00001000
00010000
00000000
,
00100000
00000000
01000000
00000000
10000000
00100000
01000000
00000000
,
00010000
00000000
00001000
00000000
00010000
00001000
00000100
00000001
,
00000010
00000000
00000010
00000000
00000010
00000000
00000010
00000001
,
00000100
00000000
00000000
00000000
;

//---------------dance-double - ----------------
#NOTES:
     dance-double:
     :
     Hard:
     7:
     0.409,0.444,0.209,0.000,0.047:
00000000
00000000
00000000
00000000
,
00000000
00000000
00000000
00000000
,
00000000
00000000
00000000
00000000
,
00000000
00000000
00000000
00000000
,
00000000
00000000
00000000
00000000
00000000
00000000
00000000
00000000
00000000
00000000
00000000
00000000
01000000
00010000
01000000
00000000
,
00100000
10000000
01000000
00010000
00001000
00000100
00000001
00000010
,
00000100
00000000
00000000
00000000
00000000
00000000
00000000
00000000
00000000
00000000
00000000
00000000
00000100
00001000
00000100
00000000
,
00000010
00000001
00000100
00001000
00010000
01000000
10000000
00100000
,
01000000
00000000
00000000
00000000
00000000
00000000
00001000
00010000
,
01000000
00000000
10000000
01000000
00000000
00000000
10000000
01000000
00000000
00000000
00000000
00000000
00000000
00000000
00000000
00000000
,
00010000
00000000
00000000
00000000
00001000
00000000
00010000
00001000
,
00000100
00000000
00000001
00000100
00000000
00000000
00000001
00000100
00000000
00000000
00000000
00000000
00000000
00000000
00000000
00000000
,
00001000
00000000
00000000
00000000
00001000
00010000
00000000
00000000
00000000
00000000
00000000
00000000
00001000
00000000
00010000
00000000
,
01000000
00000000
10000000
01000000
00010000
00000000
00000000
00000000
,
00010000
00000000
00000000
00000000
00010000
00000000
00100000
00010000
,
01000000
00000000
00000000
00000000
00000000
00000000
00001000
00010000
,
00001000
00000000
00001000
00000000
00011000
00000000
00010000
00001000
,
00000100
00000000
00000001
00000010
00000000
00000000
00000001
00000010
00000000
00000000
00000000
00000000
00000000
00000000
00000000
00000000
,
00000001
00001000
00010000
00000000
00001000
00010000
10000000
00000000
,
10000000
00010000
00001000
00000000
00010000
00001000
00000001
00000000
,
00000001
00000001
00000100
00000000
00001000
00001000
01000000
00000000
,
10000000
00000000
00010000
00000000
00001000
00010000
00000100
00000000
,
00000010
00000100
00001000
00000000
00010000
00100000
01000000
00000000
,
00100000
01000000
00010000
00000000
00001000
00000100
00000010
00000000
,
00000001
00000001
00000100
00000000
00001000
00001000
01000000
00000000
,
10000000
00000000
00010000
00000000
00001000
00010000
00000100
00000000
,
00000001
00001000
00010000
00000000
00001000
00010000
10000000
00000000
,
10000000
00010000
00001000
00000000
00010000
00001000
00000001
00000000
,
00000001
00000001
00000100
00000000
00001000
00001000
00000100
00000000
,
00001001
00000100
00001000
00000000
00011000
00001000
01000000
00000000
,
10010000
01000000
10000000
00000000
10010000
01000000
00010000
00000000
,
00011000
00010000
00000100
00000000
00001001
00000100
00000001
00000000
,
00000001
00000000
00001000
00000000
00010000
00001000
00000100
00000000
,
00000001
00000010
00000001
00000010
00000100
00000010
00000100
00001000
,
00000100
00001000
00010000
00001000
00010000
01000000
00010000
01000000
,
00100000
01000000
00100000
10000000
00100000
10000000
01000000
10000000
,
01000000
00000000
00000000
00000000
01000000
00000000
10000000
01000000
,
00100000
00000000
00010000
01000000
00001000
00000000
00010000
00000100
,
00001000
00000000
00000010
00000100
00000001
00000000
00000010
00000100
,
00001000
00000000
00000000
00000000
00000000
00000000
00010000
00001000
,
00010000
00001000
00011000
00000000
,
00000011
00000100
00001000
00000000
00011000
01000000
10000000
00000000
,
10100000
01000000
00010000
00000000
00011000
00000100
00000001
00000000
,
00000001
00000001
00000100
00000000
00001000
00001000
01000000
00000000
,
10100000
01000000
00010000
00000000
00011000
00000100
00000001
00000000
,
00000011
00000100
00001000
00000000
00011000
01000000
10000000
00000000
,
10000000
00010000
00001000
00000000
00010000
00001000
00000001
00000000
,
00000011
00000100
00001000
00000000
00011000
01000000
10000000
00000000
,
10100000
01000000
00010000
00000000
00011000
00000100
00000001
00001000
,
00000100
00000000
00000100
00000000
00000100
00000000
00000100
00001000
,
00000001
00000000
00000000
00000000
;

//---------------dance-solo - ----------------
#NOTES:
     dance-solo:
     :
     Easy:
     3:
     0.181,0.209,0.021,0.000,0.000:
000000
000000
000000
000000
,
000000
000000
000000
000000
,
000000
000000
000000
000000
,
000000
000000
000000
000000
,
000000
000000
000000
000000
,
100000
000000
100000
000000
,
000001
000000
000001
000000
,
010000
000000
010000
000000
,
000010
000000
000010
000010
,
000100
000000
000100
000000
,
000001
100000
000001
100000
,
001000
000000
001000
000000
,
000001
100000
000001
100000
,
000010
000000
010000
000000
,
000010
000010
010000
010000
,
000001
000000
000001
000000
,
000001
100000
100001
001000
,
000010
000000
000010
000000
,
010000
000000
010000
000000
,
000100
000000
000100
000000
,
000010
000000
000010
000010
,
100000
000001
100000
000001
,
001000
000100
001000
000100
,
010000
000000
000010
000000
,
100000
000000
000001
000001
,
001000
000000
001000
000000
,
000010
000000
010000
000000
,
000001
000000
100000
000000
,
000100
000000
001000
000000
,
000010
000010
010000
010000
,
000001
000001
100000
100000
,
000001
000000
100000
000000
,
000001
000000
100000
000000
,
000001
000000
000001
000000
,
100000
000000
100000
000000
,
000001
000000
000001
000000
,
100000
000000
100000
000000
,
000100
000000
000100
000000
,
100000
000000
100000
000000
,
000010
000000
000010
000000
,
000010
010000
001100
001000
,
000001
000000
000001
000000
,
100000
000000
100000
000000
,
000100
000100
001000
001000
,
000001
100000
000001
100000
,
000010
000000
000010
000000
,
010000
000000
010000
000000
,
000100
001000
000100
001000
,
000001
100000
000000
100000
,
000001
000000
000001
000000
,
100000
000000
000000
000000
;

//---------------dance-solo - ----------------
#NOTES:
     dance-solo:
     :
     Medium:
     4:
     0.266,0.366,0.230,0.000,0.000:
000000
000000
000000
000000
,
000000
000000
000000
000000
,
000000
000000
000000
000000
,
000000
000000
000000
000000
,
000000
000000
000000
000000
,
000001
010000
000010
100000
,
001000
001000
001000
100001
,
010000
001000
100000
000001
,
000100
000100
000100
010010
,
000011
000011
000011
000011
,
100000
000001
100000
000001
,
110000
110000
110000
110000
,
000001
100000
000001
100000
,
000100
000000
000100
000000
,
001000
001000
001000
001000
,
000010
000000
000001
000000
,
000001
100000
000100
100001
,
000010
001000
000001
100000
,
000010
000010
000010
010000
,
000001
000000
000001
000000
,
100000
100000
100000
100001
,
001000
000000
001000
000000
,
000100
000000
000100
000000
,
010000
010000
000001
000001
,
100000
100000
000010
000010
,
010000
000100
010000
000100
,
100000
000001
100000
000001
,
000100
000010
000100
000010
,
001000
000100
001000
000100
,
100000
100000
000001
000001
,
010000
010000
001000
001000
,
000100
000100
000010
000010
,
100000
000001
100000
100001
,
001000
000000
001000
000000
,
000100
000000
000100
000000
,
100000
000000
100000
000000
,
000001
000000
000001
000000
,
010000
000000
010000
000000
,
000010
000000
000010
000000
,
000100
000000
000100
001000
,
010010
100000
000001
001100
,
010000
000001
100000
000010
,
001000
100001
000100
100001
,
010000
010000
010000
000010
,
001000
100001
000100
100001
,
000001
000100
000010
010000
,
001000
100010
000100
010001
,
100000
000001
000000
000001
,
100000
000000
100000
100000
,
000010
001000
000100
010000
,
100001
000000
000000
000000
;

//---------------dance-solo - ----------------
#NOTES:
     dance-solo:
     :
     Hard:
     6:
     0.381,0.418,0.303,0.000,0.000:
000000
000000
000000
000000
,
000000
000000
000000
000000
,
000000
000000
000000
000000
,
000000
000000
000000
000000
,
000000
000000
000000
000000
,
000010
000000
001000
000000
000001
100000
001000
000000
,
010000
000000
000001
000000
100000
000001
001000
000000
,
000100
000000
000100
000000
001000
000010
001000
000000
,
000001
000000
010000
000000
000100
100000
001000
000000
,
100001
000000
010000
000000
100001
010000
001000
000000
,
000100
000000
000100
000000
,
100001
000000
000010
000000
100001
000010
001000
000000
,
000100
000000
000100
000000
,
100001
000000
000100
000000
001000
000010
001000
000000
,
000001
000000
000000
000000
001000
000000
000100
100000
,
000001
000000
010000
000000
010000
000000
000100
001000
,
000100
100000
100001
000001
,
001000
000000
000100
000000
000100
010000
000010
000000
,
001000
000001
010000
000000
001000
000010
100000
000000
,
000001
000001
001000
000000
001000
001000
000001
000000
,
000100
000000
001000
000000
000001
010000
000001
000000
,
100000
000100
001000
000000
000100
001000
000001
000000
,
100010
000001
010000
000000
001100
001000
000010
000000
,
100000
100000
000001
000000
000001
000001
100000
000000
,
000100
001000
000010
000000
001000
000010
000100
000000
,
000110
000100
000010
000000
010100
000100
010000
000000
,
000001
000001
001000
000000
000100
000100
100000
000000
,
000010
001000
000001
000000
100000
000100
010000
000000
,
000001
000000
001000
000000
000100
010000
001000
000000
,
001000
100000
000010
000000
010000
000001
000100
000000
,
001000
010000
001000
000000
001000
000010
001000
000000
,
000001
000000
010000
000000
000001
010000
001000
000000
,
001010
011000
001000
001000
,
100001
000100
000110
010100
,
001000
000000
001000
000100
,
100001
000000
001000
000000
100001
000001
001000
000000
,
000100
000000
000000
000000
000100
000000
100000
010000
,
100000
000000
000001
001000
000100
000000
001000
000010
,
100000
000000
000100
010000
001000
000000
000100
100000
,
000010
000000
001000
000000
001000
000000
000100
001000
,
000001
010000
010001
000000
,
001000
000000
100100
000000
000010
001000
000100
000000
,
001000
000000
000110
000000
100000
010000
100000
000000
,
000100
001000
000010
000000
010000
000100
001000
000000
,
000001
000000
010001
000000
100000
001000
100000
000100
,
001000
000000
100010
000000
000001
010000
001000
000000
,
100000
000000
010001
000000
001000
000100
100000
000000
,
100001
000100
001000
000000
100001
010000
000010
000000
,
010100
000110
010100
000110
,
001000
000000
001000
000000
001000
000000
001000
001000
,
000001
000000
000000
000000
;

//---------------dance-double - ----------------
#NOTES:
     dance-double:
     :
     Challenge:
     7:
     0.439,0.471,0.220,0.251,0.120:
00000000
00000000
00000000
00000000
,
00000000
00000000
00000000
00000000
,
00000000
00000000
00000000
00000000
,
00000000
00000000
00000000
00000000
,
00000000
00000000
00000000
00000000
,
10100000
01000000
00010000
00000000
00011000
00000100
00000001
00000000
,
00000001
00001000
00010000
00000000
00001000
00010000
10000000
00000000
,
10100000
01000000
00010000
00000000
00011000
00000100
00000001
00000000
,
00000011
00000100
00001000
00000000
00011000
01000000
10000000
10000000
,
10000000
00000000
00010000
00100000
01000000
10000000
00010000
00000000
,
10000000
00000000
00000000
00100000
00000000
00000000
00010000
00000000
00100000
00000000
00000000
10000000
00000000
00000000
00000000
00000000
,
01000000
00100000
01000000
00100000
01000000
00000000
00010000
00000000
,
00002000
00000000
00010000
00023000
00000000
00000000
00001000
00031000
,
00010000
00000000
00001000
00000100
00000010
00000001
00001000
00000000
,
00000100
00000000
00000000
00000001
00000000
00000000
00000100
00000000
00000010
00000000
00000000
00000000
00002000
00000000
00000100
00000000
,
00000200
00000000
00003300
00000000
00000000
00000000
00000010
00000100
,
00000010
00000000
00000110
00000000
00001001
00000000
00001000
00001000
,
00000002
00000000
00000000
00000000
00000000
00000003
00000001
00000000
00000000
00000000
00000000
00000000
00000020
00000000
00000000
00000000
00000000
00000000
00000000
00000000
00000000
00000000
00000000
00000000
00000031
00000000
00000000
00000000
00000000
00000000
00000000
00000000
,
00002000
00000000
00000000
00000000
00000000
00003000
00001000
00000000
00000000
00000000
00000000
00000000
00000020
00000000
00000000
00000000
00000000
00000000
00000000
00000000
00000000
00000000
00000000
00000000
00010030
00000000
00000000
00000000
00000000
00000000
00000000
00000000
,
00002000
00000000
00000000
00000000
00000000
00003000
00001000
00000000
00000000
00000000
00000000
00000000
02000000
00000000
00000000
00000000
00000000
00000000
00000000
00000000
00000000
00000000
00000000
00000000
03010000
00000000
00000000
00000000
00000000
00000000
00000000
00000000
,
20000000
00000000
00000000
00000000
00000000
30000000
10000000
00000000
00000000
00000000
00000000
00000000
02000000
00000000
00000000
00000000
00000000
00000000
00000000
00000000
00000000
00000000
00000000
00000000
03100000
00000000
00000000
00000000
00010000
00000000
00000000
00000000
,
00020000
00000000
00000000
10030000
00000000
00000000
02000000
00000000
00000000
00000000
00000000
00000000
03100000
00000000
00000000
00000000
,
02000000
00000000
00000000
03010000
00000000
00000000
00002000
00000000
00000000
00000000
00000000
00000000
00013000
00000000
00000000
00000000
,
00002000
00000000
00000000
00003100
00000000
00000000
00000020
00000000
00000000
00000000
00000000
00000000
00000130
00000000
00000000
00000000
,
00000002
00000000
00000000
00001003
00000000
00000000
00000200
00000000
00000000
00000000
00000000
00000000
00000310
00000000
00000001
00000000
,
00000011
00000100
00001000
00000000
00011000
01000000
10000000
00000000
,
10100000
01000000
00010000
00000000
00011000
00000100
00000001
00000000
,
00000001
00000001
00000100
00000000
00001000
00001000
01000000
00000000
,
10100000
01000000
00010000
00000000
00011000
00000100
00000001
00000001
,
00000001
00000000
00001010
00000000
00011000
00000000
00001010
00000100
,
00000001
00000010
00000100
00000000
00100000
00010000
00100000
00000000
,
00110000
00000000
00011000
00000000
00110000
01000000
10000000
00100000
,
01000000
00000000
00000010
00001000
00001010
00000000
00000100
00000100
,
00000100
00000100
00000100
00000100
,
00000100
00000100
00000100
00000100
,
00000100
00000100
00000100
00000100
,
00000100
00000000
00000100
00000000
00000100
00000000
00000100
00000100
,
00000100
00000001
00000100
00000010
00000100
00000001
00000100
00000010
,
00000100
00000001
00000100
00000010
00000100
00000001
00000100
00000010
,
00000100
00000001
00000100
00000010
00000100
00000001
00000100
00000010
,
00000000
00000000
00000000
00000000
00000000
00000000
00000000
00000000
00000000
00000000
00000000
00000000
00000100
00001000
00000100
00000000
,
00000010
00000000
00000000
00000001
00000000
00000000
00000100
00000000
00001000
00000000
00000000
00010000
00000000
00000000
01000000
00000000
,
20000000
00000000
00000000
00000000
00100000
00000000
00000000
00000000
30100000
00000000
00000000
00000000
01000000
00010000
01000000
00000000
,
00100000
00000000
00000000
10000000
00000000
00000000
01000000
00000000
00010000
00000000
00000000
00001000
00000000
00000000
00000100
00000000
,
00000002
00000000
00000000
00000000
00000010
00000000
00000000
00000000
00000013
00000000
00000000
00000000
00000010
00000001
00000010
00000000
,
00000001
00000000
00000000
00000100
00000000
00000000
00001000
00000000
00010000
00000000
00000000
01000000
00000000
00000000
10000000
00000000
,
00020000
00000000
00000000
00000000
10000000
00000000
00000000
00000000
10030000
00000000
00000000
00000000
00100000
10000000
00100000
00000000
,
10000000
00000000
00000000
01000000
00000000
00000000
00010000
00000000
00001000
00000000
00000000
00000100
00000000
00000000
00000001
00000000
,
00002000
00000000
00000001
00000000
00003001
00000000
00000001
00001000
,
00000100
00000010
00000100
00000010
00000100
00000010
00000100
00000001
,
00001000
00000000
00000000
00000000
;

//---------------dance-single - Edit by silenttype01----------------
#NOTES:
     dance-single:
     Edit by silenttype01:
     Challenge:
     7:
     0.439,0.471,0.220,0.251,0.120: // measure 1
0000
0000
0000
0000
,  // measure 2
0000
0000
0000
0000
,  // measure 3
0000
0000
0000
0000
,  // measure 4
0000
0000
0000
0000
,  // measure 5
0000
0000
0000
0000
,  // measure 6
0011
1000
0100
0000
1010
0001
0100
0000
,  // measure 7
1010
0100
0001
0000
1100
0010
0001
0000
,  // measure 8
1100
0001
0010
0000
0101
1000
0010
0000
,  // measure 9
0101
0010
1000
0000
0011
0100
1000
1000
,  // measure 10
1000
0000
0001
0010
0100
1000
0001
0000
,  // measure 11
1000
0000
0000
0010
0000
0000
0001
0000
0010
0000
0000
1000
0000
0000
0000
0000
,  // measure 12
0100
0010
0100
0010
0100
0000
1000
0000
,  // measure 13
0002
0000
0010
2003
0000
0000
0001
3001
,  // measure 14
1000
0000
0001
0100
0010
1000
0001
0000
,  // measure 15
0100
0000
0000
0001
0000
0000
0100
0000
0010
0000
0000
0000
0200
0000
0001
0000
,  // measure 16
0002
0000
0303
0000
0000
0000
0100
0001
,  // measure 17
0010
0000
0110
0000
1001
0000
1000
1000
,  // measure 18
0002
0000
0000
0000
0000
0003
0001
0000
0000
0000
0000
0000
0020
0000
0000
0000
0000
0000
0000
0000
0000
0000
0000
0000
0031
0000
0000
0000
0000
0000
0000
0000
,  // measure 19
2000
0000
0000
0000
0000
3000
1000
0000
0000
0000
0000
0000
0020
0000
0000
0000
0000
0000
0000
0000
0000
0000
0000
0000
0130
0000
0000
0000
0000
0000
0000
0000
,  // measure 20
0020
0000
0000
0000
0000
0030
0010
0000
0000
0000
0000
0000
2000
0000
0000
0000
0000
0000
0000
0000
0000
0000
0000
0000
3001
0000
0000
0000
0000
0000
0000
0000
,  // measure 21
2000
0000
0000
0000
0000
3000
1000
0000
0000
0000
0000
0000
0200
0000
0000
0000
0000
0000
0000
0000
0000
0000
0000
0000
0310
0000
0000
0000
0001
0000
0000
0000
,  // measure 22
0002
0000
0000
1003
0000
0000
0200
0000
0000
0000
0000
0000
0310
0000
0000
0000
,  // measure 23
0200
0000
0000
1300
0000
0000
0002
0000
0000
0000
0000
0000
0103
0000
0000
0000
,  // measure 24
0020
0000
0000
1030
0000
0000
0002
0000
0000
0000
0000
0000
0103
0000
0000
0000
,  // measure 25
0002
0000
0000
1003
0000
0000
0200
0000
0000
0000
0000
0000
0310
0000
0001
0000
,  // measure 26
0011
1000
0100
0000
1010
0001
0100
0000
,  // measure 27
1000
1000
0100
0000
0001
0001
0010
0000
,  // measure 28
1100
0001
0010
0000
0101
1000
0010
0000
,  // measure 29
0001
0001
0010
0000
1000
1000
0010
0100
,  // measure 30
0010
0000
1010
0000
1100
0000
1010
0100
,  // measure 31
0001
0010
0100
0000
0010
0001
0010
0000
,  // measure 32
0011
0000
0101
0000
0011
0100
1000
0010
,  // measure 33
0100
0000
0100
0010
0110
0000
0100
0100
,  // measure 34
0100
0100
0100
0100
,  // measure 35
0100
0100
0100
0100
,  // measure 36
0100
0100
0100
0100
,  // measure 37
0100
0000
0100
0000
0100
0000
0100
0100
,  // measure 38
0100
0001
0100
0010
0100
0001
0100
0010
,  // measure 39
0100
0001
0100
0010
0100
0001
0100
0010
,  // measure 40
0100
0001
0100
0010
0100
0001
0100
0010
,  // measure 41
0000
0000
0000
0000
0000
0000
0000
0000
0000
0000
0000
0000
0100
1000
0100
0000
,  // measure 42
1000
0000
0000
0100
0000
0000
0001
0000
0010
0000
0000
1000
0000
0000
0100
0000
,  // measure 43
2000
0000
0000
0000
0001
0000
0000
0000
3001
0000
0000
0000
0001
0100
0001
0000
,  // measure 44
0100
0000
0000
1000
0000
0000
0010
0000
0001
0000
0000
0100
0000
0000
1000
0000
,  // measure 45
0200
0000
0000
0000
0010
0000
0000
0000
0310
0000
0000
0000
1000
0010
1000
0000
,  // measure 46
0010
0000
0000
1000
0000
0000
0100
0000
0001
0000
0000
0010
0000
0000
1000
0000
,  // measure 47
0200
0000
0000
0000
1000
0000
0000
0000
1300
0000
0000
0000
0001
0010
0001
0000
,  // measure 48
0010
0000
0000
0001
0000
0000
0100
0000
1000
0000
0000
0010
0000
0000
0001
0000
,  // measure 49
0200
0000
0010
0000
0310
0000
1000
0001
,  // measure 50
0100
0010
0100
0010
0100
0010
0100
1000
,  // measure 51
0001
0000
0000
0000
;
