#TITLE:HIGH ENERGY;
#SUBTITLE:(John '00' Fleming Remix);
#ARTIST:SLIP & SHUFFLE featuring LEONI;
#TITLETRANSLIT:;
#SUBTITLETRANSLIT:;
#ARTISTTRANSLIT:;
#CREDIT:;
#BANNER:HIGH ENERGY (John '00' Fleming Remix).png;
#BACKGROUND:HIGH ENERGY (John '00' Fleming Remix)-bg.png;
#LYRICSPATH:;
#CDTITLE:./CDTITLES/DANCEMANIA 13.PNG;
#MUSIC:HIGH ENERGY (John '00' Fleming Remix).ogg;
#OFFSET:0.000;
#SAMPLESTART:8.565;
#SAMPLELENGTH:15.000;
#SELECTABLE:YES;
#DISPLAYBPM:140.000;
#BPMS:0.000=140.105,52.000=139.997;
#STOPS:;
#BGCHANGES:;

//---------------dance-single - ----------------
#NOTES:
     dance-single:
     :
     Easy:
     2:
     :
0000
0000
0000
0000
,
0000
0000
0000
0000
,
0000
0000
0000
0000
,
0000
0000
0000
0000
,
0000
0000
0000
0000
,
0001
1000
0000
0000
,
0010
0000
0100
0000
,
1000
0010
0100
0001
,
0000
1000
0000
0001
,
1000
0001
0000
0000
,
0010
0000
0100
0000
,
1000
0010
0100
0001
,
0000
0000
0100
0100
,
1000
1000
0000
0000
,
0010
0010
0000
0000
,
0100
0100
0000
0000
,
0001
0001
0000
0000
,
0010
1000
1000
0000
,
0010
0001
0001
0000
,
1000
0001
1000
0001
,
0001
1000
0001
1000
,
0010
0000
0000
0000
,
1000
0000
0000
0100
,
0001
0000
0000
0000
,
0010
0000
0000
0000
,
1000
0000
0001
0000
,
1000
0000
0001
0000
,
0001
0100
1000
0000
,
0001
0000
1000
0000
,
0010
0100
0001
0000
,
1000
0001
1000
0000
,
0100
0000
0100
0000
,
0010
0000
0100
0000
,
0010
0000
0001
0000
,
0010
0100
1000
0000
,
0100
0100
0100
0000
,
0010
0010
1000
0001
,
0010
1000
0100
0000
,
0010
0000
0100
0000
,
1000
0010
0100
0001
,
0000
1000
0000
0001
,
0010
1000
0100
0000
,
0010
0000
0100
0000
,
1000
0010
0100
0001
,
0000
0000
1000
0100
,
1001
0000
0000
0000
;

//---------------dance-single - ----------------
#NOTES:
     dance-single:
     :
     Medium:
     4:
     :
0000
0000
0000
0000
,
0000
0000
0000
0000
,
0000
0000
0000
0000
,
0000
0000
0000
0000
,
0000
0000
0000
0000
,
0010
0000
0001
0000
0100
0010
0000
0100
,
0000
0000
0000
1001
0000
0000
0000
0000
,
0010
0100
0010
0001
,
0100
0100
0001
0001
,
0010
0000
0001
0000
0100
0010
0000
0100
,
0000
0000
0000
1001
0000
0000
0000
0000
,
0001
0010
0100
1000
,
0000
0000
0000
0000
0010
0100
0010
0000
,
0001
0001
0000
0010
,
1000
1000
0000
0001
,
0100
0100
0000
1000
,
0010
0010
0000
0001
,
0010
0100
1000
1100
,
1000
0010
0001
0101
,
1000
1000
1000
0110
,
0001
1000
0001
1001
,
0001
0010
1000
0001
,
1000
0000
0001
0010
,
1000
0010
1000
0100
,
0001
0010
0001
0100
,
0010
0010
1000
0000
,
0001
0001
0000
0110
,
0001
0100
0010
0100
,
1000
0100
0010
0100
,
1000
0100
0001
0000
0010
0000
0000
0000
,
0001
0100
1000
0000
0010
0000
0000
0000
,
0010
0100
0010
0100
,
1000
0010
0100
0001
,
0010
1000
0001
0000
0100
0000
0000
0000
,
0001
0010
1000
0000
,
0010
1000
0001
0100
,
1000
0001
0010
1001
,
0010
0000
0001
0000
0100
0010
0000
0100
,
0000
0000
0000
1001
0000
0000
0000
0000
,
0010
0000
0000
0000
0010
0100
0010
0000
,
0000
1000
0001
0001
,
0010
0000
1000
0000
0100
0010
0000
0100
,
0000
0000
0000
1001
0000
0000
0000
0000
,
0010
0000
0000
0000
0010
0100
0001
0000
,
0000
0100
0000
0000
0010
0001
0100
0000
,
1001
0000
0000
0000
;

//---------------dance-single - ----------------
#NOTES:
     dance-single:
     :
     Hard:
     6:
     :
0000
0000
0000
0000
,
0000
0000
0000
0000
,
0000
0000
0000
0000
,
0000
0000
0000
0000
,
0000
0000
0000
0000
,
0010
0000
0001
0000
0001
0100
0000
0110
,
0000
0000
0000
1001
0000
0000
0000
0000
,
0010
0010
0100
0000
0001
0000
1000
0000
,
0100
0100
0101
1100
,
0010
1000
0001
0000
0001
0100
0000
0110
,
0000
0000
0000
1001
0000
0000
0000
0000
,
0010
0010
0100
0000
0001
0000
1000
0000
,
0010
0000
0001
0000
0001
0100
0001
0000
,
0001
0010
0001
0010
0001
0010
0100
0000
,
0001
0010
0001
0010
0001
0010
0100
0000
,
1000
0100
1000
0001
1000
0100
0001
0000
,
1000
0100
1000
0001
1000
0100
0001
0000
,
1000
0010
1000
0001
1000
0010
0001
0000
,
1000
0010
1000
0001
1000
0010
0001
0000
,
0100
1000
0100
0001
0100
1000
0001
0000
,
0100
1000
0100
0001
0100
1000
0001
0000
,
0010
0000
0010
0000
0001
0000
0001
0100
,
1000
0000
1000
0000
0100
0000
0100
1000
,
0001
0000
0001
0000
0010
0000
0010
1000
,
0001
0000
0001
0000
0100
0000
0100
1000
,
0010
0000
0001
0001
0000
0000
0100
0000
,
0110
0000
0100
0000
1000
0000
1000
0010
,
0001
0000
0100
0000
0100
0001
1000
0000
,
0100
0100
0100
0110
,
0100
1000
0100
0000
1010
0000
0000
0000
,
0010
0001
0010
0000
0011
0000
0000
0000
,
0001
0100
1000
0000
0010
1000
0100
0000
,
0001
0001
0010
0110
,
0100
1000
0100
0000
0101
0000
0000
0000
,
0010
0010
0001
0100
,
0001
1000
0100
0000
1000
0001
0100
0000
,
1000
0100
0010
0001
1000
0000
0110
0000
,
0010
0000
0001
0000
0001
0100
0000
0110
,
0000
0000
0000
1001
0000
0000
0000
0000
,
0010
0010
0100
0000
0001
0000
1000
0000
,
1000
0100
0001
0000
0101
0000
1100
0000
,
0010
1000
0001
0000
0001
0100
0000
0110
,
0000
0000
0000
1001
0000
0000
0000
0000
,
0010
0010
0100
0000
0001
0000
1000
0000
,
0010
0000
0100
0000
0001
1000
0100
0000
,
1001
0000
0000
0000
;

//---------------dance-solo - ----------------
#NOTES:
     dance-solo:
     :
     Easy:
     2:
     :
000000
000000
000000
000000
,
000000
000000
000000
000000
,
000000
000000
000000
000000
,
000000
000000
000000
000000
,
000000
000000
000000
000000
,
000010
100000
000000
000000
,
000100
000000
001000
000000
,
100000
000100
001000
000001
,
000000
100000
000000
000001
,
010000
000001
000000
000000
,
000100
000000
001000
000000
,
100000
000100
001000
000001
,
000000
000000
001000
001000
,
100000
100000
000000
000000
,
000100
000100
000000
000000
,
001000
001000
000000
000000
,
000001
000001
000000
000000
,
010000
100000
100000
000000
,
000010
000001
000001
000000
,
100000
000001
100000
000001
,
000001
100000
000001
100000
,
010000
000000
000000
000000
,
010000
000000
000000
001000
,
000010
000000
000000
000000
,
000010
000000
000000
000000
,
100000
000000
000001
000000
,
100000
000000
000001
000000
,
000001
001000
100000
000000
,
000001
000000
010000
000000
,
000100
001000
000001
000000
,
100000
000001
100000
000000
,
001000
000000
001000
000000
,
000100
000000
001000
000000
,
000100
000000
000010
000000
,
000100
001000
010000
000000
,
001000
001000
001000
000000
,
000100
000100
010000
000010
,
000010
100000
001000
000000
,
000100
000000
001000
000000
,
100000
000100
001000
000001
,
000000
100000
000000
000001
,
000010
100000
001000
000000
,
000100
000000
001000
000000
,
100000
000100
001000
000001
,
000000
000000
010000
001000
,
100001
000000
000000
000000
;

//---------------dance-solo - ----------------
#NOTES:
     dance-solo:
     :
     Medium:
     4:
     :
000000
000000
000000
000000
,
000000
000000
000000
000000
,
000000
000000
000000
000000
,
000000
000000
000000
000000
,
000000
000000
000000
000000
,
000100
000000
000010
000000
001000
000100
000000
001000
,
000000
000000
000000
100001
000000
000000
000000
000000
,
010000
001000
000010
000001
,
001000
001000
000001
000001
,
000100
000000
000010
000000
001000
000100
000000
001000
,
000000
000000
000000
100001
000000
000000
000000
000000
,
000010
001000
010000
100000
,
000000
000000
000000
000000
000100
001000
000100
000000
,
000010
000010
000000
100000
,
010000
010000
000000
000001
,
001000
001000
000000
100000
,
000100
000100
000000
000010
,
000100
010000
100000
101000
,
000100
000010
000001
001001
,
100000
100000
100000
001100
,
000001
100000
000001
100001
,
000010
000100
100000
000001
,
100000
000000
000010
000100
,
100000
010000
100000
001000
,
000001
000010
000001
001000
,
010000
010000
100000
000000
,
000010
000010
000000
001100
,
000001
000010
000100
001000
,
100000
010000
000100
001000
,
100000
001000
000001
000000
000010
000000
000000
000000
,
000001
001000
100000
000000
010000
000000
000000
000000
,
000100
001000
000100
001000
,
010000
000100
000010
000001
,
000100
100000
000001
000000
001000
000000
000000
000000
,
000010
000100
100000
000000
,
000100
010000
000010
001000
,
100000
000001
000100
010010
,
000100
000000
000010
000000
001000
000100
000000
001000
,
000000
000000
000000
100001
000000
000000
000000
000000
,
000100
000000
000000
000000
000100
001000
010000
000000
,
000000
100000
000001
000001
,
000100
000000
010000
000000
001000
000100
000000
001000
,
000000
000000
000000
100001
000000
000000
000000
000000
,
000100
000000
000000
000000
000100
001000
000010
000000
,
000000
001000
000000
000000
000010
000001
001000
000000
,
100001
000000
000000
000000
;

//---------------dance-solo - ----------------
#NOTES:
     dance-solo:
     :
     Hard:
     6:
     :
000000
000000
000000
000000
,
000000
000000
000000
000000
,
000000
000000
000000
000000
,
000000
000000
000000
000000
,
000000
000000
000000
000000
,
000100
000000
000001
000000
000001
001000
000000
001100
,
000000
000000
000000
010010
000000
000000
000000
000000
,
000100
000100
001000
000000
000010
000000
010000
000000
,
001000
001000
001001
101000
,
000100
010000
000001
000000
000001
001000
000000
001100
,
000000
000000
000000
100001
000000
000000
000000
000000
,
000100
000100
001000
000000
000010
000000
010000
000000
,
000100
000000
000001
000000
000001
001000
000001
000000
,
000010
000100
000010
000100
000010
000100
000001
000000
,
000010
000100
000010
000100
000010
000100
000001
000000
,
100000
001000
100000
000001
100000
001000
000001
000000
,
100000
001000
100000
000001
100000
001000
000001
000000
,
010000
000100
010000
000010
010000
000100
000001
000000
,
010000
000100
010000
000010
010000
000100
000001
000000
,
001000
100000
001000
000001
001000
100000
000001
000000
,
001000
100000
001000
000001
001000
100000
000001
000000
,
000010
000000
000010
000000
000001
000000
000001
001000
,
100000
000000
100000
000000
001000
000000
001000
100000
,
000010
000000
000010
000000
000100
000000
000100
100000
,
000001
000000
000001
000000
001000
000000
001000
100000
,
000100
000000
000010
000010
000000
000000
001000
000000
,
001100
000000
001000
000000
100000
000000
100000
000100
,
000001
000000
001000
000000
001000
000001
100000
000000
,
001000
001000
001000
001100
,
010000
100000
010000
000000
100100
000000
000000
000000
,
000010
000001
000010
000000
000101
000000
000000
000000
,
000001
001000
100000
000000
000100
100000
001000
000000
,
000010
000010
000100
001100
,
001000
100000
001000
000000
001001
000000
000000
000000
,
000010
000010
000001
001000
,
000001
100000
001000
000000
010000
000001
001000
000000
,
100000
001000
000100
000001
100000
000000
001100
000000
,
000100
000000
000001
000000
000001
001000
000000
001100
,
000000
000000
000000
010010
000000
000000
000000
000000
,
000100
000100
001000
000000
000010
000000
010000
000000
,
100000
001000
000001
000000
001001
000000
101000
000000
,
000100
010000
000001
000000
000001
001000
000000
001100
,
000000
000000
000000
010010
000000
000000
000000
000000
,
000100
000100
001000
000000
000010
000000
010000
000000
,
000100
000000
001000
000000
000010
100000
001000
000000
,
100001
000000
000000
000000
;

//---------------dance-double - Edit by silenttype01----------------
#NOTES:
     dance-double:
     Edit by silenttype01:
     Easy:
     3:
     0.178,0.209,0.011,0.080,0.000: // measure 1
00000000
00000000
00000000
00000000
,  // measure 2
00000000
00000000
00000000
00000000
,  // measure 3
00000000
00000000
00000000
00000000
,  // measure 4
00000000
00000000
00000000
00000000
,  // measure 5
00000000
00000000
00000000
00000000
,  // measure 6
00001000
00000001
00000000
00000000
,  // measure 7
00001000
00000000
00010000
00000000
,  // measure 8
00010000
01000000
00100000
10000000
,  // measure 9
00000000
00010000
00000000
10000000
,  // measure 10
00010000
10000000
00000000
00000000
,  // measure 11
01000000
00000000
00100000
00000000
,  // measure 12
00010000
01000000
00100000
10000000
,  // measure 13
00000000
00000000
00100000
00100000
,  // measure 14
00010000
00020000
00030000
00000000
,  // measure 15
00001000
00002000
00003000
00000000
,  // measure 16
00000010
00000020
00000030
00000000
,  // measure 17
00000001
00000002
00000003
00000000
,  // measure 18
00000100
00000001
00000001
00000000
,  // measure 19
00000100
00001000
00001000
00000000
,  // measure 20
00010000
00001000
00010000
00001000
,  // measure 21
00001000
00010000
00001000
00010000
,  // measure 22
00020000
00000000
00030000
00000000
,  // measure 23
00001000
00000000
00000000
00000010
,  // measure 24
00000100
00000000
00000000
00000000
,  // measure 25
00000100
00000000
00000000
00000000
,  // measure 26
00010000
00000000
00001000
00000000
,  // measure 27
00010000
00000000
00001000
00000000
,  // measure 28
00010000
00100000
10000000
00000000
,  // measure 29
10000000
00000000
00010000
00000000
,  // measure 30
01000000
00100000
10000000
00000000
,  // measure 31
00010000
10000000
00010000
00000000
,  // measure 32
00100000
00000000
00100000
00000000
,  // measure 33
01000000
00000000
00100000
00000000
,  // measure 34
01000000
00000000
10000000
00000000
,  // measure 35
01000000
00100000
00010000
00000000
,  // measure 36
00100000
00100000
00100000
00000000
,  // measure 37
00001000
00001000
00010000
00001000
,  // measure 38
00000100
00000001
00000010
00000000
,  // measure 39
00000100
00000000
00000010
00000000
,  // measure 40
00000001
00000100
00000010
00001000
,  // measure 41
00000000
00000001
00000000
00001000
,  // measure 42
00000100
00010000
00000010
00000000
,  // measure 43
00000100
00000000
00000010
00000000
,  // measure 44
00010000
00001000
00010000
00001000
,  // measure 45
00000000
00000000
00010000
00001000
,  // measure 46
00022000
00000000
00000000
00033000
;

//---------------dance-double - Edit by silenttype01----------------
#NOTES:
     dance-double:
     Edit by silenttype01:
     Medium:
     5:
     0.257,0.288,0.126,0.046,0.000: // measure 1
00000000
00000000
00000000
00000000
,  // measure 2
00000000
00000000
00000000
00000000
,  // measure 3
00000000
00000000
00000000
00000000
,  // measure 4
00000000
00000000
00000000
00000000
,  // measure 5
00000000
00000000
00000000
00000000
,  // measure 6
00000100
00000000
00001000
00000000
00000010
00000100
00000000
00000010
,  // measure 7
00000000
00000000
00000000
00001001
00000000
00000000
00000000
00000000
,  // measure 8
00000100
00000010
00000100
00001000
,  // measure 9
00010000
00010000
00001000
00001000
,  // measure 10
01000000
00000000
00010000
00000000
00100000
01000000
00000000
00100000
,  // measure 11
00000000
00000000
00000000
10010000
00000000
00000000
00000000
00000000
,  // measure 12
10000000
01000000
00100000
00010000
,  // measure 13
00000000
00000000
00000000
00000000
00000100
00000010
00000100
00000000
,  // measure 14
00000001
00000001
00000000
00000200
,  // measure 15
00000001
00000301
00000000
00002000
,  // measure 16
00000010
00003010
00000000
00020000
,  // measure 17
00001000
00031000
00000000
00010000
,  // measure 18
01000000
00100000
10000000
10100000
,  // measure 19
00010000
01000000
10000000
10100000
,  // measure 20
00010000
00010000
00010000
01100000
,  // measure 21
10000000
00010000
00001000
00001001
,  // measure 22
00000001
00000100
00001000
00000001
,  // measure 23
00001000
00000000
00001000
00000100
,  // measure 24
00000001
00000100
00000001
00000010
,  // measure 25
00001000
01000000
00001000
00100000
,  // measure 26
01000000
01000000
10000000
00000000
,  // measure 27
00010000
00010000
00000000
01100000
,  // measure 28
10000000
00100000
01000000
00100000
,  // measure 29
00010000
00100000
01000000
00100000
,  // measure 30
00010000
00100000
10000000
00000000
01000000
00000000
00000000
00000000
,  // measure 31
10000000
00100000
00010000
00000000
00011000
00000000
00000000
00000000
,  // measure 32
00000100
00000010
00000100
00000010
,  // measure 33
00000001
00000100
00000010
00001000
,  // measure 34
00000100
00010000
00001000
00000000
00000010
00000000
00000000
00000000
,  // measure 35
00001000
00010000
01000000
00000000
,  // measure 36
01000000
00010000
00001000
00000010
,  // measure 37
00000001
00001000
00000100
00001001
,  // measure 38
00000100
00000000
00001000
00000000
00000010
00000100
00000000
00000010
,  // measure 39
00000000
00000000
00000000
00001001
00000000
00000000
00000000
00000000
,  // measure 40
00000100
00000000
00000000
00000000
00000100
00000010
00000100
00000000
,  // measure 41
00000000
00000001
00001000
00010000
,  // measure 42
10000000
00000000
00010000
00000000
00100000
01000000
00000000
00100000
,  // measure 43
00000000
00000000
00000000
10010000
00000000
00000000
00000000
00000000
,  // measure 44
01000000
00000000
00000000
00000000
01000000
00100000
10000000
00000000
,  // measure 45
00000000
00000000
00000000
00000000
00010000
00001000
00010000
00002000
,  // measure 46
00000000
00000000
00000000
00003000
;

//---------------dance-single - Edit by silenttype01----------------
#NOTES:
     dance-single:
     Edit by silenttype01:
     Challenge:
     8:
     0.424,0.446,0.114,0.572,0.052:
0000
0000
0000
0000
,
0000
0000
0000
0000
,
0000
0000
0000
0000
,
0000
0000
0000
0000
,
0000
0000
0000
0000
,
0020
0000
0001
0000
1000
0000
0031
1000
,
0000
0000
0000
1001
0000
0000
0000
0000
,
0002
2003
3002
0203
,
0320
2030
3002
2003
,
3020
0000
1000
0000
0001
0000
1030
0001
,
0000
0000
0000
1001
0000
0000
0000
0000
,
2000
3002
2003
3200
,
0320
0032
2003
3002
,
1003
0100
1000
0001
1000
0010
1000
0000
,
0010
1000
0010
0100
0010
0001
0010
0000
,
0100
1000
0100
0001
0100
0010
0100
0000
,
0001
0010
0001
1000
0001
0100
0001
0000
,
1000
0010
1000
0001
1000
0100
2000
0000
,
3010
0001
0010
1000
0010
0100
0020
0000
,
0130
1000
0100
0010
0100
0001
0200
0000
,
0301
0100
0001
1000
0001
0010
0002
0000
,
2003
0000
3100
0020
0000
0000
0031
2000
,
0000
0000
0000
0000
3001
0100
0000
0100
0001
0000
2000
0000
0000
0000
0000
0000
,
3001
0000
0000
0010
0000
0000
0100
0000
1000
0000
0002
0000
0000
0000
0000
0000
,
0003
0000
0000
0000
1000
0100
0000
0100
1000
0000
0000
0000
0001
0000
1000
0000
,
0020
0000
1030
0001
0200
0000
0300
0001
,
1000
0000
0020
0000
0000
0000
0000
0000
0030
0000
1000
0000
0000
0100
0000
0000
,
0010
0000
0000
0100
0000
0000
1000
0000
0001
0000
0200
0000
0000
0000
0000
0000
,
0300
0000
0000
0000
0001
0100
0000
0100
0001
0000
0000
0000
1001
0000
0000
0000
,
1000
0100
1000
0010
1000
0100
1000
0000
,
0001
0100
0001
0010
0001
0100
0001
0000
,
1000
0100
0001
0100
1000
0100
0001
0000
,
1000
0010
0001
0010
1000
0010
0001
0000
,
0001
0100
0010
0000
1000
0100
0010
0000
,
0001
0100
1000
0000
1000
0100
0001
0000
,
0101
0110
1010
1001
,
2002
0000
0000
3003
,
0020
0000
1000
0000
0001
0000
1030
0001
,
0000
0000
0000
1001
0000
0000
0000
0000
,
0020
0032
0203
2300
,
3020
0032
0203
2300
,
3020
0000
0001
0000
1000
0000
0031
1000
,
0000
0000
0000
1001
0000
0000
0000
0000
,
2000
3020
0032
0203
,
2300
0000
3020
0000
0031
0100
1000
0020
,
0000
0000
0000
0000
0000
0000
0000
0030
;

//---------------dance-double - Edit by silenttype01----------------
#NOTES:
     dance-double:
     Edit by silenttype01:
     Hard:
     8:
     0.407,0.446,0.069,0.595,0.052: // measure 1
00000000
00000000
00000000
00000000
,  // measure 2
00000000
00000000
00000000
00000000
,  // measure 3
00000000
00000000
00000000
00000000
,  // measure 4
00000000
00000000
00000000
00000000
,  // measure 5
00000000
00000000
00000000
00000000
,  // measure 6
00000020
00000000
00000001
00000000
00001000
00000000
00000031
00001000
,  // measure 7
00000000
00000000
00000000
00001001
00000000
00000000
00000000
00000000
,  // measure 8
00000002
00002003
00003002
00000203
,  // measure 9
00020300
02030000
03020000
20030000
,  // measure 10
30200000
00000000
10000000
00000000
00010000
00000000
10300000
00010000
,  // measure 11
00000000
00000000
00000000
10010000
00000000
00000000
00000000
00000000
,  // measure 12
20000000
30020000
20030000
32000000
,  // measure 13
03002000
00003200
00002300
00003002
,  // measure 14
00000013
00000100
00000010
00000001
00000010
00001000
00000010
00000100
,  // measure 15
00010000
00001000
00010000
00100000
00010000
00000100
00010000
00001000
,  // measure 16
00100000
01000000
00100000
00010000
00100000
10000000
00100000
01000000
,  // measure 17
10000000
00100000
00010000
00001000
00100000
00010000
10000000
00100000
,  // measure 18
00010000
00000010
00001000
00000100
00010000
00001000
00000010
00000010
,  // measure 19
00000001
00000100
00001000
00010000
00001000
00000010
00000001
00000001
,  // measure 20
00000100
00001000
00010000
00001000
00000100
00000010
00010000
00010000
,  // measure 21
00000010
00000010
00000010
00000010
00000010
00000010
00000100
00000100
,  // measure 22
00000002
00000000
00000103
00000002
00000000
00000000
00001003
00000020
,  // measure 23
00000000
00000000
00000000
00000000
00010030
00001000
00000000
00001000
00010000
00000000
00002000
00000000
00000000
00000000
00000000
00000000
,  // measure 24
01003000
00000000
00000000
00010000
00000000
00000000
10000000
00000000
00100000
00000000
02000000
00000000
00000000
00000000
00000000
00000000
,  // measure 25
03000000
00000000
00000000
00000000
00010000
00100000
00000000
00100000
00010000
00000000
00000000
00000000
00010000
00000000
10000000
00000000
,  // measure 26
02000000
00000000
13000000
00100000
00020000
00000000
00030000
00001000
,  // measure 27
00010000
00000000
00200000
00000000
00000000
00000000
00000000
00000000
00300000
00000000
10000000
00000000
00000000
01000000
00000000
00000000
,  // measure 28
00010000
00000000
00000000
00001000
00000000
00000000
00000010
00000000
00000001
00000000
00000020
00000000
00000000
00000000
00000000
00000000
,  // measure 29
00000030
00000000
00000000
00000000
00000100
00010000
00000000
00001000
01000000
00000000
00000000
00000000
01100000
00000000
00000000
00000000
,  // measure 30
20000000
01000000
00100000
00010000
,  // measure 31
01000000
30200000
10000000
00010000
,  // measure 32
01000000
10000000
00302000
00000001
,  // measure 33
00010000
00000001
00010000
00003020
,  // measure 34
00010000
00000100
00000001
00001000
,  // measure 35
00020030
00000100
01000000
00000100
,  // measure 36
00000010
00230000
10000000
01300000
,  // measure 37
20020000
00000000
00000000
30030000
,  // measure 38
00200000
00000000
10000000
00000000
00010000
00000000
10300000
00010000
,  // measure 39
00000000
00000000
00000000
10010000
00000000
00000000
00000000
00000000
,  // measure 40
20000000
30020000
20030000
32000000
,  // measure 41
03002000
00003200
00002300
00003002
,  // measure 42
00000023
00000000
00000001
00000000
00001000
00000000
00000031
00001000
,  // measure 43
00000000
00000000
00000000
00001001
00000000
00000000
00000000
00000000
,  // measure 44
00000002
00002003
00003002
00000203
,  // measure 45
00020300
00000000
02030000
00000000
03010000
01000000
10000000
00200000
,  // measure 46
00000000
00000000
00000000
00000000
00000000
00000000
00000000
00300000
;
