#TITLE:HYSTERIA;
#SUBTITLE:;
#ARTIST:NAOKI 190;
#TITLETRANSLIT:;
#SUBTITLETRANSLIT:;
#ARTISTTRANSLIT:;
#CREDIT:;
#BANNER:HYSTERIA.png;
#BACKGROUND:HYSTERIA-bg.png;
#LYRICSPATH:;
#CDTITLE:Dance Dance Revolution Solo.png;
#MUSIC:HYSTERIA.ogg;
#OFFSET:0.000;
#SAMPLESTART:71.952;
#SAMPLELENGTH:15.000;
#SELECTABLE:YES;
#DISPLAYBPM:190.000;
#BPMS:0.000=190.225,16.000=190.127;
#STOPS:;
#BGCHANGES:;

//---------------dance-single - ----------------
#NOTES:
     dance-single:
     :
     Beginner:
     2:
     0.200,0.270,0.156,0.000,0.000:
0000
0000
0000
0000
,
0000
0000
0000
0000
,
0000
0000
0000
0000
,
0000
0000
0000
0000
,
0000
0000
0000
0000
,
0001
0000
0000
0000
,
0001
0000
0000
0000
,
1000
0000
0000
0000
,
1000
0000
0000
0000
,
1001
0000
0000
0000
,
0001
0000
0000
0000
,
0100
0000
0000
0000
,
1000
0000
0000
0000
,
1001
0000
0000
0000
,
0001
0000
0000
0000
,
0100
0000
0000
0000
,
1000
0000
0000
0000
,
0010
0000
0010
0000
,
0001
0000
0001
0000
,
0010
0000
0001
0000
,
0010
0000
0001
0000
,
0010
0000
0010
0000
,
1000
0000
1000
0000
,
0010
0000
1000
0000
,
0010
0000
1000
0000
,
0010
0000
0010
0000
,
0001
0000
0001
0000
,
0010
0000
0001
0000
,
0010
0000
0001
0000
,
0010
0000
0010
0000
,
1000
0000
1000
0000
,
0010
0000
1000
0000
,
0010
0000
1000
0000
,
1001
0000
0000
0000
,
1000
0000
0100
0000
,
1001
0000
0000
0000
,
0001
0000
0001
0000
,
1001
0000
0000
0000
,
0010
0000
0100
0000
,
1001
0000
0000
0000
,
0100
0100
0100
0000
,
0000
1000
0000
0001
,
0000
1000
0000
0001
,
0000
1000
0000
0001
,
0000
0100
0100
0100
,
0000
1000
0000
0001
,
0000
1000
0000
0001
,
0000
0100
0100
0100
,
0000
0100
0000
0000
,
0000
0010
0000
0001
,
0000
0100
0000
0001
,
0000
0010
0000
1000
,
0000
0010
0000
1000
,
0000
0010
0000
1000
,
0000
0100
0000
1001
,
0000
0100
0000
0100
,
0000
0100
0000
0000
,
1001
0000
0000
0000
,
1000
0000
0100
0000
,
1001
0000
0000
0000
,
0001
0000
0001
0000
,
1001
0000
0000
0000
,
0010
0000
0100
0000
,
1001
0000
0000
0000
,
0100
0100
0100
0000
,
1001
0000
0000
0000
,
1000
0000
0100
0000
,
1001
0000
0000
0000
,
0001
0000
0001
0000
,
1001
0000
0000
0000
,
0010
0000
0100
0000
,
1001
0000
0000
0000
,
0100
0100
0100
0000
,
1000
1000
0000
0001
,
0001
0000
0000
0000
;

//---------------dance-single - ----------------
#NOTES:
     dance-single:
     :
     Easy:
     4:
     0.366,0.501,0.229,0.000,0.000:
0000
0000
0000
0000
,
0000
0000
0000
0000
,
0000
0000
0000
0000
,
0000
0000
0000
0000
,
0000
0000
0000
1000
,
0001
0001
1000
1000
,
0100
0010
0010
0010
,
1000
1000
0100
0100
,
1001
0100
0001
0000
,
1001
0010
0010
0010
,
0100
0001
0010
0100
,
1000
0010
0100
0001
,
1001
0100
0001
0010
,
0100
1000
0000
1000
,
0000
0001
0001
0000
,
0000
1000
1000
0000
,
0001
0100
1000
0000
,
0010
1000
0010
0100
,
1001
0110
1001
0000
,
0010
1000
0001
0000
,
0010
0001
1000
0000
,
0010
0100
0001
0010
,
0100
1000
0001
0000
,
1000
0100
0010
0001
,
0100
0001
1000
0000
,
0001
0001
0001
0001
,
0000
1000
0000
0001
,
0010
0001
1000
0000
,
0010
1000
0001
0000
,
0010
0100
1000
0100
,
0010
0001
1000
0000
,
0001
0100
0010
1000
,
0100
0010
0001
0000
,
0000
0010
0001
0000
,
0100
0001
1000
0001
,
0000
0010
0001
0000
,
0100
0001
1000
0000
,
0000
0010
1000
0100
,
1001
0100
0001
1000
,
0000
0010
1000
0100
,
1001
0100
0001
0000
,
0000
1000
0000
0001
,
0000
1000
0000
0001
,
0000
1000
0000
0001
,
0000
0010
0100
0100
,
0000
1000
0001
0100
,
0001
1000
0100
0000
,
1000
1000
0001
0001
,
1000
1000
0000
0001
,
0001
1000
0010
0100
,
1001
0110
1001
0000
,
0010
1000
0010
0000
,
0001
0001
1000
0000
,
0010
1000
0100
1000
,
0001
0010
1001
0000
,
0010
1000
0100
1000
,
0001
1000
1001
0000
,
0000
0010
1000
0000
,
0100
1000
0001
1000
,
0000
0010
0001
0100
,
1001
0100
1000
0000
,
0000
0010
1000
0100
,
1001
0100
0001
1000
,
0000
0010
0100
0001
,
1001
0100
0001
0000
,
0000
0010
0001
0000
,
1000
0100
1000
0001
,
0000
0010
0001
0100
,
1001
0010
1000
0000
,
0000
0010
1000
0100
,
1001
0100
0001
1000
,
0000
0010
1000
0100
,
1001
0100
0010
1001
,
0100
0010
1001
0100
,
1001
0000
0000
0000
;

//---------------dance-single - ----------------
#NOTES:
     dance-single:
     :
     Medium:
     6:
     0.418,0.501,0.313,0.000,0.000:
0000
0000
0000
0000
,
0000
0000
0000
0000
,
0000
0000
0000
0000
,
0000
0000
0000
0000
,
0000
0000
0000
1000
,
0001
1000
0100
0001
,
0100
1000
0010
0001
,
0010
1000
0001
0100
,
0010
1000
0001
0000
1000
0000
0000
0000
,
0101
0010
1000
0100
,
1001
0100
0010
1000
,
0001
0010
0001
0010
,
1100
0101
1001
0010
,
0100
0000
0001
1000
0000
0000
0000
0000
,
0000
0001
0000
0001
0000
0000
0000
0000
,
1000
1000
0000
1000
0000
0000
0000
0000
,
0000
0001
0000
0000
1000
0000
0000
0000
,
0010
0001
0010
0100
,
1001
0110
1001
0000
,
0001
0001
0001
0000
,
1000
1000
1000
0000
,
0010
0100
1000
0100
,
0001
0010
1000
0000
,
0001
0100
1000
0100
,
0010
0001
1000
0000
,
0001
1000
0001
0000
0000
0000
1000
0000
,
0000
1000
0000
1000
,
0010
0100
0001
0000
,
0010
0100
0010
0000
,
1000
0001
1000
0001
,
1010
0101
1001
0000
,
0001
1000
0001
1000
,
1010
0101
1001
0000
,
0000
0010
0001
0000
,
1100
0101
1000
0001
,
0000
1010
0101
0000
,
1000
0100
0010
0000
0001
0000
0000
0000
,
0000
0000
0001
0100
0010
0000
0000
0000
,
1000
0100
0010
0000
0001
0000
1000
0000
,
0000
0000
1000
0100
0010
0000
0000
0000
,
0001
0100
0010
0000
1000
0000
0000
0000
,
1000
0100
0001
0100
,
1000
0010
0001
0010
,
1000
0100
0001
0100
,
0000
0100
0001
0000
1000
0010
1000
0010
,
0000
1000
0001
0100
,
0001
0100
1000
0000
,
0010
1000
0000
0100
0010
0000
0001
0100
,
0000
0010
1000
0000
0000
0100
0100
0100
,
1000
0001
0010
0100
,
1001
0110
1001
0000
,
0010
1000
0010
0000
0100
0000
0000
0000
,
0001
0001
0001
0000
1000
0000
0000
0000
,
0010
1000
0100
0001
,
1000
0010
1001
0000
,
0010
0001
0100
1000
,
0001
1000
1001
0000
,
0000
0010
0001
0000
,
1100
0101
1000
0001
,
0000
0011
1100
0010
,
0100
0010
0100
0000
0001
0000
0000
0000
,
0000
0000
1000
0100
0010
0000
0000
0000
,
0001
0100
0010
0000
1000
0000
1000
0000
,
0000
0000
0001
0100
0010
0000
0000
0000
,
1000
0100
0010
0000
0001
0000
0000
0000
,
0000
0010
0001
0000
,
1100
0101
1000
0001
,
0000
0000
1000
0100
0010
0000
0000
0000
,
0001
0100
0010
0000
1000
0000
0000
0000
,
0000
0000
0001
0100
0010
0000
0000
0000
,
1000
0100
0010
0000
0001
0000
1000
0000
,
0000
0000
1000
0100
0010
0000
0000
0000
,
0001
0100
0010
0000
1000
0000
1000
0100
,
0010
0000
0001
0000
0001
0100
0010
0000
,
1001
0000
0000
0000
;

//---------------dance-single - ----------------
#NOTES:
     dance-single:
     :
     Hard:
     8:
     0.536,0.694,0.594,0.000,0.000:
0000
0000
0000
0000
,
0000
0000
0000
0000
,
0000
0000
0000
0000
,
0000
0000
0000
0000
,
0000
0000
0000
0001
,
1000
0000
0010
1000
0100
0000
1000
0000
,
0010
0000
0100
0010
1000
0000
0001
0000
,
0010
0000
0100
1000
0100
0000
0100
0000
,
1000
0100
1000
0000
0001
0000
0000
0000
,
0110
1001
0101
0010
,
1001
1100
0101
1010
,
0101
0011
1100
1001
,
0101
1010
1001
0010
,
0100
0010
0001
1000
0000
0000
1000
0000
,
0000
0001
0000
0010
0000
0000
1000
0000
,
0001
0010
0000
0001
0000
0000
1000
0000
,
0000
0001
0000
0000
1000
0000
0000
0000
,
0010
1000
0010
0000
1000
1000
0001
0000
,
0011
1100
1001
0000
,
0001
0100
1000
0000
0100
0000
0000
0000
,
1000
0100
0001
0000
1000
0000
0000
0000
,
0010
0100
0001
1000
,
0001
1000
0001
0000
1000
0000
0000
0000
,
0001
0001
0100
0000
1000
0000
0100
0000
,
0010
0100
1000
0000
0001
0000
0000
0000
,
0001
0010
0100
0000
1000
0000
0010
0000
,
0100
0100
0010
1000
,
1000
0010
0001
0010
1000
0000
0000
0000
,
0001
0010
1000
0010
0001
0000
0000
0000
,
1000
0001
1000
0010
0100
0001
0100
0000
,
1010
1001
0110
0000
,
0100
0010
0100
0001
1000
0001
1000
0000
,
1100
1001
0110
0000
,
0000
0000
0010
1000
0010
0000
0000
0000
,
1000
0000
0001
0000
0010
0001
0010
0000
,
0000
1000
0001
0000
,
1001
0010
0100
0000
1001
0000
0000
0000
,
0000
0000
0001
0010
0001
0000
0000
0000
,
1001
0010
0100
0000
1001
0000
1001
0000
,
0000
0000
1000
0010
1000
0000
0000
0000
,
1001
0010
0100
0000
1001
0000
0000
0000
,
1000
0001
0100
0000
0001
1000
0100
0000
,
1000
0001
0010
0000
0001
1000
0010
0000
,
1000
0001
0100
0000
0001
1000
0100
0000
,
0000
0010
0001
0000
1000
0100
1000
0100
,
0010
0010
0001
0000
0100
0100
0010
0000
,
1000
1000
0001
0000
0010
0010
0100
0000
,
1000
0100
0000
0010
0001
0000
0100
0010
,
0000
1000
0100
0000
0000
1000
0010
1000
,
0010
1000
0010
0000
0100
0100
0001
0000
,
1010
1100
1001
0000
,
0001
0100
1000
0000
0100
0000
0000
0000
,
1000
0100
0001
0000
1000
0000
0000
0000
,
1000
0001
1000
0010
0100
0001
0100
0000
,
1010
1001
0110
0000
,
0100
0010
0100
0001
1000
0001
1000
0000
,
1100
1001
0110
0000
,
0000
0000
0010
1000
0010
0000
0000
0000
,
1000
0000
0001
0000
0010
0001
0010
0000
,
0000
1000
0001
0000
,
1001
0010
0100
0000
1001
0000
0000
0000
,
0000
0000
0100
0010
0100
0000
0000
0000
,
1001
0010
0100
0000
1001
0000
1001
0000
,
0000
0000
1000
0100
0001
0000
0000
0000
,
1001
0100
0010
0000
1001
0000
0000
0000
,
0000
0000
1000
0010
1000
0000
0000
0000
,
1000
0000
0001
0000
0001
0010
0001
0000
,
0000
0000
1000
0100
0001
0000
0000
0000
,
1001
0100
0010
0000
1001
0000
0000
0000
,
0000
0000
0010
0100
0010
0000
0000
0000
,
1001
0100
0010
0000
1001
0000
1001
0000
,
0000
0000
0001
0100
0001
0000
0000
0000
,
1001
0100
0010
0000
1001
0000
1001
0010
,
0100
0000
1001
0000
1001
0010
0100
0000
,
1001
0000
0000
0000
;

//---------------dance-double - ----------------
#NOTES:
     dance-double:
     :
     Easy:
     3:
     0.235,0.347,0.000,0.000,0.000:
00000000
00000000
00000000
00000000
,
00000000
00000000
00000000
00000000
,
00000000
00000000
00000000
00000000
,
00000000
00000000
00000000
00000000
,
00000000
00000000
00000000
00000001
,
00000100
00000000
00000001
00000000
,
00001000
00000000
00000100
00000000
,
00010000
00000000
00001000
00000000
,
00100000
00000000
01000000
00000000
,
01000000
00000000
10000000
00000000
,
00010000
00000000
00010000
00000000
,
00001000
00000000
00001000
00000000
,
00000001
00000000
00000001
00000000
,
00000100
00000000
00001000
00000000
,
00100000
00000000
01000000
00000000
,
10000000
00000000
01000000
00000000
,
00010000
00000000
01000000
00000000
,
10000000
00000000
10000000
00000000
,
01000000
00000000
01000000
00000000
,
00010000
00000000
00001000
00000000
,
00000100
00000000
00000001
00000000
,
00000001
00000000
00001000
00000000
,
00000100
00000000
00000100
00000000
,
00010000
00000000
00001000
00000000
,
00100000
00000000
01000000
00000000
,
10000000
00000000
01000000
00000000
,
00010000
00000000
01000000
00000000
,
00001000
00000000
00010000
00000000
,
00000001
00000000
00000100
00000000
,
00001000
00000000
00000100
00000000
,
00010000
00000000
01000000
00000000
,
10000000
00000000
00010000
00000000
,
10000000
00000000
01000000
00000000
,
00001000
00000000
00010000
00000000
,
00000010
00000010
00000100
00000100
,
00010000
00000000
00001000
00000000
,
00100000
00100000
01000000
00000000
,
00001000
00000000
00010000
00000000
,
00000010
00000010
00000100
00000100
,
00010000
00000000
00001000
00000000
,
00100000
00100000
01000000
00000000
,
00010000
00000000
01000000
00000000
,
10000000
00000000
01000000
00000000
,
00010000
00000000
00001000
00000000
,
00000001
00000000
00000001
00000000
,
00000001
00000000
00000100
00000000
,
00001000
00000000
00000100
00000000
,
00010000
00000000
00000000
00000000
,
00000000
00000000
00000000
00000000
,
00000001
00000000
00001000
00000000
,
00000001
00000000
00000100
00000000
,
00001000
00000000
00000100
00000000
,
00010000
00000000
00001000
00000000
,
10000000
00000000
10000000
00000000
,
10000000
00000000
10000000
00000000
,
00010000
00000000
01000000
00000000
,
00001000
00000000
00000001
00000000
,
00001000
00000000
00010000
00000000
,
00000010
00000010
00000100
00000100
,
00010000
00000000
00001000
00000000
,
00100000
00100000
01000000
00000000
,
00001000
00000000
00010000
00000000
,
00000010
00000010
00000100
00000100
,
00010000
00000000
00001000
00000000
,
00100000
00100000
01000000
00000000
,
00001000
00000000
00010000
00000000
,
00000010
00000010
00000100
00000100
,
00010000
00000000
00001000
00000000
,
00100000
00100000
01000000
00000000
,
00001000
00000000
00010000
00000000
,
00000010
00000010
00000100
00000100
,
00010000
00000000
00001000
00000000
,
00100000
00100000
01000000
00010000
,
00010000
00001000
00000100
00000100
,
00000001
00000000
00000000
00000000
;

//---------------dance-double - ----------------
#NOTES:
     dance-double:
     :
     Medium:
     5:
     0.427,0.578,0.083,0.000,0.000:
00000000
00000000
00000000
00000000
,
00000000
00000000
00000000
00000000
,
00000000
00000000
00000000
00000000
,
00000000
00000000
00000000
00000000
,
00000000
00000000
00000000
10000000
,
10000000
01000000
00010000
01000000
,
01000000
00010000
00010000
00010000
,
00001000
00010000
00000010
00000100
,
00000001
00000001
00000001
00000000
,
00000001
00000100
00001000
00000100
,
00000001
00000100
00000100
00000000
,
00010000
00001000
00100000
01000000
,
10000000
01000000
01000000
00000000
,
00010000
01000000
10000000
01000000
,
00010000
00001000
00000100
00000001
,
00001000
00000100
00000001
00000100
,
00010000
00001000
01000000
00000000
,
10000000
01000000
00010000
01000000
,
00001000
00010000
00000100
00001000
,
00000001
00000100
00010000
00001000
,
00100000
01000000
00010000
00001000
,
00000100
00000010
00001000
00000100
,
00000001
00000100
00010000
00100000
,
00010000
01000000
10000000
01000000
,
00100000
00001000
01000000
00010000
,
10000000
10000000
10000000
10000000
,
00010000
10000000
01000000
00010000
,
00001000
00000100
00000001
00001000
,
00000001
00000001
00000001
00000001
,
00001000
00000100
00000001
00000100
,
00000010
00001000
00000100
00010000
,
00001000
00100000
01000000
00010000
,
10000000
01000000
00010000
01000000
,
00000000
00000000
00010000
00001000
00010000
00000000
00000000
00000000
,
00000010
00001000
00000100
00000000
00000001
00000000
00000100
00000000
,
00000000
00000000
00001000
00010000
00001000
00000000
00000000
00000000
,
00100000
00010000
01000000
00000000
10010000
00000000
00000000
00000000
,
00000000
00000000
00010000
00001000
00010000
00000000
00000000
00000000
,
00000010
00001000
00000100
00000000
00000001
00000000
00000100
00000000
,
00000000
00000000
00001000
00010000
00001000
00000000
00000000
00000000
,
00100000
00010000
01000000
00000000
10010000
00000000
00000000
00000000
,
00001000
00010000
00000100
00000001
,
00000100
00001000
00000010
00000100
,
00001000
01000000
10000000
01000000
,
00001000
00010000
00000100
00000100
,
00000001
00000100
00001000
00000100
,
00100000
01000000
10000000
01000000
,
00010000
01000000
00000000
10000000
01000000
00000000
00010000
00001000
,
00000000
00000100
00000001
00000000
00000000
00000000
00000000
00000000
,
00001000
00000100
00000001
00000100
,
00010000
00001000
01000000
00100000
,
10000000
01000000
00010000
01000000
,
00001000
00010000
00000100
00001000
,
00000001
00000100
00010000
00001000
,
00100000
01000000
00010000
00001000
,
00000100
00000010
00001000
00000100
,
00000001
00000100
00010000
00100000
,
00000000
00000000
00010000
00001000
00010000
00000000
00000000
00000000
,
00000010
00001000
00000100
00000000
00000001
00000000
00000100
00000000
,
00000000
00000000
00001000
00010000
00001000
00000000
00000000
00000000
,
00100000
00010000
01000000
00000000
10010000
00000000
00000000
00000000
,
00000000
00000000
00010000
00001000
00010000
00000000
00000000
00000000
,
00000010
00001000
00000100
00000000
00000001
00000000
00000100
00000000
,
00000000
00000000
00001000
00010000
00001000
00000000
00000000
00000000
,
00100000
00010000
01000000
00000000
10010000
00000000
00000000
00000000
,
00100000
00000000
00100000
10000000
01000000
00000000
00010000
00000000
,
00001000
00000100
00000001
00000000
00001000
00000000
00001000
00000000
,
00000010
00000000
00000010
00000001
00000100
00000000
00001000
00000000
,
00010000
01000000
10000000
00000000
10010000
00000000
00000000
00000000
,
00100000
00000000
00100000
10000000
01000000
00000000
00010000
00000000
,
00001000
00000100
00000001
00000000
00001000
00000000
00001000
00000000
,
00000010
00000000
00000010
00000001
00000100
00000000
00001000
00000000
,
00010000
01000000
10000000
00000000
10010000
00000000
00100000
00010000
,
01000000
00000000
00011000
00000000
00001000
00000100
00000001
00000000
,
00001001
00000000
00000000
00000000
;

//---------------dance-double - ----------------
#NOTES:
     dance-double:
     :
     Hard:
     7:
     0.451,0.578,0.177,0.000,0.000:
00000000
00000000
00000000
00000000
,
00000000
00000000
00000000
00000000
,
00000000
00000000
00000000
00000000
,
00000000
00000000
00000000
00000000
,
00000000
00000000
00000000
10000000
,
00010000
00000000
01000000
00000000
00010000
01000000
00010000
00000000
,
10000000
00000000
01000000
00000000
10000000
01000000
10000000
00000000
,
00001000
00010000
00000010
00000100
,
00000001
00001000
00000001
00001000
00000001
00001000
00000100
00000000
,
00000001
00000100
00001000
00000100
,
00000001
00000100
00000001
00000000
00001000
00000000
00000000
00000000
,
00010000
00001000
00010000
00000000
00100000
00000000
01000000
00000000
,
10000000
01000000
10000000
00000000
00010000
00000000
00000000
00000000
,
00010000
01000000
10000000
01000000
,
00010000
00001000
00000100
00000000
00000001
00000000
00000000
00000000
,
00001000
00000100
00000001
00000100
,
00010000
00001000
00010000
00000000
01000000
00000000
00000000
00000000
,
10000000
01000000
10000000
00000000
00010000
00000000
01000000
00000000
,
00001000
00010000
00000100
00000000
00000100
00000000
00000000
00000000
,
00000001
00000100
00010000
00001000
,
00100000
01000000
00100000
00000000
00010000
00000000
00000000
00000000
,
00000100
00000010
00001000
00000100
,
00000001
00000100
00000001
00000000
00001000
00000000
00000000
00000000
,
00010000
00100000
00010000
00000000
10000000
00000000
01000000
00000000
,
00100000
00001000
00010000
00000000
01000000
00000000
00000000
00000000
,
00000000
01000000
00000000
10010000
,
00000000
00001000
00000000
00001010
,
00000000
00000001
00000000
00001100
,
00000000
00000000
00000000
00000110
,
00000000
00001000
00001000
00000000
00000000
00000000
01010000
00000000
,
00000000
00001000
00000000
00010010
,
00000000
00000000
00000000
01001000
,
00000000
00000000
00000000
00000000
,
00000000
00000000
00100000
10000000
01000000
00000000
00010000
00000000
,
00000010
00001000
00000100
00000000
00000001
00000000
00000100
00000000
,
00000000
00000000
00000010
00000001
00000100
00000000
00001000
00000000
,
00100000
00010000
01000000
00000000
10010000
00000000
00000000
00000000
,
00000000
00000000
00100000
10000000
01000000
00000000
00010000
00000000
,
00000010
00001000
00000100
00000000
00000001
00000000
00000100
00000000
,
00000000
00000000
00000010
00000001
00000100
00000000
00001000
00000000
,
00100000
00010000
01000000
00000000
10010000
00000000
00000000
00000000
,
00100000
10000000
01000000
00000000
00100000
00010000
01000000
00000000
,
00000010
00001000
00000100
00000000
00000010
00000001
00000100
00000000
,
00000010
00000001
00000100
00000000
00000010
00001000
00000100
00000000
,
00100000
00010000
01000000
00000000
00100000
10000000
01000000
00000000
,
00010000
01000000
10000000
01000000
,
00100000
01000000
10000000
01000000
,
00010000
01000000
00000000
00100000
01000000
00000000
00001000
00010000
,
00000000
00000100
00000010
00000000
00000000
00000100
00001000
00000100
,
00001000
00000100
00000001
00000000
00000001
00000000
00000100
00000000
,
00010000
00001000
00100000
00010000
,
10000000
01000000
00010000
00100000
,
00001000
00010000
00000100
00001000
,
00000001
00000001
00000100
00000100
,
00001000
00001000
00010000
00010000
,
01000000
01000000
10000000
10000000
,
00000000
01010000
00000000
00011000
,
00000000
00000000
00100000
10000000
01000000
00000000
00010000
00000000
,
00000010
00001000
00000100
00000000
00000001
00000000
00000100
00000000
,
00000000
00000000
00000010
00000001
00000100
00000000
00001000
00000000
,
00100000
00010000
01000000
00000000
10010000
00000000
00000000
00000000
,
00000000
00000000
00100000
10000000
01000000
00000000
00010000
00000000
,
00000010
00001000
00000100
00000000
00000001
00000000
00000100
00000000
,
00000000
00000000
00000010
00000001
00000100
00000000
00001000
00000000
,
00100000
00010000
01000000
00000000
10010000
00000000
00000000
00000000
,
00000000
00000000
00010000
10000000
00010000
00000000
00001000
00000000
,
00001000
00000001
00001000
00000000
00000100
00000000
00000100
00000000
,
00000000
00000000
00001000
00000001
00001000
00000000
00010000
00000000
,
00010000
10000000
00010000
00000000
10010000
00000000
00000000
00000000
,
00000000
00000000
00010000
10000000
00010000
00000000
00001000
00000000
,
00001000
00000001
00001000
00000000
00000100
00000000
00000100
00000000
,
00000000
00000000
00001000
00000001
00001000
00000000
00010000
00000000
,
00010000
10000000
00010000
00000000
10010000
00000000
00001000
00010000
,
00001000
00000000
00011000
00000000
00000001
00001000
00000001
00000000
,
00001001
00000000
00000000
00000000
;

//---------------dance-couple - ----------------
#NOTES:
     dance-couple:
     :
     Challenge:
     7:
     0.655,1.000,1.000,0.000,0.000:
00000000
00000000
00000000
00000000
,
00000000
00000000
00000000
00000000
,
00000000
00000000
00000000
00000000
,
00000000
00000000
00000000
00000000
,
00000000
00000000
00000000
10000000
,
00000001
00010000
00001000
10000000
,
00000100
01000000
00000010
00100000
,
00001000
10000000
00000100
01000000
,
00000001
00010000
00000100
00000000
,
11000000
00100000
00010000
01000000
,
00001100
00000010
00000001
00000100
,
00100000
00000010
00100000
00000010
,
11001100
01010101
10011001
00100010
,
01000100
00000000
00010001
10001000
00000000
00000000
00000000
00000000
,
00000000
00010001
00000000
00010001
00000000
00000000
00000000
00000000
,
10001000
10001000
00000000
10001000
00000000
00000000
00000000
00000000
,
00000000
00010001
00000000
00000000
10001000
00000000
00000000
00000000
,
00100000
10000001
00100000
01000001
,
10010000
01100001
10010000
00000000
,
00000010
10001000
00000010
10000100
,
00001001
10000110
00001001
00000000
,
00100000
01000001
00010000
00100001
,
01000000
10000001
00010000
00000000
,
00000010
10000100
00000001
10000010
,
00000100
10001000
00000001
00000000
,
00011000
00100010
01000100
00000000
10000001
00000000
00100010
00000000
,
01000100
01000100
00100010
10000001
,
10000000
00100000
00010000
00100000
10000000
00000000
00000000
00000000
,
00000001
00000010
00001000
00000010
00000001
00000000
00000000
00000000
,
00010000
10000000
00010000
00100000
01000000
10000000
01000000
00000000
,
00110000
10010000
01100000
00000000
,
00001000
00000001
00001000
00000010
00000100
00000001
00000100
00000000
,
00001010
00001001
00000110
00000000
,
00000000
00100010
10000001
00000000
,
01010000
00001100
10000001
00011000
,
00000000
10100000
00000011
00000000
,
00011000
01000100
00100010
00000000
10000001
00000000
00000000
00000000
,
00000000
00000000
10000001
01000100
00100010
00000000
00000000
00000000
,
00011000
01000100
00100010
00000000
10000001
00000000
00011000
00000000
,
00000000
00000000
10001000
01000100
00100010
00000000
00000000
00000000
,
00010001
01000100
00100010
00000000
10001000
00000000
00000000
00000000
,
00000000
10000000
00000000
00000001
,
00000000
00010000
00000000
00001000
,
00000000
10000000
00000000
00000001
,
00000000
00100010
01000100
01000100
,
00000000
10001000
00010001
01000100
,
00010001
10001000
01000100
00000000
,
10000000
10000000
00000001
00000001
,
10001000
10001000
00000000
00010001
,
10000000
00000010
00010000
00000100
,
10010000
01100110
00001001
00000000
,
00100000
10000000
00100000
00000000
01000000
00000000
00000000
00000000
,
00000010
00001000
00000010
00000000
00000100
00000000
00000000
00000000
,
00100000
00010000
01000000
10000000
,
00010000
10000000
10010000
00000000
,
00000010
00000001
00000100
00001000
,
00000001
00001000
00001001
00000000
,
00000000
00000000
00100001
10000000
00100001
00000000
00000000
00000000
,
10000000
00000000
00010001
00000000
00100000
00010000
00100001
00000000
,
00000000
10000001
00010001
00000000
,
10010000
00100000
01000001
00000000
10010001
00000000
00000000
00000000
,
00000000
00000000
01000100
00100010
01000100
00000000
00000000
00000000
,
10011001
00100010
01000100
00000000
10011001
00000000
10011001
00000000
,
00000000
00000000
10001000
01000100
00010001
00000000
00000000
00000000
,
10011001
01000100
00100010
00000000
10011001
00000000
00000000
00000000
,
00000000
00000000
10000010
00001000
10000010
00000000
00000000
00000000
,
00001000
00000000
10000001
00000000
00000010
00000001
10000010
00000000
,
00000000
10001000
10000001
00000000
,
00001001
00000010
10000100
00000000
10001001
00000000
00000000
00000000
,
00000000
00000000
00100010
01000100
00100010
00000000
00000000
00000000
,
10011001
01000100
00100010
00000000
10011001
00000000
10011001
00000000
,
00000000
00000000
00010001
01000100
00010001
00000000
00000000
00000000
,
10011001
01000100
00100010
00000000
10011001
00000000
10011001
00100010
,
01000100
00000000
10011001
00000000
10011001
00100010
01000100
00000000
,
10011001
00000000
00000000
00000000
;

//---------------dance-solo - ----------------
#NOTES:
     dance-solo:
     :
     Easy:
     5:
     0.375,0.501,0.104,0.000,0.000:
000000
000000
000000
000000
,
000000
000000
000000
000000
,
000000
000000
000000
000000
,
000000
000000
000000
000000
,
000000
000000
000000
010000
,
000010
100000
001000
000001
,
001000
000100
000100
000100
,
100000
100000
001000
001000
,
100000
000001
001000
000000
100000
000000
000000
000000
,
100001
000100
000100
000100
,
010000
100000
000010
000001
,
010000
000100
000010
000100
,
100000
000100
000001
000000
100000
000000
000100
000000
,
001000
000001
000000
100000
,
000000
000001
000001
000000
,
000000
100000
100000
000000
,
000001
001000
100000
000000
,
010000
000010
000100
001000
,
100001
001100
100001
000000
,
000010
000001
010000
000000
,
010000
100000
000010
000000
,
000100
010000
100000
001000
,
000001
000010
010000
000000
,
000001
001000
100000
010000
,
000100
000010
010000
000000
,
000001
100000
000000
000000
000000
000000
000001
000000
,
000000
100000
000000
000001
,
000010
000001
010000
000000
,
010000
100000
000010
000000
,
000100
010000
100000
001000
,
000001
000010
010000
000000
,
000001
001000
100000
010000
,
000100
000010
010000
000000
,
000000
000100
100000
000000
,
001000
000001
010000
000010
,
000000
000100
000001
000000
,
001000
100000
000001
000000
,
000000
000100
100000
001000
,
000001
001000
100000
000000
000001
000000
100000
000000
,
000000
000100
000001
001000
,
100000
001000
000001
000000
100000
000000
000000
000000
,
000000
100000
000000
000001
,
000000
100000
000000
000001
,
000000
100000
000000
000001
,
000000
100000
000100
000000
000010
000010
000010
000010
,
000000
000001
100000
001000
,
000001
001000
100000
000000
,
100000
000001
000000
100000
000001
000000
100000
000001
,
000000
100000
000001
000000
000000
001000
001000
001000
,
100000
000001
000100
001000
,
100001
001100
100001
000000
,
010000
010000
000010
000000
,
000001
000001
100000
000000
,
000100
100000
001000
000001
,
010000
000010
100001
000000
,
000100
000001
001000
100000
,
000001
100000
010010
000000
,
000000
000100
100000
000000
,
001000
000001
010000
000010
,
000000
000100
000001
001000
,
100000
001000
000001
000000
100000
000000
000000
000000
,
000000
000100
100000
001000
,
000001
001000
100000
000000
000001
000000
100000
000000
,
000000
000100
000001
001000
,
100000
001000
000001
000000
100000
000000
000000
000000
,
000000
000100
100000
000000
,
001000
000001
010000
000010
,
000000
000100
000001
001000
,
100000
001000
000001
000000
100000
000000
000000
000000
,
000000
000100
100000
001000
,
000001
001000
100000
000000
000001
000000
100000
000000
,
000000
000100
000001
001000
,
100000
001000
000001
000000
100000
000000
000001
001000
,
100000
000000
000001
000000
100000
001000
000001
000000
,
100001
000000
000000
000000
;

//---------------dance-solo - ----------------
#NOTES:
     dance-solo:
     :
     Medium:
     6:
     0.438,0.617,0.448,0.000,0.000:
000000
000000
000000
000000
,
000000
000000
000000
000000
,
000000
000000
000000
000000
,
000000
000000
000000
000000
,
000000
000000
000000
010000
,
000010
100000
001000
000001
,
001000
010000
000100
000010
,
000100
100000
000010
001000
,
100000
100000
000001
000000
100000
000000
000000
000000
,
100001
000100
000100
000100
,
010010
000001
000001
000001
,
010000
000100
000010
000100
,
101000
001001
100001
000100
,
001000
000000
000001
100000
000000
000000
000000
000000
,
000000
000001
000000
000001
000000
000000
000000
000000
,
100000
100000
000000
100000
000000
000000
000000
000000
,
000000
000010
000000
000000
010000
000000
000000
000000
,
010000
000010
000100
001000
,
100001
001100
100001
000000
,
000001
000001
000011
000000
,
100000
100000
110000
000000
,
000100
010000
100000
001000
,
000001
000010
010000
000000
,
000001
001000
100000
010000
,
000100
000010
010000
000000
,
000001
100000
000001
000000
000000
000000
100000
000000
,
000000
100000
000000
100000
,
010000
001000
000010
000000
,
000010
001000
010000
000000
,
100000
000001
010000
000010
,
100010
010001
100001
000000
,
000001
100000
000010
010000
,
010001
100010
100001
000000
,
000000
010000
000010
000000
,
101000
001001
010000
000010
,
000000
100100
000101
000000
,
100001
000001
000010
000000
100000
000000
000000
000000
,
000000
000000
000001
001000
100000
000000
000000
000000
,
100001
100000
010000
000000
000001
000000
100000
000000
,
000000
000000
100000
001000
000001
000000
000000
000000
,
100001
000001
000010
000000
100000
000000
000000
000000
,
100000
001000
000001
001000
,
100000
000100
000001
000100
,
100000
001000
000001
001000
,
000000
001000
000001
000000
010000
010000
010000
010000
,
000000
000001
100000
001000
,
000001
001000
100000
000000
,
010000
100000
000000
000010
000001
000000
100000
001000
,
000000
000001
001000
000000
000000
001000
001000
001000
,
100000
000001
000100
001000
,
100001
001100
100001
000000
,
010000
010000
010000
000000
000010
000000
000000
000000
,
000001
000001
000001
000000
100000
000000
000000
000000
,
000100
100000
001000
000001
,
010000
000010
100001
000000
,
000100
000001
001000
100000
,
000001
100000
010010
000000
,
000000
010000
000010
000000
,
101000
001001
010000
000010
,
000000
100100
000101
001000
,
100001
000001
000010
000000
100000
000000
000000
000000
,
000000
000000
100000
001000
000001
000000
000000
000000
,
100001
100000
010000
000000
000001
000000
100000
000000
,
000000
000000
000001
001000
100000
000000
000000
000000
,
100001
000001
000010
000000
100000
000000
000000
000000
,
000000
010000
000010
000000
,
101000
001001
010000
000010
,
000000
000000
100000
001000
000001
000000
000000
000000
,
100001
000001
000010
000000
100000
000000
000000
000000
,
000000
000000
000001
001000
100000
000000
000000
000000
,
100001
100000
010000
000000
000001
000000
100000
000000
,
000000
000000
100000
001000
000001
000000
000000
000000
,
100001
000001
000010
000000
100000
000000
100001
100000
,
010000
000000
000001
000000
100001
000001
000010
000000
,
010010
000000
000000
000000
;

//---------------dance-solo - ----------------
#NOTES:
     dance-solo:
     :
     Hard:
     8:
     0.557,0.694,0.719,0.000,0.000:
000000
000000
000000
000000
,
000000
000000
000000
000000
,
000000
000000
000000
000000
,
000000
000000
000000
000000
,
000000
000000
000000
010000
,
000010
000000
010000
100000
001000
000000
000001
000000
,
000100
000000
001000
010000
100000
000000
000010
000000
,
000100
000000
000010
000001
001000
000000
001000
000000
,
100000
001000
000001
000000
100000
000000
000000
000000
,
010100
000110
010010
000100
,
010010
101000
001001
000101
,
100100
101000
001001
000101
,
010001
100010
010010
000100
,
001000
000100
000001
100000
000000
000000
100000
000000
,
000000
000010
000000
000010
000000
000000
100000
000000
,
000010
000010
000000
000010
000000
000000
100000
000000
,
000000
000010
000000
000000
010000
000000
000000
000000
,
010000
010000
000010
000000
000001
000001
100000
000000
,
010001
100010
010010
000000
,
000001
001000
100000
000000
000011
000000
000000
000000
,
100000
001000
000001
000000
110000
000000
000000
000000
,
000100
010000
100000
001000
,
000001
100000
000010
000000
010000
000000
000000
000000
,
000001
000001
001000
000000
100000
000000
010000
000000
,
000100
001000
000010
000000
010000
000000
000000
000000
,
000001
000100
010000
000000
000010
000000
000010
000000
,
000010
000010
010000
010000
,
010000
000100
000010
000100
100000
000000
000000
000000
,
000010
000100
010000
000100
000001
000000
000000
000000
,
100000
000001
100000
010000
000010
010000
000010
000000
,
011000
001010
100001
000000
,
001000
000100
001000
010000
000010
010000
000010
000000
,
011000
001010
100001
000000
,
000000
000000
010000
100000
010000
000000
000000
000000
,
110000
000000
000011
000000
000010
000001
000010
000000
,
000000
110000
000011
000000
,
100001
000100
000010
000000
010010
000000
000000
000000
,
000000
000000
000001
000010
000001
000000
000000
000000
,
100001
000100
010000
000000
010010
000000
100001
000000
,
000000
000000
100000
010000
100000
000000
000000
000000
,
100001
000100
000010
000000
010010
000000
000000
000000
,
100000
000001
001000
000000
000001
100000
001000
000000
,
100000
000001
000100
000000
000001
100000
000100
000000
,
100000
000001
001000
000000
000001
100000
001000
000000
,
000000
000010
000001
000000
010000
010000
010000
010000
,
000001
000001
100000
000000
001000
001000
000100
000000
,
100000
100000
000001
000000
000100
000100
001000
000000
,
100000
001000
000000
000001
000010
000000
010000
100000
,
000000
001000
000001
000000
000000
010000
010000
010000
,
010000
010000
000010
000000
000001
000001
100000
000000
,
010001
100010
010010
000000
,
000001
001000
100000
000000
000011
000000
000000
000000
,
100000
001000
000001
000000
110000
000000
000000
000000
,
100000
000001
100000
010000
000010
010000
000010
000000
,
011000
001010
100001
000000
,
001000
000100
001000
010000
000010
010000
000010
000000
,
011000
001010
100001
000000
,
000000
000000
010000
100000
010000
000000
000000
000000
,
110000
000000
000011
000000
000010
000001
000010
000000
,
000000
110000
000011
000000
,
100001
000100
000010
000000
010010
000000
000000
000000
,
000000
000000
010000
000100
000010
000000
000000
000000
,
100001
000100
010000
000000
010010
000000
100001
000000
,
000000
000000
100000
001000
000001
000000
000000
000000
,
100001
001000
000010
000000
010010
000000
000000
000000
,
000000
000000
100000
010000
100000
000000
000000
000000
,
110000
000000
000011
000000
000001
000010
000001
000000
,
000000
000000
100000
001000
000001
000000
000000
000000
,
100001
001000
000010
000000
010010
000000
000000
000000
,
000000
000000
000100
001000
000100
000000
000000
000000
,
100001
001000
000010
000000
010010
000000
100001
000000
,
000000
000000
000001
001000
000001
000000
000000
000000
,
100001
001000
100000
000000
100000
000000
100001
000100
,
000010
000000
000010
000000
100001
000100
001000
000000
,
110011
000000
000000
000000
;

//---------------dance-single - Edit by silenttype01----------------
#NOTES:
     dance-single:
     Edit by silenttype01:
     Challenge:
     9:
     0.579,0.694,0.719,0.000,0.010:
0000
0000
0000
0000
,
0000
0000
0000
0000
,
0000
0000
0000
0000
,
0000
0000
0000
0000
,
0000
0000
0000
0000
,
1001
0100
0010
0000
,
1001
0100
0010
0000
,
1001
0000
0010
0000
,
0000
0100
0010
0000
,
0001
0100
1000
0100
0001
0000
0010
0000
,
0100
1000
0010
1000
0100
0000
0000
0000
,
1000
0100
0001
0100
1000
0000
0010
0000
,
0100
0001
0010
0000
0110
0000
0000
0000
,
1000
0100
0010
0001
0100
0000
0010
0000
,
0000
0101
0000
0101
0000
0000
0000
0000
,
0001
0010
0100
1000
0010
0000
0100
0000
,
0000
1100
0000
0000
1100
0000
0000
0000
,
0100
0000
0010
0000
0010
1000
0000
0000
,
0000
0011
0000
0011
0000
0000
1100
0000
,
0100
0000
0010
0000
0010
1000
0000
0000
,
0000
1100
0000
0000
1100
0000
0101
0000
,
0010
0000
0001
0000
0001
1000
0000
0000
,
0000
1001
0000
0000
0000
0000
0000
0000
,
0100
0001
0000
1001
0000
0000
0000
0000
,
0000
0000
1100
0011
,
1000
0000
0000
0000
0001
0000
0100
0000
0000
0010
0000
0000
0000
0000
0000
0000
0000
0000
1001
0000
0000
0000
0000
0000
,
0100
0011
1000
1010
,
0100
0101
1000
1100
,
0000
0011
0000
0000
1000
0000
0100
0000
,
0001
0000
0000
0000
0100
0000
1000
0000
0000
0010
0000
0000
0000
0000
0000
0000
0000
0000
0101
0000
0000
0000
0000
0000
,
1000
0101
0100
1010
,
0100
1000
0001
0011
,
0000
1100
1010
0011
,
0101
0000
1000
0010
0100
0000
0001
0000
,
0010
0100
1000
0000
0010
0000
1001
0000
,
0100
0000
0001
0010
0100
0000
0001
0000
,
1001
0100
0010
0000
1001
0000
0000
0000
,
0100
0000
0010
1000
0010
0000
0100
0000
,
0001
0001
0010
0000
0100
0000
0001
0000
,
0000
0000
0100
0100
1000
0000
0001
0000
,
1001
0100
0010
0000
1001
0000
0000
0000
,
0001
0010
0001
0010
0001
0010
0100
1000
,
0001
1000
0100
0010
0001
0100
0010
1000
,
0100
0001
1000
0001
0100
0010
0001
1000
,
0010
0100
0100
0001
1000
0100
0100
0010
,
0001
0100
1000
0100
0010
1000
0100
0001
,
0100
0010
1000
0001
0100
0010
0001
1000
,
0100
0010
0000
0010
1000
0000
1000
0001
,
0000
0001
0100
0000
0000
0010
0010
0010
,
0000
0001
0100
1000
0100
0000
0010
0000
,
1100
0011
1001
0000
,
1000
0010
0100
1000
0001
0000
0100
0000
,
0011
1100
1001
0000
,
0001
0100
0010
0000
1100
0000
0000
0000
,
0011
1100
1001
0000
,
0100
0000
1001
0000
,
0000
0100
1000
0100
0001
0010
1000
0010
,
0001
0000
1000
0100
0010
0000
0001
0100
,
0010
1000
0100
0000
0011
0000
1001
0000
,
0000
0000
0001
0100
0010
0000
1000
0100
,
0011
0100
0010
0000
1001
0000
0000
0000
,
0000
0000
1000
0001
1000
0000
0001
0100
,
1000
0100
0010
0000
1010
0000
1001
0000
,
0000
0000
1000
0001
0100
0010
1000
0001
,
1100
0100
0110
1000
1001
0000
0000
0000
,
0000
0000
0100
0001
1000
0000
0010
0001
,
1000
0100
0010
0000
0101
0000
1001
0000
,
0000
0000
0100
1000
0001
0000
0100
0010
,
1010
0001
0100
0000
1001
0000
0000
0000
,
0000
0000
0001
0010
0001
0000
1000
0100
,
1000
0010
0001
0000
0101
0000
1001
0000
,
0000
0000
0001
0100
0010
0001
1000
0010
,
1001
0100
0010
0000
1001
0000
0110
0001
,
1000
0000
0110
0000
1001
0010
0100
0000
,
1001
0000
0000
0000
;

//---------------dance-double - Edit by silenttype01----------------
#NOTES:
     dance-double:
     Edit by silenttype01:
     Challenge:
     9:
     0.576,0.694,0.698,0.000,0.010: // measure 1
00000000
00000000
00000000
00000000
,  // measure 2
00000000
00000000
00000000
00000000
,  // measure 3
00000000
00000000
00000000
00000000
,  // measure 4
00000000
00000000
00000000
00000000
,  // measure 5
00000000
00000000
00000000
00000000
,  // measure 6
01100000
00010000
10000000
00000000
,  // measure 7
01100000
00010000
10000000
00000000
,  // measure 8
01100000
00000000
10000000
00000000
,  // measure 9
00000000
00010000
10000000
00000000
,  // measure 10
00010000
01000000
10000000
01000000
00010000
00000000
00100000
00000000
,  // measure 11
01000000
10000000
00100000
10000000
01000000
00000000
00000000
00000000
,  // measure 12
00010000
00001000
00010000
01000000
10000000
00000000
00100000
00000000
,  // measure 13
01000000
00001000
00010000
00000000
00011000
00000000
00000000
00000000
,  // measure 14
00001000
00000100
00000010
00000001
00000100
00000000
00000010
00000000
,  // measure 15
00000000
00000101
00000000
00001100
00000000
00000000
00000000
00000000
,  // measure 16
00000001
00000010
00000100
00001000
00000010
00000000
00000100
00000000
,  // measure 17
00000000
00001100
00000000
00000000
00000101
00000000
00000000
00000000
,  // measure 18
00000100
00000000
00000010
00000000
00000010
00001000
00000000
00000000
,  // measure 19
00000000
00000101
00000000
00001100
00000000
00000000
01010000
00000000
,  // measure 20
01000000
00000000
00100000
00000000
00100000
10000000
00000000
00000000
,  // measure 21
00000000
11000000
00000000
00000000
11000000
00000000
01010000
00000000
,  // measure 22
00000100
00000000
00001000
00000000
00001000
00000001
00000000
00000000
,  // measure 23
00000000
00001001
00000000
00000000
00000000
00000000
00000000
00000000
,  // measure 24
00000100
00000001
00000000
00001001
00000000
00000000
00000000
00000000
,  // measure 25
00000000
00000000
00000011
00001010
,  // measure 26
00010000
00000000
00000000
00000000
00001000
00000000
01000000
00000000
00000000
00100000
00000000
00000000
00000000
00000000
00000000
00000000
00000000
00000000
10100000
00000000
00000000
00000000
00000000
00000000
,  // measure 27
01000000
00110000
01000000
10100000
,  // measure 28
00010000
01100000
00010000
00011000
,  // measure 29
00000000
00001100
00000000
00000000
00000010
00000000
00000001
00000000
,  // measure 30
00001000
00000000
00000000
00000000
00000100
00000000
00000010
00000000
00000000
00000001
00000000
00000000
00000000
00000000
00000000
00000000
00000000
00000000
00000011
00000000
00000000
00000000
00000000
00000000
,  // measure 31
00000100
00001010
00000100
00000011
,  // measure 32
00001000
00000010
00001000
00011000
,  // measure 33
00000000
01010000
11000000
10100000
,  // measure 34
00110000
00000000
10000000
00100000
01000000
00000000
00010000
00000000
,  // measure 35
00100000
01000000
10000000
00000000
00100000
00000000
10010000
00000000
,  // measure 36
01000000
00000000
00100000
00010000
00000010
00000000
00010000
00000000
,  // measure 37
00011000
00000010
00000100
00000000
00001001
00000000
00000000
00000000
,  // measure 38
00000100
00000000
00000010
00001000
00000010
00000000
00000100
00000000
,  // measure 39
00000001
00000100
00000001
00000000
00000100
00000000
00001000
00000000
,  // measure 40
00000000
00000000
00000100
00000010
00010000
00000000
00001000
00000000
,  // measure 41
00000110
00001000
00000001
00000000
00000110
00000000
00000000
00000000
,  // measure 42
00000001
00000010
00000001
00000010
00001000
00010000
00001000
00100000
,  // measure 43
00010000
10000000
00100000
00010000
00001000
00010000
00001000
00000010
,  // measure 44
00000100
00000010
00000001
00000100
00001000
00010000
00100000
10000000
,  // measure 45
01000000
00010000
00001000
00010000
00100000
00010000
00000100
00000010
,  // measure 46
00000001
00001000
00000100
00000010
00001000
00100000
00010000
00100000
,  // measure 47
01000000
10000000
00010000
10000000
00010000
00000100
00001000
00000100
,  // measure 48
00000001
00000010
00000000
00000010
00001000
00000000
00001000
00000010
,  // measure 49
00000000
00000010
00000001
00000000
00000000
00000100
00000100
00000100
,  // measure 50
00000000
00001000
00000100
00000010
00001000
00000000
00000100
00000000
,  // measure 51
00000011
00001100
00001001
00000000
,  // measure 52
00000001
00000100
00001000
00010000
00001000
00000000
00000100
00000000
,  // measure 53
00000011
00001100
00001001
00000000
,  // measure 54
00000001
00000100
00001000
00000000
00001000
00000000
00000000
00000000
,  // measure 55
00000011
00001100
00001001
00000000
,  // measure 56
00000001
00000000
00001000
00000000
,  // measure 57
00000000
01000000
10000000
01000000
00010000
00100000
10000000
00100000
,  // measure 58
00010000
00000000
10000000
01000000
00100000
00000000
00010000
01000000
,  // measure 59
00100000
10000000
01000000
00000000
00110000
00000000
10010000
00000000
,  // measure 60
00000000
00000000
00010000
01000000
00100000
00000000
10000000
01000000
,  // measure 61
00110000
00001000
00000100
00000000
00001001
00000000
00000000
00000000
,  // measure 62
00000000
00000000
00000001
00001000
00000001
00000000
00001000
00000100
,  // measure 63
00000001
00000100
00000010
00000000
00000011
00000000
00001001
00000000
,  // measure 64
00000000
00000000
00000001
00000100
00000010
00001000
00010000
01000000
,  // measure 65
01010000
01000000
01100000
10000000
10100000
00000000
00000000
00000000
,  // measure 66
00000000
00000000
01000000
00010000
10000000
00000000
00100000
00010000
,  // measure 67
00001000
00010000
00100000
00000000
01010000
00000000
10010000
00000000
,  // measure 68
00000000
00000000
01000000
10000000
00010000
00000000
01000000
00100000
,  // measure 69
10100000
00010000
01000000
00000000
10010000
00000000
00000000
00000000
,  // measure 70
00000000
00000000
00001000
00010000
00001000
00000000
00010000
00001000
,  // measure 71
00000010
00000001
00001000
00000000
00001100
00000000
00001001
00000000
,  // measure 72
00000000
00000000
00000100
00000010
00000001
00001000
00000010
00001000
,  // measure 73
00000101
00000010
00001000
00000000
00011000
00000000
01010000
00100000
,  // measure 74
10000000
00000000
10010000
00000000
11000000
00100000
00010000
00000000
,  // measure 75
00011000
00000000
00000000
00000000
;
