#TITLE:GIMME GIMME GIMME;
#SUBTITLE:;
#ARTIST:E-ROTIC;
#TITLETRANSLIT:;
#SUBTITLETRANSLIT:;
#ARTISTTRANSLIT:;
#CREDIT:;
#BANNER:GIMME GIMME GIMME.png;
#BACKGROUND:GIMME GIMME GIMME-bg.png;
#LYRICSPATH:;
#CDTITLE:DanceDanceRevolution3rdMixPLUS.png;
#MUSIC:GIMME GIMME GIMME.ogg;
#OFFSET:0.000;
#SAMPLESTART:14.496;
#SAMPLELENGTH:15.000;
#SELECTABLE:YES;
#DISPLAYBPM:149.000;
#BPMS:0=148.5,4=149;

//---------------dance-single - ----------------
#NOTES:
     dance-single:
     :
     Easy:
     3:
     :
0000
0000
0000
0000
,
0000
0000
0000
0000
,
0000
0000
0000
0000
,
0000
0000
0000
0000
,
0000
0000
0000
0000
,
0001
0000
0001
0000
,
0001
0000
0001
0000
,
1000
0000
0001
0000
,
0010
0000
0100
1001
,
0001
0001
0100
0100
,
1000
0001
1000
0001
,
0001
1000
0001
0100
,
1000
0001
1000
0100
,
0001
0100
0001
0100
,
1000
0100
1000
0100
,
0001
0001
0100
0100
,
1000
1000
0010
0100
,
0001
1000
0001
0010
,
1000
0001
1000
0010
,
0001
0001
0001
0100
,
1000
1000
1000
0100
,
0010
0100
0010
0001
,
0010
0100
0010
1000
,
0001
0001
0100
0100
,
1000
1000
0010
0100
,
1001
0100
0001
0100
,
1000
1000
0100
0100
,
1000
0000
0001
0001
,
1000
1000
0001
0100
,
0001
0000
1000
1000
,
0001
0001
0001
0100
,
1000
0001
0100
0100
,
0001
0100
1000
1001
,
0000
0000
0100
0100
,
0001
0001
0100
0100
,
1000
1000
0001
1000
,
0001
1000
0001
0100
,
1000
0001
0100
1001
,
0001
0100
0001
0100
,
1000
0100
1000
0100
,
0001
0001
0100
0100
,
1000
0001
0100
1001
,
0001
1000
0001
0010
,
1000
0001
1000
0010
,
0001
0001
0001
0100
,
1000
1000
1000
0100
,
0010
0100
0010
0001
,
0010
0100
0010
1000
,
0001
0001
0100
0100
,
1000
1000
0001
0100
,
0001
0000
0001
0000
,
1000
0000
1000
0000
,
0010
0100
0001
0100
,
0010
0100
1000
0100
,
0001
0100
1000
0100
,
0001
0001
1000
1000
,
0000
0001
0000
1000
,
0000
0100
0000
0100
,
1001
0000
0000
0000
;

//---------------dance-single - ----------------
#NOTES:
     dance-single:
     :
     Medium:
     4:
     :
0000
0000
0000
0000
,
0000
0000
0000
0000
,
0000
0000
0000
0000
,
0000
0000
0000
0000
,
0000
0000
0000
0000
,
0001
0001
0001
0001
,
1000
0001
1000
0001
,
1000
1000
1000
1000
,
0001
1000
1001
1100
,
0001
0000
0001
0010
0001
0000
0001
0000
,
1000
0000
0010
0010
,
1000
0000
1000
0100
1000
0000
1000
0000
,
0001
0000
0100
0100
,
0001
0000
0001
0010
0001
0000
0001
0000
,
1000
0100
0100
0100
,
1000
0100
0010
0001
,
0010
0000
0100
0100
,
0001
0000
1000
0000
0001
0000
1000
0100
,
1000
0000
0001
0000
1000
0000
0001
0010
,
0100
0000
0010
0000
0100
0000
0010
0001
,
0010
0000
0100
0000
0010
0000
0100
1000
,
0001
0000
1000
0000
0001
0000
1000
0100
,
1000
0000
0001
0000
1000
0000
0001
0010
,
0100
0000
0010
0000
0100
0000
0010
0001
,
0010
0100
0010
0100
,
1001
0100
0001
0100
,
1000
1000
0100
0100
,
1001
0100
0001
0100
,
1000
1000
0100
0100
,
1000
0000
0001
0010
0001
0000
1000
0100
,
1000
0000
0001
0010
0001
0000
1000
0100
,
0010
0000
0100
1000
0100
0000
0010
0001
,
0010
0000
0100
1000
0100
0001
0100
0000
,
0000
0000
0100
0100
,
0001
0000
1000
0100
1000
0000
0001
0000
,
1000
0001
0010
0010
,
1000
0000
0001
0010
0001
0000
1000
0000
,
0001
0000
0100
0100
,
0001
0000
1000
0100
1000
0000
0001
0000
,
0010
0100
0100
0100
,
1000
0100
0010
0001
,
1000
0100
1001
1100
,
0010
0000
0001
0010
0001
0000
0100
1000
,
0100
0000
0010
0010
,
0100
0000
1000
0100
1000
0000
0010
0001
,
0010
0000
0100
0100
,
0010
0100
0010
0001
,
0010
0100
0010
1001
,
0001
1000
0001
0001
,
0010
0100
0010
0110
,
1000
0000
0100
0000
1000
0100
1000
0000
,
0001
0000
0010
0000
0001
0010
0001
0000
,
0100
0000
1000
0000
0100
1000
0100
0000
,
0010
0000
0001
0000
0010
0001
0010
0000
,
0001
0000
0100
0000
0001
0100
0001
0000
,
0100
0000
1000
0000
0100
1000
0100
0000
,
1000
0000
0010
0000
1000
0010
1000
0000
,
0010
0000
0001
0000
0010
0001
0010
0000
,
0110
0000
0000
0000
;

//---------------dance-single - ----------------
#NOTES:
     dance-single:
     :
     Hard:
     6:
     :
0000
0000
0000
0000
,
0000
0000
0000
0000
,
0000
0000
0000
0000
,
0000
0000
0000
0000
,
0000
0000
0000
0000
,
1000
0100
1000
0010
,
1000
0001
1000
1000
,
0001
0010
0001
0100
,
0001
1000
0110
1001
,
0010
0001
0010
0001
1000
0100
1000
0100
,
1000
0100
0010
0001
,
0010
0001
0010
0001
1000
0100
1000
0100
,
1000
0100
0010
1001
,
0010
0001
0010
0001
1000
0100
1000
0100
,
1000
0100
0010
0001
,
0100
0001
0010
1000
,
0100
0010
0110
1001
,
0010
0000
0100
0000
1000
0000
0001
0010
,
0100
0000
0010
0000
0001
0000
1000
0100
,
0010
0000
0100
0000
1000
0000
0001
0010
,
0100
0000
0010
0000
0001
0000
1000
0100
,
0001
0000
0010
0000
0100
0000
1000
0100
,
1000
0000
0100
0000
0010
0000
0001
0010
,
1000
0000
0001
0000
0100
0000
0010
0001
,
0100
0000
1000
0000
0001
0000
0010
0100
,
1001
1001
0010
1000
,
0001
1000
0100
0010
,
1000
0010
0001
0100
,
1000
0000
0000
1000
0000
0000
1000
0000
0000
0000
0001
0000
0100
0000
0000
0000
,
1000
0000
0000
1000
0000
0000
1000
0000
0001
0000
0000
0001
0000
0000
0001
0000
,
1000
0000
0000
1000
0000
0000
1000
0000
0001
0000
0000
0001
0000
0000
0001
0000
,
1000
0000
0000
1000
0000
0000
1000
0000
0100
0000
0000
0100
0000
0000
0100
0000
,
0010
0000
0000
0010
0000
0000
0010
0000
0001
0000
0000
0001
0000
0000
0001
0000
,
0000
0000
0110
1001
,
0010
0001
0010
0001
1000
0100
1000
0001
,
0010
0100
0001
0110
,
1000
0100
1000
0100
0010
0001
0010
0100
,
1000
0001
0110
1001
,
0010
0001
0010
0001
1000
0100
1000
0001
,
0010
0100
0001
0110
,
1000
0001
0010
0100
,
1000
0100
1001
0110
,
0010
0001
0010
0001
1000
0100
1000
0001
,
0010
0100
0001
0110
,
1000
0100
1000
0100
0010
0001
0010
0100
,
1000
0001
0100
0100
,
0010
0100
0010
0001
,
0010
0100
0010
1001
,
0001
0010
0100
1000
,
0010
0001
1000
0110
,
0001
0000
0010
0000
0001
0010
0001
0000
,
1000
0000
0100
0000
0001
0010
0001
0000
,
0100
0000
1000
0000
0100
0010
0100
0010
,
0001
0000
0010
0000
0001
1000
0001
1000
,
1000
0000
0100
0000
1000
0100
0010
0001
,
0010
0000
0001
0000
0010
0100
1000
0100
,
1000
0000
0001
0000
1000
0100
0010
0001
,
0010
0000
0100
0000
0001
0100
1000
0100
,
1000
0000
0000
0000
;

//---------------dance-double - ----------------
#NOTES:
     dance-double:
     :
     Easy:
     3:
     :
00000000
00000000
00000000
00000000
,
00000000
00000000
00000000
00000000
,
00000000
00000000
00000000
00000000
,
00000000
00000000
00000000
00000000
,
00000000
00000000
00000000
00000000
,
00000010
00000000
00000010
00000000
,
00000010
00000000
00000010
00000000
,
00001000
00000000
00001000
00000000
,
00001000
00000000
00000010
00011000
,
00010000
00010000
00100000
00100000
,
10000000
10000000
01000000
01000000
,
00010000
00010000
00001000
00001000
,
00000100
00000100
00000010
00011000
,
00100000
00100000
00010000
00010000
,
00000010
00000010
00001000
00001000
,
00000001
00000001
00000100
00000100
,
00001000
00010000
01000000
10000000
,
00010000
10000000
00010000
01000000
,
00001000
00010000
00001000
00000100
,
00000001
00001000
00000001
00000100
,
00001000
00010000
00001000
01000000
,
00100000
10000000
01000000
00010000
,
00001000
00000100
00000001
00001000
,
00000100
00000010
00000001
00000100
,
00001000
00010000
01000000
10000000
,
00010000
00000000
00010000
00000000
,
01000000
00000000
00100000
00100000
,
00001000
00010000
00000010
00001000
,
00000001
00000001
00000001
00000100
,
00000010
00000000
00000010
00000000
,
00001000
00010000
10000000
01000000
,
00100000
00000000
00100000
00000000
,
00001000
00010000
00000010
00000100
,
00000110
00000110
00001000
00001000
,
00010000
00010000
00100000
00100000
,
10000000
10000000
01000000
01000000
,
00010000
00010000
00001000
00001000
,
00000100
00000100
00000010
00011000
,
00100000
00100000
00010000
00010000
,
00000010
00000010
00001000
00001000
,
00000001
00000001
00000100
00000100
,
00001000
00010000
01000000
10010000
,
00010000
10000000
01000000
01000000
,
00010000
00001000
00000100
00000100
,
00000001
00001000
00000100
00000100
,
00010000
00001000
01000000
01000000
,
00010000
10000000
00010000
01000000
,
00001000
00010000
00001000
00000100
,
00000001
00001000
00000001
00000100
,
00001000
00010000
00001000
01000000
,
00100000
10000000
01000000
00010000
,
00001000
00000100
00000001
00001000
,
00000100
00000010
00000001
00000100
,
00001000
00010000
01000000
10000000
,
10000000
00010000
10000000
10000000
,
01000000
00010000
00001000
00000100
,
00001000
00010000
00000010
00001000
,
00000001
00000001
00000001
00000100
,
00011000
00000000
00000000
00000000
;

//---------------dance-double - ----------------
#NOTES:
     dance-double:
     :
     Medium:
     5:
     :
00000000
00000000
00000000
00000000
,
00000000
00000000
00000000
00000000
,
00000000
00000000
00000000
00000000
,
00000000
00000000
00000000
00000000
,
00000000
00000000
00000000
00000000
,
01000000
00000000
10000000
00000000
,
00100000
00000000
00010000
00000000
,
00001000
00000000
00000100
00000000
,
00000001
00000000
00000010
00011000
,
10000000
01000000
10000000
00100000
,
10000000
00010000
10000000
00100000
,
01000000
10000000
01000000
00100000
,
01000000
00010000
01000000
01010000
,
00001000
00000100
00001000
00000010
,
00001000
00000001
00001000
00000010
,
00000100
00001000
00000100
00000010
,
00000100
00000001
00000100
00000101
,
00000001
00000000
00000010
00000000
00001000
00000000
00010000
00010000
,
00010000
00000000
01000000
00000000
10000000
00000000
01000000
01000000
,
01000000
00000000
00100000
00000000
01000000
00000000
00010000
00010000
,
00010000
00000000
00001000
00000000
00000010
00000000
00001000
00001000
,
00001000
00000000
00000010
00000000
00001000
00000000
00010000
00010000
,
00010000
00000000
01000000
00000000
10000000
00000000
01000000
01000000
,
01000000
00000000
00100000
00000000
01000000
00000000
00010000
00010000
,
00010000
00000000
00001000
00000000
00000010
00000000
00001000
00001000
,
00001000
00000000
00010000
01000000
,
10000000
01000000
10000000
00100000
,
00011000
00001000
00000010
00001000
,
00000001
00000010
00000001
00001000
,
00010000
00000000
00001000
00010000
00001000
00000000
00000100
00000000
,
00001000
00000000
00100000
10000000
00100000
00000000
00010000
00000000
,
00001000
00000000
00010000
00001000
00010000
00000000
00000010
00000000
,
00001000
00000000
01000000
10000000
01000000
00000000
00010000
00000000
,
10010000
01100000
10000000
10000000
,
00100000
00010000
00001000
00010000
,
00000010
00001000
00000001
00000001
,
00001000
00010000
00001000
00010000
,
01000000
10000000
00010000
00011000
,
00100000
00010000
00001000
00010000
,
00000010
00001000
00000001
00000001
,
00001000
00010000
00001000
00010000
,
00001000
00010000
01000000
10010000
,
00010000
00001000
00010000
00001000
00010000
00001000
00010000
00000000
,
00000010
00000000
00000100
00000100
,
00001000
00010000
00001000
00010000
00001000
00010000
00001000
00000000
,
00100000
00000000
01000000
10000000
,
00100000
10000000
00010000
01000000
,
00001000
00010000
00001000
00000100
,
00000001
00001000
00000001
00000100
,
00001000
00010000
00001000
01000000
,
00100000
00000000
10000000
00000000
01000000
00000000
00010000
00100000
,
00010000
00000000
00000100
00000000
00000001
00000000
00001000
00000100
,
00001000
00000000
00000010
00000000
00000001
00000000
00000100
00001000
,
00000100
00000000
00010000
00000000
01000000
10000000
01000000
00000000
,
00100000
10000000
01000000
00010000
,
00001000
00000100
00000001
00001000
,
00000100
00000010
00000001
00000100
,
00001000
00000000
00010000
00000000
01000000
00000000
10000000
00100000
,
01000000
00000000
00000000
00000000
;

//---------------dance-double - ----------------
#NOTES:
     dance-double:
     :
     Hard:
     7:
     :
00000000
00000000
00000000
00000000
,
00000000
00000000
00000000
00000000
,
00000000
00000000
00000000
00000000
,
00000000
00000000
00000000
00000000
,
00000000
00000000
00000000
00000000
,
00000000
00001000
00000000
00000010
00000000
00000100
00000000
00000001
,
00000000
00000100
00000000
00001000
00000000
00010000
00000000
01000000
,
00000000
10000000
00000000
00010000
00000000
10000000
00000000
01000000
,
00000000
00010000
00000000
01000000
01000000
00000000
10010000
00000000
,
00010000
00100000
00010000
00100000
00010000
00000000
10000000
10000000
,
00000000
01000000
00000000
00100000
00000000
00001000
00000000
00000100
,
00000100
00000001
00000100
00000001
00000100
00000000
00000010
00000010
,
00000000
00010000
00000000
00001000
00000000
00010000
00011000
00000000
,
00010000
00100000
00010000
00100000
00010000
00000000
10000000
10000000
,
00000000
01000000
00000000
00010000
00000000
00100000
00000000
00001000
,
00000000
00000010
00000000
00000001
00000000
00000100
00000000
00000010
,
00000000
00001000
00000000
00010000
01000000
00000000
10010000
00000000
,
00010000
00000000
10000000
00000000
00010000
00000000
01000000
00010000
,
01000000
00000000
00010000
00000000
00001000
00000000
00000100
00000001
,
00000100
00000000
00001000
00000000
00000001
00000000
00000100
00000001
,
00000100
00000000
00001000
00000000
00010000
00000000
01000000
10000000
,
01000000
00000000
10000000
00000000
00010000
00000000
01000000
00010000
,
01000000
00000000
00010000
00000000
00001000
00000000
00000100
00000001
,
00000100
00000000
00001000
00000000
00000001
00000000
00000100
00000001
,
00000100
00000000
00000000
00000000
,
00001001
00000000
00001001
00000000
00000010
00000001
00000010
00000000
,
00000100
00000000
00001000
00000000
00010000
00100000
00010000
00000000
,
11000000
00000000
00110000
00000000
00001000
00010000
00001000
00000000
,
00000100
00000100
00000001
00000100
,
00000010
00000000
00000010
00000000
,
00001000
00010000
10000000
01000000
,
00100000
00010000
00100000
00000000
01000000
10000000
01000000
00000000
,
00010000
00001000
00010000
00000000
00000010
00001000
00000010
00000000
,
00000000
00000000
00001100
00000011
,
00000100
00000000
00001000
00000000
00010000
00100000
01000000
00000000
,
10000000
00000000
10000000
01000000
10000000
00000000
01000000
00000000
,
00010000
00000000
00001000
00000000
00000100
00000001
00000010
00000000
,
00000100
00001000
00011000
00011000
,
00010000
00001000
00100000
00001000
00100000
00010000
00100000
00000000
,
00010000
10000000
01000000
00100000
,
01000000
00010000
00000000
00010000
,
10000000
01000000
00001000
00000110
,
00000010
00001000
00000010
00001000
00000010
00001000
00000001
00001000
,
00000000
00000000
00000001
00001000
00000000
00000000
00010000
00000000
,
01000000
00010000
01000000
00010000
01000000
00010000
01000000
00100000
,
00000000
00000000
01000000
00100000
00000000
00000000
00000000
00000000
,
10010000
00000000
10010000
00000000
01000000
10000000
01000000
00000000
,
00011000
00000000
00011000
00000000
00001000
00000100
00001000
00000000
,
00000110
00000000
00000110
00000000
00000001
00001000
00000001
00000000
,
00001000
00010000
00001000
01000000
,
00100000
00000000
10000000
00000000
01000000
01000000
01000000
00000000
,
00100000
00000000
00001000
00000000
00010000
00010000
00010000
00000000
,
00001000
00000000
00010000
00000000
00000010
00000010
00000010
00000000
,
00001000
00000000
00000001
00000000
00000010
00000001
00000010
00000001
,
00000010
00000000
00000100
00000000
00001000
00010000
00001000
00010000
,
00001000
00000000
00100000
00000000
00010000
00100000
00010000
00100000
,
10000000
00000000
01000000
00000000
10000000
01000000
10000000
01000000
,
10000000
00000000
00100000
00000000
00010000
00001000
00000100
00000000
,
00001001
00000000
00000000
00000000
;

//---------------dance-couple - ----------------
#NOTES:
     dance-couple:
     :
     Challenge:
     6:
     :
00000000
00000000
00000000
00000000
,
00000000
00000000
00000000
00000000
,
00000000
00000000
00000000
00000000
,
00000000
00000000
00000000
00000000
,
00000000
00000000
00000000
00000000
,
10000001
00010000
10000001
00010000
,
10000001
00100000
10000001
00010000
,
10001000
00000001
10001000
00000001
,
10001000
00000010
10001000
00000001
,
00010001
00100000
00010001
10000000
,
00010001
01000000
00100001
00100000
,
10001000
00000100
10001000
00000001
,
10001000
00000010
10000100
00000100
,
10000001
00100100
10000001
00011000
,
10000001
01000010
01000010
10000001
,
10001000
00100010
00010001
01000100
,
10001000
00010001
11001100
00110011
,
00000001
00000000
00001000
00000000
00000001
00000000
00001000
00000100
,
00011000
00000000
10000000
00000000
00010000
00000000
10000000
01000000
,
10000100
00000000
00000010
00000000
00000100
00000000
00000010
00000001
,
01000010
00000000
00100000
00000000
01000000
00000000
00100000
00010000
,
00100001
00000000
00001000
00000000
00000001
00000000
00001000
00000100
,
00011000
00000000
10000000
00000000
00010000
00000000
10000000
01000000
,
10000000
00000000
00100010
00000000
10001000
00000000
00100010
10001000
,
00100010
01000100
00100010
01000100
,
10010001
01000001
00010001
01000001
,
10000001
10000001
01000001
01000001
,
10001001
10000100
10000001
10000100
,
10001000
10001000
10000100
10000100
,
00010000
00000000
00000000
10000000
00000000
00000000
00010000
00000000
10001000
00000000
00000000
00000001
10000000
00000000
00001000
00000000
,
10000001
00000000
00000000
00010000
00000001
00000000
10000000
00000000
00001000
00000000
00000000
00000001
00000000
00000000
00001000
00000000
,
00100000
00000000
00000000
01000000
00000000
00000000
00100000
00000000
10000010
00000000
00000000
00000100
10000000
00000000
00000010
00000000
,
01000001
00000000
00000000
00100000
00000001
00000000
01000000
00000000
00000100
00000000
00000000
00000010
00000000
00000000
00000100
00000000
,
00010000
00000001
01100110
10011001
,
10000001
00000000
00000001
00000010
10000001
00000000
00000001
00000000
,
10000010
00000100
10001000
00001001
,
00010001
00000000
00010000
00100000
00010001
00000000
00010000
00000000
,
00100001
01000000
10000001
10010000
,
10001000
00000000
10001000
00100010
10001000
00000000
10001000
01000100
,
00100010
01000100
10001000
10011001
,
10001000
00010001
00100010
01000100
,
10001000
01000100
01100110
10011001
,
00100001
00010000
00100000
00010000
10000001
01000000
10000000
00010000
,
00000001
00000000
10000000
00010000
00000001
00000000
00000000
00000000
,
10000010
00000001
00000010
00000001
10001000
00000100
00001000
00000001
,
10000000
00000000
00001000
00000001
10000000
00000000
00000000
00000000
,
10001000
00010001
00100010
01000100
,
10001000
00010001
10001000
10011001
,
10001000
00010001
00100010
01000100
,
10001000
00010001
00100010
01100110
,
10001000
00000000
00000100
00000000
10001000
00000100
00001000
00000000
,
10000001
00000000
01000000
00000000
10000001
01000000
10000000
00000000
,
10000001
00000000
00000010
00000000
10000001
00000010
00000001
00000000
,
00010001
00000000
00100000
00000000
00010001
00100000
00010000
00000000
,
10001000
00000000
00000100
00000000
10001000
00000100
00001000
00000000
,
10000001
00000000
01000000
00000000
10000001
01000000
10000000
00000000
,
00011000
00000000
01000010
00000000
00011000
01000010
00011000
00000000
,
10000001
00000000
00011000
00000000
00100100
00011000
00100100
00000000
,
10011001
00000000
00000000
00000000
;

//---------------dance-solo - ----------------
#NOTES:
     dance-solo:
     :
     Easy:
     4:
     :
000000
000000
000000
000000
,
000000
000000
000000
000000
,
000000
000000
000000
000000
,
000000
000000
000000
000000
,
000000
000000
000000
000000
,
000010
000000
010000
000000
,
000010
000000
010000
000000
,
000010
000000
100000
000000
,
001000
000000
000100
100001
,
000010
000010
010000
010000
,
000001
001000
100000
001000
,
000010
000010
010000
010000
,
000001
001000
100000
001000
,
000001
000001
100000
100000
,
000010
010000
000001
001000
,
100000
001000
000100
000100
,
001000
001000
001000
001000
,
000010
000010
100000
000001
,
010000
010000
000001
100000
,
000001
000001
100000
001000
,
010000
010000
000010
001000
,
000100
001000
000100
001000
,
100000
001000
000001
001000
,
000010
000010
001000
001000
,
010000
010000
001000
000100
,
100001
000000
000001
000001
,
010000
010000
000010
000010
,
001000
001000
100000
100000
,
001000
001000
000001
000001
,
010000
010000
000010
000010
,
100000
100000
001000
001000
,
000001
000001
001000
001000
,
010000
001000
000010
001000
,
100001
000000
001000
001000
,
000010
000010
010000
010000
,
000001
001000
100000
001000
,
000010
000010
010000
010000
,
000001
001000
100000
001000
,
000001
000001
100000
100000
,
000010
010000
000001
001000
,
100000
001000
000100
000100
,
100000
000001
001000
100001
,
000010
000010
010000
010000
,
000001
001000
100000
001000
,
000010
000010
010000
010000
,
000001
001000
100000
001000
,
000000
000001
000000
100000
,
000010
010000
000001
001000
,
100000
001000
000100
000100
,
100000
001000
000001
001000
,
000000
000010
100000
000001
,
000000
010000
000001
100000
,
000000
000001
100000
001000
,
000000
010000
000010
001000
,
000100
001000
000100
001000
,
100000
001000
000001
001000
,
000000
000010
000000
001000
,
000000
010000
000000
001000
,
100001
000000
000000
000000
;

//---------------dance-solo - ----------------
#NOTES:
     dance-solo:
     :
     Medium:
     5:
     :
000000
000000
000000
000000
,
000000
000000
000000
000000
,
000000
000000
000000
000000
,
000000
000000
000000
000000
,
000000
000000
000000
000000
,
000010
010000
000010
010000
,
000001
001000
100000
001000
,
000001
000001
100000
100000
,
001000
001000
000100
100001
,
000010
000110
010000
010100
,
000001
001000
100000
001000
,
000010
000110
010000
010100
,
000001
000001
100000
100000
,
000001
000000
000001
001000
000001
000000
000001
000000
,
010000
001000
000010
001000
,
100000
000000
100000
000001
100000
000000
100000
000000
,
000010
001000
001000
001000
,
010000
000000
000001
000000
001000
000000
100000
001000
,
100000
000000
000010
000000
000010
000000
010000
000100
,
010000
000000
000001
000000
000001
000000
000100
000010
,
000100
000000
001000
000000
001000
000000
100000
000001
,
001000
000000
010000
000000
010000
000000
000001
100000
,
001000
000000
100000
000000
100000
000000
000001
000100
,
001000
000000
001000
000000
001000
000000
010000
000010
,
001000
001000
001000
000100
,
100001
001000
000001
100000
,
000010
000010
001000
001000
,
010000
010000
001000
001000
,
100000
100000
001000
001000
,
100000
000000
000010
000010
000010
000000
010000
010000
,
010000
000000
000001
000100
000001
000000
100000
001000
,
100000
000000
000001
000001
000001
000000
100000
100000
,
100000
000000
001000
001000
001000
000000
000100
000000
,
100001
000000
001000
000100
,
000010
000000
100000
001000
100000
000000
000001
001000
,
000001
010000
001000
000010
,
010000
000000
000001
001000
000001
000000
100000
001000
,
100000
000001
001000
100000
,
000010
010000
000010
010000
,
000001
001000
100000
001000
,
000001
000001
100000
100000
,
001000
001000
010010
100001
,
000001
001001
010000
010100
,
000001
001000
100000
001000
,
100000
101000
000010
000110
,
010000
010000
000010
000010
,
100000
000000
000001
000000
001000
000000
100000
001000
,
100000
000000
000010
000000
000010
000000
010000
000100
,
010000
000000
000001
000000
000001
000000
000100
000010
,
000100
000000
001000
000000
001000
000000
100000
000001
,
001000
000000
010000
000000
000010
000000
100000
000001
,
001000
000000
010000
000000
010000
000000
000001
000100
,
001000
000000
001000
000000
001000
000000
100000
000001
,
001000
001000
001000
000000
,
000010
000010
010000
010000
,
000001
001001
100000
101000
,
000010
010000
000010
010000
,
000001
001000
100000
001000
,
100001
000000
000000
000000
;

//---------------dance-solo - ----------------
#NOTES:
     dance-solo:
     :
     Hard:
     7:
     :
000000
000000
000000
000000
,
000000
000000
000000
000000
,
000000
000000
000000
000000
,
000000
000000
000000
000000
,
000000
000000
000000
000000
,
000010
000010
010000
010000
,
000001
001001
100000
101000
,
000010
010000
000010
010000
,
000001
100000
001100
100001
,
010000
000100
010000
000100
100000
001000
100000
001000
,
100000
000001
000100
001000
,
000010
000100
000010
000100
000001
001000
000001
001000
,
000001
010000
000010
001000
,
000001
001000
000001
001000
000100
100000
000100
100000
,
000100
010000
000010
001000
,
100000
001000
000100
000100
,
001000
001000
000001
100000
,
000010
000000
000010
000000
100000
000000
000001
100000
,
001000
000000
010000
000000
000001
000000
100000
000001
,
001000
000000
000010
000000
100000
000000
001000
100000
,
000001
000000
010000
000000
000010
000000
001000
000100
,
001000
000000
000001
000000
001000
000000
000100
100000
,
000001
000000
001000
000000
000001
000000
100000
001000
,
100000
000000
000010
000000
001000
000000
000001
001000
,
000001
010000
000010
001000
,
100001
000000
000000
000000
100000
000000
000000
000000
000010
000000
000000
000010
000000
000000
000010
000000
,
010000
000000
000000
010000
000000
000000
010000
000000
000001
000000
000000
000001
000000
000000
000001
000000
,
001000
000000
000000
001000
000000
000000
001000
000000
100000
000000
000000
100000
000000
000000
100000
000000
,
001000
000000
000000
001000
000000
000000
001000
000000
000001
000000
000000
000001
000000
000000
000001
000000
,
010000
000000
000000
010000
000000
000000
010000
000000
000010
000000
000000
000010
000000
000000
000010
000000
,
100000
000000
000000
100000
000000
000000
100000
000000
001000
000000
000000
001000
000000
000000
001000
000000
,
000001
000000
000000
000001
000000
000000
000001
000000
001000
000000
000000
001000
000000
000000
001000
000000
,
100000
000000
000000
100000
000000
000000
100000
000000
000001
000000
000000
000000
001000
000000
000000
000000
,
100001
000000
001000
001000
,
000100
000010
000100
000010
100000
001000
100000
001000
,
100000
000010
001000
001000
,
000100
010000
000100
010000
000001
001000
000001
001000
,
000001
001000
100000
001000
,
000001
001000
000001
001000
000100
100000
000100
100000
,
000010
010000
000001
001000
,
100000
001000
000100
000100
,
100000
000001
001000
100001
,
000010
000100
000010
010000
000100
010000
000100
010000
,
000001
001000
100000
001000
,
010000
000100
010000
000010
000100
000010
000100
000010
,
100000
001000
000001
001000
,
000010
000000
000010
000000
100000
000000
000001
100000
,
001000
000000
010000
000000
000001
000000
100000
000001
,
001000
000000
000010
000000
100000
000000
001000
100000
,
000001
000000
010000
000000
000001
000000
001000
000100
,
001000
000000
000010
000000
001000
000000
000100
100000
,
000001
000000
001000
000000
000010
000000
100000
001000
,
100000
000000
000010
000000
001000
000000
000001
001000
,
000001
000000
010000
000000
000001
000000
100000
001000
,
100000
000000
000001
000000
000001
000000
100000
000100
,
100000
000000
000010
000000
001000
000000
000001
000100
,
000001
000000
010000
000000
000010
000000
010000
000010
,
010000
000100
101000
101000
,
100001
000000
000000
000000
;

//---------------dance-double - ----------------
#NOTES:
     dance-double:
     :
     Challenge:
     9:
     0.654,0.747,0.113,0.021,0.716:
00000000
00000000
00000000
00000000
,
00000000
00000000
00000000
00000000
,
00000000
00000000
00000000
00000000
,
00000000
00000000
00000000
00000000
,
00000000
00000000
00000000
00000000
,
00000000
00000000
00000000
00000000
,
00000000
00000000
00000000
00000000
,
00000000
00000000
00000000
00000000
,
00000000
00000000
10010000
10010000
,
00000000
00000000
00100000
10000000
00100000
00000000
01000000
00010000
01000000
00000000
00100000
10000000
00100000
00000000
10000000
01000000
,
10000000
00000000
00010000
00100000
00010000
00000000
10000000
01000000
10000000
00000000
01000000
00100000
01000000
00000000
00010000
00001000
,
00010000
00000000
01000000
00100000
01000000
00000000
00010000
00001000
00010000
00000000
00000010
00001000
00000010
00000000
00001000
00000100
,
00001000
00000000
00000010
00001000
00000010
00000000
00000100
00000001
00000100
00000000
00000001
00000010
00000001
00000000
00001000
00000100
,
00001000
00000000
00000001
00000100
00000001
00000000
00001000
00000100
00001000
00000000
00000001
00000100
00000001
00000000
00001000
00000010
,
00001000
00000000
00000001
00000010
00000001
00000000
00000010
00000100
00000010
00000000
00000100
00001000
00000100
00000000
00010000
00001000
,
00010000
00000000
01000000
00100000
01000000
00000000
00010000
00001000
00010000
00000000
01000000
00100000
01000000
00000000
10000000
00010000
,
10000000
00000000
00010000
10000000
00010000
00000000
01000000
00100000
01000000
00000000
00100000
01000000
00100000
00000000
01000000
00000000
,
00000000
00000000
00010000
01000000
00000000
00000000
00100000
10000000
00000000
00000000
00010000
01000000
00000000
00000000
00100000
10000000
,
00000000
00000000
01000000
10000000
00000000
00000000
00010000
00100000
00000000
00000000
00001000
00010000
00000000
00000000
00000010
00001000
,
00000000
00000000
00000001
00000100
00000000
00000000
00000010
00001000
00000000
00000000
00000001
00000100
00000000
00000000
00000010
00001000
,
00000000
00000000
00000100
00001000
00000000
00000000
00000001
00000010
00000000
00000000
00000100
00001000
00000000
00000000
00010000
00100000
,
00000000
00000000
01000000
10000000
00000000
00000000
01000000
10000000
00000000
00000000
00010000
00100000
00000000
00000000
00000100
00001000
,
00000000
00000000
00000001
00000010
00000000
00000000
00000001
00000100
00000000
00000000
00000010
00010000
00000000
00000000
00000100
00001000
,
00000000
00000000
00000100
00000010
00000000
00000000
00000001
00000100
00000000
00000000
00001000
00010000
00000000
00000000
00100000
01000000
,
00200000
00000000
00000000
00000000
01000000
00000000
00000000
00000000
01300000
00000000
00000000
00100000
01000000
00000000
00100000
00000000
,
10000000
00000000
00000000
01000000
00000000
00000000
00100000
00000000
01000000
00000000
00000000
10000000
00000000
00000000
00010000
00000000
,
01000000
00000000
00000000
00100000
00000000
00000000
00010000
00000000
00001000
00000000
00000000
00000010
00000000
00000000
00001000
00010000
,
00001000
00000000
00000000
00000010
00000000
00000000
00000001
00000000
00000100
00000000
00000000
00001000
00000000
00000000
00000100
00000000
,
00000001
00000000
00000000
00000001
00000000
00000000
00001001
00000000
00000000
00000000
00000001
00000000
00000001
00000000
00001000
00000100
,
00001000
00000001
00001000
00000010
00001000
00000001
00000010
00000001
,
00001000
00000010
00000100
00001000
00010000
00000010
00000001
00001000
,
00000100
00000001
00000100
00001000
00010000
00000010
00000001
00001000
,
00000100
00000001
00001000
00000100
00001000
00000001
00000010
00000000
,
00001001
00000000
00000000
00000000
00000000
00001001
00000000
00000000
,
00000000
00000000
00000100
00000001
00000000
00000000
00000001
00000010
00000000
00000000
00000010
00001000
00000000
00000000
00001000
00000010
,
00000000
00000000
00000010
00000001
00000000
00000000
00000001
00000100
00000000
00000000
00000100
00001000
00000000
00000000
00001000
00010000
,
00000000
00000000
00010000
00000100
00000000
00000000
00000100
00010000
00000000
00000000
00010000
00100000
00000000
00000000
00100000
00010000
,
00000000
00000000
00010000
00001000
00000000
00000000
00001000
00000010
00000000
00000000
00000010
00001000
00000000
00000000
00001000
00010000
,
00000000
00000000
00010000
01000000
00000000
00000000
01000000
10000000
00000000
00000000
10000000
00100000
00000000
00000000
00100000
00010000
,
00000000
00000000
00010000
10000000
00000000
00000000
10000000
01000000
00000000
00000000
01000000
00010000
00000000
00000000
00010000
00100000
,
00000000
00000000
00100000
00001000
00000000
00000000
00001000
00010000
00000000
00000000
00010000
01000000
00000000
00000000
01000000
10000000
,
00000000
00000000
10000000
00010000
00000000
00000000
00010000
00000000
20010000
00000000
00000000
00000000
00010000
00000000
00010000
00000000
,
30010000
00000000
00100000
00010000
00100000
00000000
10000000
00100000
10000000
00000000
00100000
00010000
00100000
00000000
10000000
00100000
,
10000000
00000000
00100000
01000000
00100000
00000000
00001000
00010000
00001000
00000000
00000010
00001000
00000010
00000000
00000001
00000010
,
00000001
00000000
00001000
00000100
00001000
00000000
00000001
00000100
00000001
00000000
00001000
00000100
00000001
00000000
00000001
00000100
,
00001000
00000000
00001000
00000100
00000001
00000000
00000001
00000100
00001000
00000000
00000001
00000100
00001000
00000000
00001000
00000100
,
00000001
00000000
00000100
00000001
00000100
00000000
00000010
00001000
00000010
00000000
00001000
00000100
00001000
00000000
00000100
00000001
,
00000100
00000000
00001000
00000100
00001000
00000000
00000001
00000010
00000001
00000000
00000010
00001000
00000010
00000000
00001000
00010000
,
00001000
00000000
00010000
01000000
00010000
00000000
01000000
10000000
01000000
00000000
10000000
00100000
10000000
00000000
00100000
00010000
,
00100000
00000000
00010000
00001000
00010000
00000000
00000000
00000000
00011000
00000000
00000000
00000000
00011000
00000000
00001000
00000000
,
00010000
00000000
00000100
00000000
00001000
00000000
00000001
00000100
00000000
00000001
00000100
00000000
00000010
00000000
00001000
00000000
,
00010000
00000000
01000000
00000000
00100000
00000000
01000000
00100000
00000000
01000000
00100000
00000000
00010000
00000000
00001000
00000000
,
00000100
00000000
00000010
00000000
00001000
00000000
00000001
00000100
00000000
00000100
00000010
00000000
00001000
00000000
00010000
00000000
,
00100000
00000000
01000000
00000000
00010000
00000000
01000000
10000000
00000000
10000000
01000000
00000000
00100000
00000000
00010000
00000000
,
10000000
00000000
00000000
00000000
11000000
00000000
00000000
01000000
00000000
00000000
10000000
00000000
10000000
00000000
10000000
00000000
,
01000000
00000000
00000000
00000000
01010000
00000000
00000000
00010000
00000000
00000000
00001000
00000000
00001000
00000000
00001000
00000000
,
00000100
00000000
00000000
00000000
00000101
00000000
00000000
00000001
00000000
00000000
00000010
00000000
00000010
00000000
00000010
00000000
,
00000100
00000000
00000000
00000000
00000100
00000000
00000000
00000000
00000100
00000000
00000000
00001000
00000001
00000000
00001000
00000000
,
00000100
00000000
00000000
00000000
;

//---------------dance-double - Edit by silenttype01----------------
#NOTES:
     dance-double:
     Edit by silenttype01:
     Edit:
     9:
     0.672,0.837,0.113,0.021,0.716:
00000000
00000000
00000000
00000000
,
00000000
00000000
00000000
00000000
,
00000000
00000000
00000000
00000000
,
00000000
00000000
00000000
00000000
,
00000000
00000000
00000000
00000000
,
00000000
00000000
00000000
00000000
,
00000000
00000000
00000000
00000000
,
00000000
00000000
00000000
00000000
,
00000000
00000000
11111111
11111111
,
00000000
00000000
00100000
10000000
00100000
00000000
01000000
00010000
01000000
00000000
00100000
10000000
00100000
00000000
10000000
01000000
,
10000000
00000000
00010000
00100000
00010000
00000000
10000000
01000000
10000000
00000000
01000000
00100000
01000000
00000000
00010000
00001000
,
00010000
00000000
01000000
00100000
01000000
00000000
00010000
00001000
00010000
00000000
00000010
00001000
00000010
00000000
00001000
00000100
,
00001000
00000000
00000010
00001000
00000010
00000000
00000100
00000001
00000100
00000000
00000001
00000010
00000001
00000000
00001000
00000100
,
00001000
00000000
00000001
00000100
00000001
00000000
00001000
00000100
00001000
00000000
00000001
00000100
00000001
00000000
00001000
00000010
,
00001000
00000000
00000001
00000010
00000001
00000000
00000010
00000100
00000010
00000000
00000100
00001000
00000100
00000000
00010000
00001000
,
00010000
00000000
01000000
00100000
01000000
00000000
00010000
00001000
00010000
00000000
01000000
00100000
01000000
00000000
10000000
00010000
,
10000000
00000000
00010000
10000000
00010000
00000000
01000000
00100000
01000000
00000000
00100000
01000000
00100000
00000000
01000000
00000000
,
00000000
00000000
00010000
01000000
00000000
00000000
00100000
10000000
00000000
00000000
00010000
01000000
00000000
00000000
00100000
10000000
,
00000000
00000000
01000000
10000000
00000000
00000000
00010000
00100000
00000000
00000000
00001000
00010000
00000000
00000000
00000010
00001000
,
00000000
00000000
00000001
00000100
00000000
00000000
00000010
00001000
00000000
00000000
00000001
00000100
00000000
00000000
00000010
00001000
,
00000000
00000000
00000100
00001000
00000000
00000000
00000001
00000010
00000000
00000000
00000100
00001000
00000000
00000000
00010000
00100000
,
00000000
00000000
01000000
10000000
00000000
00000000
01000000
10000000
00000000
00000000
00010000
00100000
00000000
00000000
00000100
00001000
,
00000000
00000000
00000001
00000010
00000000
00000000
00000001
00000100
00000000
00000000
00000010
00010000
00000000
00000000
00000100
00001000
,
00000000
00000000
00000100
00000010
00000000
00000000
00000001
00000100
00000000
00000000
00001000
00010000
00000000
00000000
00100000
01000000
,
00200000
00000000
00000000
00000000
01000000
00000000
00000000
00000000
01300000
00000000
00000000
00100000
01000000
00000000
00100000
00000000
,
10000000
00000000
00000000
01000000
00000000
00000000
00100000
00000000
01000000
00000000
00000000
10000000
00000000
00000000
00010000
00000000
,
01000000
00000000
00000000
00100000
00000000
00000000
00010000
00000000
00001000
00000000
00000000
00000010
00000000
00000000
00001000
00010000
,
00001000
00000000
00000000
00000010
00000000
00000000
00000001
00000000
00000100
00000000
00000000
00001000
00000000
00000000
00000100
00000000
,
00000001
00000000
00000000
00000001
00000000
00000000
00001001
00000000
00000000
00000000
00000001
00000000
00000001
00000000
00001000
00000100
,
00001000
00000001
00001000
00000010
00001000
00000001
00000010
00000001
,
00001000
00000010
00000100
00001000
00010000
00000010
00000001
00001000
,
00000100
00000001
00000100
00001000
00010000
00000010
00000001
00001000
,
00000100
00000001
00001000
00000100
00001000
00000001
00000010
00000000
,
00001001
00000000
00000000
00000000
00000000
00001001
00000000
00000000
,
00000000
00000000
00000100
00000001
00000000
00000000
00000001
00000010
00000000
00000000
00000010
00001000
00000000
00000000
00001000
00000010
,
00000000
00000000
00000010
00000001
00000000
00000000
00000001
00000100
00000000
00000000
00000100
00001000
00000000
00000000
00001000
00010000
,
00000000
00000000
00010000
00000100
00000000
00000000
00000100
00010000
00000000
00000000
00010000
00100000
00000000
00000000
00100000
00010000
,
00000000
00000000
00010000
00001000
00000000
00000000
00001000
00000010
00000000
00000000
00000010
00001000
00000000
00000000
00001000
00010000
,
00000000
00000000
00010000
01000000
00000000
00000000
01000000
10000000
00000000
00000000
10000000
00100000
00000000
00000000
00100000
00010000
,
00000000
00000000
00010000
10000000
00000000
00000000
10000000
01000000
00000000
00000000
01000000
00010000
00000000
00000000
00010000
00100000
,
00000000
00000000
00100000
00001000
00000000
00000000
00001000
00010000
00000000
00000000
00010000
01000000
00000000
00000000
01000000
10000000
,
00000000
00000000
10000000
00010000
00000000
00000000
00010000
00000000
20010000
00000000
00000000
00000000
00010000
00000000
00010000
00000000
,
30010000
00000000
00100000
00010000
00100000
00000000
10000000
00100000
10000000
00000000
00100000
00010000
00100000
00000000
10000000
00100000
,
10000000
00000000
00100000
01000000
00100000
00000000
00001000
00010000
00001000
00000000
00000010
00001000
00000010
00000000
00000001
00000010
,
00000001
00000000
00001000
00000100
00001000
00000000
00000001
00000100
00000001
00000000
00001000
00000100
00000001
00000000
00000001
00000100
,
00001000
00000000
00001000
00000100
00000001
00000000
00000001
00000100
00001000
00000000
00000001
00000100
00001000
00000000
00001000
00000100
,
00000001
00000000
00000100
00000001
00000100
00000000
00000010
00001000
00000010
00000000
00001000
00000100
00001000
00000000
00000100
00000001
,
00000100
00000000
00001000
00000100
00001000
00000000
00000001
00000010
00000001
00000000
00000010
00001000
00000010
00000000
00001000
00010000
,
00001000
00000000
00010000
01000000
00010000
00000000
01000000
10000000
01000000
00000000
10000000
00100000
10000000
00000000
00100000
00010000
,
00100000
00000000
00010000
00001000
00010000
00000000
00000000
00000000
00011000
00000000
00000000
00000000
00011000
00000000
00001000
00000000
,
00010000
00000000
00000100
00000000
00001000
00000000
00000001
00000100
00000000
00000001
00000100
00000000
00000010
00000000
00001000
00000000
,
00010000
00000000
01000000
00000000
00100000
00000000
01000000
00100000
00000000
01000000
00100000
00000000
00010000
00000000
00001000
00000000
,
00000100
00000000
00000010
00000000
00001000
00000000
00000001
00000100
00000000
00000100
00000010
00000000
00001000
00000000
00010000
00000000
,
00100000
00000000
01000000
00000000
00010000
00000000
01000000
10000000
00000000
10000000
01000000
00000000
00100000
00000000
00010000
00000000
,
10000000
00000000
00000000
00000000
11000000
00000000
00000000
01000000
00000000
00000000
10000000
00000000
10000000
00000000
10000000
00000000
,
01000000
00000000
00000000
00000000
01010000
00000000
00000000
00010000
00000000
00000000
00001000
00000000
00001000
00000000
00001000
00000000
,
00000100
00000000
00000000
00000000
00000101
00000000
00000000
00000001
00000000
00000000
00000010
00000000
00000010
00000000
00000010
00000000
,
00000100
00000000
00000000
00000000
00000100
00000000
00000000
00000000
00000100
00000000
00000000
00001000
00000001
00000000
00001000
00000000
,
00000100
00000000
00000000
00000000
;

//---------------dance-single - Edit by silenttype01----------------
#NOTES:
     dance-single:
     Edit by silenttype01:
     Challenge:
     9:
     0.652,0.747,0.113,0.021,0.722:
0000
0000
0000
0000
,
0000
0000
0000
0000
,
0000
0000
0000
0000
,
0000
0000
0000
0000
,
0000
0000
0000
0000
,
0000
0000
0000
0000
,
0000
0000
0000
0000
,
0000
0000
0000
0000
,
0000
0000
0110
0110
,
0000
0000
0100
1000
0000
0000
0100
1000
0000
0000
0001
0010
0000
0000
0001
0010
,
0000
0000
0001
0100
0000
0000
0001
0100
0000
0000
0010
1000
0000
0000
0010
1000
,
0000
0000
0100
1000
0000
0000
0001
0010
0000
0000
0001
0100
0000
0000
0010
1000
,
0000
0000
0100
1000
0000
0000
0001
0010
0000
0000
0001
0100
0000
0000
0010
1000
,
0000
0000
0001
1000
0000
0000
0001
1000
0000
0000
0100
0010
0000
0000
0100
0010
,
0000
0000
0001
1000
0000
0000
0001
1000
0000
0000
0100
0010
0000
0000
0100
0010
,
0000
0000
0001
1000
0000
0000
0100
0010
0000
0000
0001
1000
0000
0000
0100
0010
,
0000
0000
0001
1000
0000
0000
0100
0010
0000
0000
0001
1000
0000
0000
0100
0010
,
0100
0000
1000
0100
1000
0000
0100
0010
0100
0000
0010
0001
0010
0000
0001
1000
,
0001
0000
0100
0001
0100
0000
0010
0100
0010
0000
1000
0010
1000
0000
0001
1000
,
0001
0000
1000
0100
1000
0000
0100
0010
0100
0000
0010
0100
0010
0000
0001
0010
,
0001
0000
1000
0001
1000
0000
0010
1000
0010
0000
0100
0001
0100
0000
0001
1000
,
0001
0000
0010
0001
0010
0000
0100
1000
0100
0000
1000
0001
1000
0000
0010
1000
,
0010
0000
0100
0001
0100
0000
0001
0010
0001
0000
1000
0100
1000
0000
0001
1000
,
0001
0000
0010
0001
0010
0000
0100
0010
0100
0000
0010
0100
0010
0000
0100
0010
,
0200
0000
0000
0000
0010
0000
0000
0000
0310
0000
0000
0100
0010
0000
0100
0000
,
1000
0000
0000
0100
0000
0000
0010
0000
0100
0000
0000
1000
0000
0000
0001
0000
,
0100
0000
0000
0010
0000
0000
0001
0000
1000
0000
0000
0100
0000
0000
0001
1000
,
0001
0000
0000
0010
0000
0000
0001
0000
1000
0000
0000
0100
0000
0000
0010
0000
,
0001
0000
0000
0001
0000
0000
1001
0000
0000
0000
0001
0000
0001
0000
1000
0100
,
1000
0001
1000
0010
1000
0001
0010
0001
,
1000
0010
0100
0001
1000
0010
0001
1000
,
0100
0001
0100
1000
0100
0001
1000
0010
,
0001
1000
0100
0001
0010
0100
0010
0000
,
1001
0000
0000
0000
0000
1001
0000
0000
,
0000
0000
1000
0010
1000
0000
0001
0100
0001
0000
1000
0100
1000
0000
0001
0010
,
0001
0000
1000
0100
1000
0000
0010
0100
0010
0000
0100
0001
0100
0000
0010
1000
,
0001
0000
1000
0100
0010
0000
0001
0100
0010
0000
1000
0100
0010
0000
0001
1000
,
0001
0000
0100
0001
0100
0000
0010
0100
0010
0000
1000
0010
1000
0000
0100
1000
,
0100
0000
0010
0001
0100
0000
0010
1000
0100
0000
0010
0001
0100
0000
0010
1000
,
0100
0000
1000
0100
1000
0000
0001
0010
0001
0000
0100
0010
0100
0000
0001
1000
,
0001
0000
1000
0100
0001
0000
0001
0100
1000
0000
1000
0100
0001
0000
0001
0100
,
1000
0000
1000
0100
0001
0000
0100
0000
0210
0000
0000
0000
0001
0000
0001
0000
,
0301
0000
0100
1000
0000
0000
1000
0010
0000
0000
0010
0001
0000
0000
0001
1000
,
0000
0000
1000
0100
0000
0000
0100
0001
0000
0000
0001
0010
0000
0000
0010
0100
,
0000
0000
0100
1000
0000
0000
1000
0001
0000
0000
0001
0010
0000
0000
0010
1000
,
0000
0000
1000
0001
0000
0000
0001
0100
0000
0000
0100
1000
0000
0000
1000
0001
,
0000
0000
0001
0100
0000
0000
0100
1000
0000
0000
1000
0100
0000
0000
0100
0001
,
0000
0000
0001
1000
0000
0000
1000
0001
0000
0000
0001
0010
0000
0000
0010
1000
,
0000
0000
1000
0010
0000
0000
0010
0001
0000
0000
0001
0100
0000
0000
0100
1000
,
0000
0000
1000
0100
0000
0000
0100
0000
1001
0000
0000
0000
1001
0000
0010
0000
,
0100
0000
1000
0000
0001
0000
0100
0001
0000
0100
0001
0000
0010
0000
0001
0000
,
1000
0000
0010
0000
0100
0000
0010
0100
0000
0010
1000
0000
0001
0000
1000
0000
,
0100
0000
0010
0000
0001
0000
1000
0100
0000
0100
1000
0000
0010
0000
0001
0000
,
0010
0000
1000
0000
0100
0000
0010
0001
0000
0001
0010
0000
0100
0000
0001
0000
,
0100
0000
0000
0000
1100
0000
0000
1000
0000
0000
0010
0000
0010
0000
0010
0000
,
0100
0000
0000
0000
0101
0000
0000
0001
0000
0000
0100
0000
0100
0000
0100
0000
,
0001
0000
0000
0000
0011
0000
0000
0010
0000
0000
0001
0000
0001
0000
0001
0000
,
0100
0000
0000
0000
0100
0000
0000
0000
0100
0000
0000
1000
0001
0000
1000
0000
,
0100
0000
0000
0000
;

//---------------dance-single - Copied from Edit by silenttype01----------------
#NOTES:
     dance-single:
     Copied from Edit by silenttype01:
     Edit:
     9:
     0.658,0.747,0.113,0.021,0.722: // measure 1
0000
0000
0000
0000
,  // measure 2
0000
0000
0000
0000
,  // measure 3
0000
0000
0000
0000
,  // measure 4
0000
0000
0000
0000
,  // measure 5
0000
0000
0000
0000
,  // measure 6
0000
0000
0000
0000
,  // measure 7
0000
0000
0000
0000
,  // measure 8
0000
0000
0000
0000
,  // measure 9
0000
0000
1111
1111
,  // measure 10
0000
0000
0100
1000
0000
0000
0100
1000
0000
0000
0001
0010
0000
0000
0001
0010
,  // measure 11
0000
0000
0001
0100
0000
0000
0001
0100
0000
0000
0010
1000
0000
0000
0010
1000
,  // measure 12
0000
0000
0100
1000
0000
0000
0001
0010
0000
0000
0001
0100
0000
0000
0010
1000
,  // measure 13
0000
0000
0100
1000
0000
0000
0001
0010
0000
0000
0001
0100
0000
0000
0010
1000
,  // measure 14
0000
0000
0001
1000
0000
0000
0001
1000
0000
0000
0100
0010
0000
0000
0100
0010
,  // measure 15
0000
0000
0001
1000
0000
0000
0001
1000
0000
0000
0100
0010
0000
0000
0100
0010
,  // measure 16
0000
0000
0001
1000
0000
0000
0100
0010
0000
0000
0001
1000
0000
0000
0100
0010
,  // measure 17
0000
0000
0001
1000
0000
0000
0100
0010
0000
0000
0001
1000
0000
0000
0100
0010
,  // measure 18
0100
0000
1000
0100
1000
0000
0100
0010
0100
0000
0010
0001
0010
0000
0001
1000
,  // measure 19
0001
0000
0100
0001
0100
0000
0010
0100
0010
0000
1000
0010
1000
0000
0001
1000
,  // measure 20
0001
0000
1000
0100
1000
0000
0100
0010
0100
0000
0010
0100
0010
0000
0001
0010
,  // measure 21
0001
0000
1000
0001
1000
0000
0010
1000
0010
0000
0100
0001
0100
0000
0001
1000
,  // measure 22
0001
0000
0010
0001
0010
0000
0100
1000
0100
0000
1000
0001
1000
0000
0010
1000
,  // measure 23
0010
0000
0100
0001
0100
0000
0001
0010
0001
0000
1000
0100
1000
0000
0001
1000
,  // measure 24
0001
0000
0010
0001
0010
0000
0100
0010
0100
0000
0010
0100
0010
0000
0100
0010
,  // measure 25
0200
0000
0000
0000
0010
0000
0000
0000
0310
0000
0000
0100
0010
0000
0100
0000
,  // measure 26
1000
0000
0000
0100
0000
0000
0010
0000
0100
0000
0000
1000
0000
0000
0001
0000
,  // measure 27
0100
0000
0000
0010
0000
0000
0001
0000
1000
0000
0000
0100
0000
0000
0001
1000
,  // measure 28
0001
0000
0000
0010
0000
0000
0001
0000
1000
0000
0000
0100
0000
0000
0010
0000
,  // measure 29
0001
0000
0000
0001
0000
0000
1001
0000
0000
0000
0001
0000
0001
0000
1000
0100
,  // measure 30
1000
0001
1000
0010
1000
0001
0010
0001
,  // measure 31
1000
0010
0100
0001
1000
0010
0001
1000
,  // measure 32
0100
0001
0100
1000
0100
0001
1000
0010
,  // measure 33
0001
1000
0100
0001
0010
0100
0010
0000
,  // measure 34
1001
0000
0000
0000
0000
1001
0000
0000
,  // measure 35
0000
0000
1000
0010
1000
0000
0001
0100
0001
0000
1000
0100
1000
0000
0001
0010
,  // measure 36
0001
0000
1000
0100
1000
0000
0010
0100
0010
0000
0100
0001
0100
0000
0010
1000
,  // measure 37
0001
0000
1000
0100
0010
0000
0001
0100
0010
0000
1000
0100
0010
0000
0001
1000
,  // measure 38
0001
0000
0100
0001
0100
0000
0010
0100
0010
0000
1000
0010
1000
0000
0100
1000
,  // measure 39
0100
0000
0010
0001
0100
0000
0010
1000
0100
0000
0010
0001
0100
0000
0010
1000
,  // measure 40
0100
0000
1000
0100
1000
0000
0001
0010
0001
0000
0100
0010
0100
0000
0001
1000
,  // measure 41
0001
0000
1000
0100
0001
0000
0001
0100
1000
0000
1000
0100
0001
0000
0001
0100
,  // measure 42
1000
0000
1000
0100
0001
0000
0100
0000
0210
0000
0000
0000
0001
0000
0001
0000
,  // measure 43
0301
0000
0100
1000
0000
0000
1000
0010
0000
0000
0010
0001
0000
0000
0001
1000
,  // measure 44
0000
0000
1000
0100
0000
0000
0100
0001
0000
0000
0001
0010
0000
0000
0010
0100
,  // measure 45
0000
0000
0100
1000
0000
0000
1000
0001
0000
0000
0001
0010
0000
0000
0010
1000
,  // measure 46
0000
0000
1000
0001
0000
0000
0001
0100
0000
0000
0100
1000
0000
0000
1000
0001
,  // measure 47
0000
0000
0001
0100
0000
0000
0100
1000
0000
0000
1000
0100
0000
0000
0100
0001
,  // measure 48
0000
0000
0001
1000
0000
0000
1000
0001
0000
0000
0001
0010
0000
0000
0010
1000
,  // measure 49
0000
0000
1000
0010
0000
0000
0010
0001
0000
0000
0001
0100
0000
0000
0100
1000
,  // measure 50
0000
0000
1000
0100
0000
0000
0100
0000
1001
0000
0000
0000
1001
0000
0010
0000
,  // measure 51
0100
0000
1000
0000
0001
0000
0100
0001
0000
0100
0001
0000
0010
0000
0001
0000
,  // measure 52
1000
0000
0010
0000
0100
0000
0010
0100
0000
0010
1000
0000
0001
0000
1000
0000
,  // measure 53
0100
0000
0010
0000
0001
0000
1000
0100
0000
0100
1000
0000
0010
0000
0001
0000
,  // measure 54
0010
0000
1000
0000
0100
0000
0010
0001
0000
0001
0010
0000
0100
0000
0001
0000
,  // measure 55
0100
0000
0000
0000
1100
0000
0000
1000
0000
0000
0010
0000
0010
0000
0010
0000
,  // measure 56
0100
0000
0000
0000
0101
0000
0000
0001
0000
0000
0100
0000
0100
0000
0100
0000
,  // measure 57
0001
0000
0000
0000
0011
0000
0000
0010
0000
0000
0001
0000
0001
0000
0001
0000
,  // measure 58
0100
0000
0000
0000
0100
0000
0000
0000
0100
0000
0000
1000
0001
0000
1000
0000
,  // measure 59
0100
0000
0000
0000
;
