#TITLE:GET UP'N MOVE;
#SUBTITLE:(Solo Bass Mix);
#ARTIST:S & K;
#TITLETRANSLIT:;
#SUBTITLETRANSLIT:;
#ARTISTTRANSLIT:;
#CREDIT:;
#BANNER:GET UP'N MOVE.png;
#BACKGROUND:GET UP'N MOVE-bg.png;
#LYRICSPATH:;
#CDTITLE:Dance Dance Revolution Solo.png;
#MUSIC:GET UP'N MOVE.ogg;
#OFFSET:0.000;
#SAMPLESTART:21.798;
#SAMPLELENGTH:15.000;
#SELECTABLE:YES;
#DISPLAYBPM:132.000;
#BPMS:0.000=132.011,8.000=131.945,21.000=132.783,23.000=137.806,24.000=131.976,80.000=131.768,88.000=132.066,112.000=131.893,144.000=132.037,176.000=131.574,180.000=132.382,183.000=132.416,183.500=120.522,184.000=131.868,195.000=135.057,196.000=131.772;
#STOPS:;
#BGCHANGES:;

//---------------dance-single - ----------------
#NOTES:
     dance-single:
     :
     Easy:
     3:
     0.243,0.268,0.119,0.000,0.000:
0000
0000
0000
0000
,
0000
0000
0000
0000
,
0000
0000
0000
0000
,
0000
0000
0000
0000
,
0000
0001
0000
1000
,
0001
0010
0001
0000
,
1000
0010
1000
0010
,
0001
0010
0100
1001
,
0000
0001
0001
0001
,
1000
1000
0001
1001
,
0000
0010
1000
0010
,
0001
0010
0100
1001
,
0000
0010
0001
0000
,
1000
1000
0001
1001
,
0000
0010
1000
0000
,
0000
0000
0001
0000
0001
0000
1000
0001
,
0000
1000
0010
1000
,
0001
0010
0001
0000
,
0010
0010
0100
0000
,
0001
0010
0100
1001
,
0010
0000
1000
0000
,
0001
1000
0001
0001
,
0000
0001
1000
1000
,
0000
1000
0001
0001
,
0000
1000
0000
0010
,
0000
0001
0000
0010
,
0000
1000
1000
1000
,
0000
0001
0001
0001
,
1000
0010
0001
0000
,
1000
0010
0010
0000
,
0100
0001
0001
0000
,
1000
0010
0010
0000
,
0001
0001
0001
0000
,
1000
1000
0010
0010
,
0100
0001
0010
1000
,
0010
0010
1000
0001
,
1000
0010
1000
0010
,
0001
0010
0100
1001
,
0000
0001
0001
0001
,
1000
1000
0001
1001
,
0000
0010
1000
0010
,
0001
0010
0100
1001
,
0000
0010
0001
0000
,
1000
1000
0001
1001
,
0000
0010
1000
0000
,
0001
0001
0100
0000
,
0000
0010
0001
0000
,
1000
0010
1000
0000
,
0010
0001
0001
0001
,
1000
0010
1001
1001
;

//---------------dance-single - ----------------
#NOTES:
     dance-single:
     :
     Medium:
     5:
     0.308,0.322,0.011,0.000,0.000:
0000
0000
0000
0000
,
0000
0000
0000
0000
,
0000
0000
0000
0000
,
0000
0000
0000
0000
,
0001
0001
0000
0000
1000
1000
0000
0000
,
0001
0010
1000
0000
,
0000
0010
0001
0100
,
1000
0000
0100
0100
0010
0100
0010
0000
,
0000
0010
1000
0100
,
0001
0000
0100
0001
1000
0001
1000
0000
,
0000
0010
0001
0100
,
1000
0000
0010
0010
0100
0010
0010
0000
,
0000
0010
1000
0100
,
0001
0000
0100
0001
1000
0001
1000
0000
,
0000
0010
0001
0100
,
1000
0000
0010
0000
0010
0000
1000
0001
,
0000
0010
1000
0100
,
0001
0100
0100
0000
,
0000
0010
0001
0100
,
1000
0000
0100
0100
0010
0100
0010
0000
,
1000
0001
1000
0001
,
1000
0000
0100
0000
1000
0001
0100
0000
,
0100
1000
0100
0001
,
0001
0000
0000
0000
0001
1000
0100
0000
,
0100
0001
0100
1000
,
0100
0000
0000
0000
0100
1000
0001
0000
,
0010
1000
0001
0100
,
1000
0000
0000
0000
0001
0100
0010
0000
,
0100
0100
0001
0000
1000
0000
0000
0000
,
0001
0001
1000
0000
0001
0000
0000
0000
,
0010
0010
0100
0000
0010
0000
0000
0000
,
0001
0001
0001
0000
1000
0000
0000
0000
,
0010
1000
0001
0000
0100
0000
0000
0000
,
1000
0001
0001
0000
0100
0000
0000
0000
,
1000
0010
1000
0001
0100
0100
0000
0000
,
0010
0100
0001
0000
1000
0010
0100
0000
,
0000
0010
0001
0100
,
1000
0000
0100
0100
0010
0100
0010
0000
,
0000
0010
1000
0100
,
0001
0000
0100
0001
1000
0001
1000
0000
,
0000
0010
0001
0100
,
1000
0000
0010
0010
0100
0010
0010
0000
,
0000
0010
1000
0100
,
0001
0000
0100
0001
1000
0001
1000
0000
,
0000
0010
0001
0100
,
1000
0000
0010
0000
1000
0001
0100
0000
,
0001
1000
0001
1000
,
0100
0000
0001
0000
0100
0010
1000
0000
,
0001
1000
1000
0001
,
1000
1000
0001
0001
1000
0001
1001
0000
;

//---------------dance-single - ----------------
#NOTES:
     dance-single:
     :
     Hard:
     7:
     0.380,0.456,0.043,0.000,0.216:
0000
0000
0000
0000
,
0000
0000
0000
0000
,
0000
0000
0000
0000
,
0000
0000
0000
0000
,
0010
0001
0000
0000
1000
0010
0000
0000
,
0010
0010
0010
0000
,
0000
0000
1000
0000
0000
0010
0000
0000
1000
0000
0000
0010
0000
0000
1000
0000
,
0000
0000
0001
0000
0000
0010
0000
0000
0001
0000
0000
0000
1000
0000
0000
0000
,
0000
0000
0010
0000
0000
1000
0000
0000
0010
0000
0000
1000
0000
0000
0010
0000
,
0000
0000
1000
0000
0000
0010
0000
0000
1000
0000
0000
0000
0001
0000
0000
0000
,
0000
0000
1000
0000
0000
0010
0000
0000
1000
0000
0000
0010
0000
0000
1000
0000
,
0000
0000
0010
0000
0000
1000
0000
0000
0001
0000
0000
0000
1000
0000
0000
0000
,
0010
0000
0000
0000
1000
0000
0001
0100
0000
0000
0000
0000
0000
0000
0000
0000
,
0010
0000
0000
0000
0001
0000
1000
0100
0000
0000
0000
0000
0000
0000
0000
0000
,
1000
0000
0000
0000
0010
0000
0100
0001
0000
0000
0000
0000
0000
0000
0000
0000
,
1000
0000
0000
0000
0010
0000
0100
0001
0000
0000
0000
0000
1000
0000
0001
0000
,
0000
0000
0010
0000
0000
0010
0000
0000
0010
0000
0000
0010
0000
0000
0010
0000
,
0000
0000
0100
0000
0000
0100
0000
0000
0100
0000
0000
0100
0000
0000
0000
0000
,
0010
0001
0010
0001
,
1000
0000
1001
1001
,
0010
0001
1000
0001
0100
0010
1000
0000
,
0001
0010
0001
0000
0100
0010
1000
0000
,
0100
0100
1000
0000
0100
0100
0001
0000
,
0100
0010
0001
0000
0100
0010
1000
0000
,
0100
0010
0001
0000
0100
0010
1000
0000
,
0100
0010
0001
0000
0100
0010
1000
0001
,
0000
0100
0010
1000
0001
0100
0010
1000
,
0000
0100
0010
0001
1000
0001
1000
0000
,
0010
0100
0001
0100
1000
0100
1000
0100
,
0010
0100
0001
0100
1000
0100
1000
0100
,
0010
0100
0001
0100
1000
0100
1000
0100
,
0010
0100
1000
0100
0010
0100
0010
1000
,
0100
1000
0100
0010
0001
0010
0001
0010
,
0001
0100
1000
0000
0100
0000
0100
0000
,
1001
0000
0001
1000
0100
0010
0100
0000
,
0010
0100
1000
0000
1001
0001
0100
0000
,
0010
0000
0000
0000
1000
0000
0001
0100
0000
0000
0000
0000
0000
0000
0000
0000
,
0010
0000
0000
0000
0001
0000
1000
0100
0000
0000
0000
0000
0000
0000
0000
0000
,
0000
0000
0100
0000
0000
0100
0000
0000
0100
0000
0000
0100
0000
0000
0100
0000
,
0000
0000
1000
0000
0000
1000
0000
0000
0001
0000
0000
0000
1000
0000
0000
0000
,
0010
0000
0000
0000
1000
0000
0001
0100
0000
0000
0000
0000
0000
0000
0000
0000
,
0010
0000
0000
0000
0001
0000
1000
0100
0000
0000
0000
0000
0000
0000
0000
0000
,
0000
0000
1000
0000
0000
0010
0000
0000
1000
0000
0000
0010
0000
0000
1000
0000
,
0000
0000
0010
0000
0000
1000
0000
0000
0001
0000
0000
0000
1000
0000
0000
0000
,
0000
0000
0010
0000
0000
1000
0000
0000
0010
0000
0000
1000
0000
0000
0010
0000
,
0000
0000
0001
0000
0000
0001
0000
0000
0001
0000
0000
0001
0000
0000
0001
0000
,
0000
0000
0010
0000
0000
1000
0000
0000
0010
0000
0000
1000
0000
0000
0010
0000
,
0000
0000
0001
0000
0000
0001
0000
0000
0001
0000
0000
0001
0000
0000
0001
0000
,
0000
0000
0010
0000
0000
0100
0000
0000
0010
0000
0000
0100
0000
0000
0010
0000
,
0000
0001
0010
0001
1000
0001
1000
0000
0001
0000
0000
0000
1000
0000
0000
0000
;

//---------------dance-solo - ----------------
#NOTES:
     dance-solo:
     :
     Easy:
     3:
     0.243,0.268,0.119,0.000,0.000:
000000
000000
000000
000000
,
000000
000000
000000
000000
,
000000
000000
000000
000000
,
000000
000000
000000
000000
,
000000
000010
000000
010000
,
000010
000010
000010
000000
,
010000
010000
010000
010000
,
000010
000010
010000
100001
,
000000
000001
000001
000001
,
100000
100000
000001
010010
,
000000
010000
010000
010000
,
000010
000010
010000
100001
,
000000
000100
000001
000000
,
100000
100000
000001
010010
,
000000
000100
100000
000000
,
000000
000000
000001
000000
000001
000000
010000
000010
,
000000
010000
010000
010000
,
000010
000010
000010
000000
,
000100
000100
001000
000000
,
000010
000010
010000
100001
,
000010
000000
010000
000000
,
000001
100000
000001
000001
,
000000
000001
100000
100000
,
000000
100000
000001
000001
,
000000
010000
000000
010000
,
000000
000010
000000
000010
,
000000
100000
100000
100000
,
000000
000001
000001
000001
,
010000
010000
000001
000000
,
100000
000100
000100
000000
,
000010
000001
000001
000000
,
100000
000100
000100
000000
,
000001
000001
000001
000000
,
100000
100000
000100
000100
,
000010
000001
010000
100000
,
000100
000100
010000
000010
,
010000
010000
010000
010000
,
000010
000010
010000
100001
,
000000
000001
000001
000001
,
100000
100000
000001
010010
,
000000
010000
010000
010000
,
000010
000010
010000
100001
,
000000
000100
000001
000000
,
100000
100000
000001
010010
,
000000
000100
100000
000000
,
000001
000001
000010
000000
,
000000
000100
000001
000000
,
010000
010000
100000
000000
,
000100
000001
000001
000001
,
010000
010000
010010
100001
;

//---------------dance-solo - ----------------
#NOTES:
     dance-solo:
     :
     Medium:
     5:
     0.310,0.349,0.022,0.000,0.000:
000000
000000
000000
000000
,
000000
000000
000000
000000
,
000000
000000
000000
000000
,
000000
000000
000000
000000
,
000001
000001
000000
000000
100000
100000
000000
000000
,
000010
000010
010000
000000
,
000000
000100
000001
001000
,
100000
000000
001000
001000
000100
001000
000100
000000
,
000000
000100
100000
001000
,
000001
000000
001000
000001
100000
000001
100000
000000
,
000000
000100
000001
001000
,
100000
000000
000100
000100
001000
000100
000100
000000
,
000000
000100
100000
001000
,
000001
000000
001000
100000
000001
100000
000001
000000
,
000000
000100
000001
001000
,
100000
000000
000100
000000
000100
000000
010000
000010
,
000000
000100
100000
001000
,
000001
001000
001000
000000
,
000000
000100
000001
001000
,
100000
000000
001000
001000
000100
001000
000100
000000
,
010000
000010
100000
000001
,
100000
000000
001000
000000
100000
000001
001000
000000
,
001000
100000
001000
000001
,
000001
000000
000000
000000
000001
100000
001000
000000
,
001000
000001
001000
100000
,
001000
000000
000000
000000
001000
100000
000010
000000
,
010000
100000
000001
001000
,
100000
000000
000000
000000
000001
001000
100000
000000
,
001000
001000
100000
000000
000001
000000
000000
000000
,
000001
000001
100000
000000
000001
000000
000000
000000
,
000100
000100
001000
000000
000100
000000
000000
000000
,
000001
000001
000001
000000
100000
000000
000000
000000
,
010000
010000
000010
000000
001000
000000
000000
000000
,
100000
000001
000001
000000
001000
000000
000000
000000
,
010000
010000
000001
100000
001000
001000
000000
000000
,
000100
001000
000001
000000
100001
000001
000010
000000
,
000000
000100
000001
001000
,
100000
000000
001000
001000
000100
001000
000100
000000
,
000000
000100
100000
001000
,
000001
000000
001000
100000
000001
100000
000001
000000
,
000000
000100
000001
001000
,
100000
000000
000100
000100
001000
000100
000100
000000
,
000000
000100
100000
001000
,
000001
000000
001000
000001
100000
000001
100000
000000
,
000000
000100
000001
001000
,
100000
000000
000100
000000
100000
000001
001000
000000
,
000001
010000
000010
100000
,
001000
000000
000001
000000
001000
100000
010000
000000
,
000010
100000
100000
000001
,
100000
100000
000001
000001
010000
000010
010010
000000
;

//---------------dance-solo - ----------------
#NOTES:
     dance-solo:
     :
     Hard:
     7:
     0.399,0.456,0.172,0.000,0.216:
000000
000000
000000
000000
,
000000
000000
000000
000000
,
000000
000000
000000
000000
,
000000
000000
000000
000000
,
000010
000001
000000
000000
010000
100000
000000
000000
,
000100
000100
000100
000000
,
000000
000000
100000
000000
000000
000100
000000
000000
100000
000000
000000
000100
000000
000000
100000
000000
,
000000
000000
000100
000000
000000
000001
000000
000000
110000
000000
000000
000000
000011
000000
000000
000000
,
000000
000000
000100
000000
000000
000001
000000
000000
000100
000000
000000
000001
000000
000000
000100
000000
,
000000
000000
000001
000000
000000
000100
000000
000000
110000
000000
000000
000000
000011
000000
000000
000000
,
000000
000000
100000
000000
000000
000100
000000
000000
100000
000000
000000
000100
000000
000000
100000
000000
,
000000
000000
000100
000000
000000
000001
000000
000000
110000
000000
000000
000000
000011
000000
000000
000000
,
000100
000000
000000
000000
000001
000000
100000
001000
000000
000000
000000
000000
000000
000000
000000
000000
,
000100
000000
000000
000000
000001
000000
100000
001000
000000
000000
000000
000000
000000
000000
000000
000000
,
100000
000000
000000
000000
000100
000000
001000
000001
000000
000000
000000
000000
000000
000000
000000
000000
,
100000
000000
000000
000000
000100
000000
001000
000001
000000
000000
000000
000000
010000
000000
000010
000000
,
000000
000000
000100
000000
000000
000100
000000
000000
000100
000000
000000
000100
000000
000000
000100
000000
,
000000
000000
001000
000000
000000
001000
000000
000000
001000
000000
000000
001000
000000
000000
000000
000000
,
000010
000001
010000
100000
,
000001
000000
010010
100001
,
010000
000010
100000
000001
001000
000100
100000
000000
,
000010
000010
000010
000000
001000
000100
000001
000000
,
001000
001000
100000
000000
001000
001000
000001
000000
,
001000
000100
000001
000000
001000
000100
100000
000000
,
001000
000100
000001
000000
001000
000100
100000
000000
,
001000
000100
000001
000000
001000
000100
100000
000001
,
000000
001000
000100
100000
000001
001000
000100
000001
,
000000
001000
000100
100000
000001
100000
000001
000000
,
000100
001000
000001
001000
100000
001000
100000
001000
,
000100
001000
000001
001000
100000
001000
100000
001000
,
000100
001000
000001
001000
100000
001000
100000
001000
,
000100
001000
100000
001000
000100
001000
000100
000001
,
001000
100000
001000
000001
000100
000001
000100
000001
,
100000
001000
000001
000000
001000
000000
001000
000000
,
010010
000000
000001
100000
001000
000100
001000
000000
,
000100
001000
000001
000000
100001
000001
000010
000000
,
000100
000000
000000
000000
000001
000000
100000
001000
000000
000000
000000
000000
000000
000000
000000
000000
,
000100
000000
000000
000000
000001
000000
100000
001000
000000
000000
000000
000000
000000
000000
000000
000000
,
000000
000000
001000
000000
000000
001000
000000
000000
001000
000000
000000
001000
000000
000000
001000
000000
,
000000
000000
100000
000000
000000
100000
000000
000000
000011
000000
000000
000000
110000
000000
000000
000000
,
000100
000000
000000
000000
000001
000000
100000
001000
000000
000000
000000
000000
000000
000000
000000
000000
,
000100
000000
000000
000000
000001
000000
100000
001000
000000
000000
000000
000000
000000
000000
000000
000000
,
000000
000000
100000
000000
000000
000100
000000
000000
100000
000000
000000
000100
000000
000000
100000
000000
,
000000
000000
000100
000000
000000
000001
000000
000000
110000
000000
000000
000000
000011
000000
000000
000000
,
000000
000000
000100
000000
000000
000001
000000
000000
000100
000000
000000
000001
000000
000000
000100
000000
,
000000
000000
100000
000000
000000
100000
000000
000000
100000
000000
000000
100000
000000
000000
100000
000000
,
000000
000000
000100
000000
000000
100000
000000
000000
000100
000000
000000
100000
000000
000000
000100
000000
,
000000
000000
000001
000000
000000
000001
000000
000000
000001
000000
000000
000001
000000
000000
000001
000000
,
000000
000000
000100
000000
000000
001000
000000
000000
000100
000000
000000
001000
000000
000000
000100
000000
,
000000
100000
000100
100000
000001
100000
000001
000000
110000
000000
000000
000000
000011
000000
000000
000000
;

//---------------dance-double - Edit by silenttype01----------------
#NOTES:
     dance-double:
     Edit by silenttype01:
     Easy:
     4:
     0.234,0.268,0.129,0.022,0.000: // measure 1
00000000
00000000
00000000
00000000
,  // measure 2
00000000
00000000
00000000
00000000
,  // measure 3
00000000
00000000
00000000
00000000
,  // measure 4
00000000
00000000
00000000
00000000
,  // measure 5
00000000
00000000
00000000
00000000
,  // measure 6
00000000
00000000
00000000
00000000
,  // measure 7
00000001
00000100
00000001
00000100
,  // measure 8
00001000
01000000
00100000
10010000
,  // measure 9
00000000
10000000
10000000
10000000
,  // measure 10
00010000
00010000
10000000
10010000
,  // measure 11
00000000
01000000
00001000
01000000
,  // measure 12
00010000
01000000
00100000
10010000
,  // measure 13
00000000
01000000
10000000
00000000
,  // measure 14
00010000
00010000
00001000
00001001
,  // measure 15
00000000
00000100
00000001
00000000
,  // measure 16
00000000
00000000
00001000
00000000
00001000
00000000
00000001
00001000
,  // measure 17
00000000
00000001
00000100
00000001
,  // measure 18
00001000
00000100
00010000
00000000
,  // measure 19
00001000
00001000
00010000
00000000
,  // measure 20
10000000
01000000
00100000
00010000
,  // measure 21
02200000
00000000
00000000
00000000
,  // measure 22
03300000
00000000
00000000
10010000
,  // measure 23
00000000
10000000
00010000
00010000
,  // measure 24
00000000
00010000
10000000
10000000
,  // measure 25
00000000
00010000
00000000
01000000
,  // measure 26
00000000
10000000
00000000
01000000
,  // measure 27
00000000
00010000
00010000
00010000
,  // measure 28
00000000
00001000
00001000
00001000
,  // measure 29
00000001
00000100
00001000
00000000
,  // measure 30
00010000
01000000
01000000
00000000
,  // measure 31
00100000
10000000
10000000
00000000
,  // measure 32
00010000
01000000
01000000
00000000
,  // measure 33
10000000
10000000
10000000
00000000
,  // measure 34
00010000
00010000
00000100
00000100
,  // measure 35
00000010
00001000
00000100
00010000
,  // measure 36
00000100
00000100
00010000
00001000
,  // measure 37
00010000
00000100
00010000
00000100
,  // measure 38
00001000
00000100
00000010
00001001
,  // measure 39
00000000
00001000
00001000
00001000
,  // measure 40
00010000
00010000
10000000
10010000
,  // measure 41
00000000
01000000
00010000
01000000
,  // measure 42
10000000
01000000
00100000
10010000
,  // measure 43
00000000
00000100
00001000
00000000
,  // measure 44
00000001
00000001
00001000
00001001
,  // measure 45
00000000
00000100
00000001
00000000
,  // measure 46
00001000
00001000
00000010
00000000
,  // measure 47
00000000
00000100
00001000
00000000
,  // measure 48
00010000
01000000
00010000
00000000
,  // measure 49
00000100
00001000
00001000
00001000
,  // measure 50
00010000
00001000
00011000
00011000
;

//---------------dance-double - Edit by silenttype01----------------
#NOTES:
     dance-double:
     Edit by silenttype01:
     Medium:
     7:
     0.300,0.375,0.000,0.000,0.032: // measure 1
00000000
00000000
00000000
00000000
,  // measure 2
00000000
00000000
00000000
00000000
,  // measure 3
00000000
00000000
00000000
00000000
,  // measure 4
00000000
00000000
00000000
00000000
,  // measure 5
00000000
00000000
00000000
00000000
,  // measure 6
00000000
00000000
00000000
00000000
,  // measure 7
00000000
01000000
10000000
00100000
,  // measure 8
00010000
00000000
00100000
00100000
01000000
00100000
01000000
00000000
,  // measure 9
00000000
01000000
00010000
00100000
,  // measure 10
10000000
00000000
00100000
10000000
00010000
10000000
00010000
00000000
,  // measure 11
00000000
01000000
10000000
00100000
,  // measure 12
00010000
00000000
00000100
00000100
00000010
00000100
00000100
00000000
,  // measure 13
00000000
00000100
00000001
00000010
,  // measure 14
00001000
00000000
00000010
00001000
00000001
00001000
00000001
00000000
,  // measure 15
00000000
00000100
00001000
00100000
,  // measure 16
00010000
00000000
01000000
00000000
01000000
00000000
00010000
10000000
,  // measure 17
00000000
01000000
00010000
00100000
,  // measure 18
10000000
00100000
00100000
00000000
,  // measure 19
00000000
01000000
10000000
00100000
,  // measure 20
00010000
00000000
00100000
00100000
01000000
00100000
01000000
00000000
,  // measure 21
00010000
00001000
00010000
00001000
,  // measure 22
00010000
00000000
00000010
00000000
00010000
00001000
00000010
00000000
,  // measure 23
00000010
00000001
00000010
00001000
,  // measure 24
00001000
00000000
00000000
00000000
00010000
00001000
00000010
00000000
,  // measure 25
00000010
00001000
00100000
00010000
,  // measure 26
00100000
00000000
00000000
00000000
00100000
00010000
10000000
00000000
,  // measure 27
01000000
00010000
00001000
00000010
,  // measure 28
00000001
00000000
00000000
00000000
00001000
00000010
00000100
00000000
,  // measure 29
00000010
00000010
00001000
00000000
00000001
00000000
00000000
00000000
,  // measure 30
00001000
00000010
00000100
00000000
00001000
00000000
00000000
00000000
,  // measure 31
00010000
01000000
00100000
00000000
01000000
00000000
00000000
00000000
,  // measure 32
10000000
01000000
10000000
00000000
00010000
00000000
00000000
00000000
,  // measure 33
00000100
00000001
00001000
00000000
00000010
00000000
00000000
00000000
,  // measure 34
00010000
00001000
00000100
00000000
00000010
00000000
00000000
00000000
,  // measure 35
00000001
00000100
00000001
00001000
00000010
00000010
00000000
00000000
,  // measure 36
00000100
00000010
00001000
00000000
00000001
00000100
00000010
00000000
,  // measure 37
00000000
00000100
00001000
00100000
,  // measure 38
00010000
00000000
00100000
00100000
01000000
00100000
01000000
00000000
,  // measure 39
00000000
01000000
00010000
00100000
,  // measure 40
10000000
00000000
00100000
10000000
00010000
10000000
00010000
00000000
,  // measure 41
00000000
01000000
10000000
00100000
,  // measure 42
00010000
00000000
00000100
00000100
00000010
00000100
00000100
00000000
,  // measure 43
00000000
00000100
00000001
00000010
,  // measure 44
00001000
00000000
00000010
00001000
00000001
00001000
00000001
00000000
,  // measure 45
00000000
00000100
00001000
00000010
,  // measure 46
00000001
00000000
00000100
00000000
00000001
00001000
00000010
00000000
,  // measure 47
00010000
00001000
00010000
00001000
,  // measure 48
00000010
00000000
00001000
00000000
00000010
00000100
00000001
00000000
,  // measure 49
00001000
00010000
00010000
00001000
,  // measure 50
00010000
00001000
00010000
00001000
00010000
00001000
00010000
00001000
00010000
00001000
00000000
00000000
;

//---------------dance-single - Edit by silenttype01----------------
#NOTES:
     dance-single:
     Edit by silenttype01:
     Challenge:
     9:
     0.416,0.456,0.129,0.216,0.307:
0000
0000
0000
0000
,
M000
000M
000M
M000
M000
000M
000M
0M00
00M0
M000
0000
0000
,
0000
0000
0000
0000
,
0000
0000
0000
0000
,
0000
0000
0000
0000
,
0000
0000
0000
1001
,
0000
0000
0001
0000
0000
0001
0000
0000
0010
0000
0000
0010
0000
0000
0100
0000
,
0000
0000
1000
0000
0000
1000
0000
0000
0010
0000
0000
0010
0000
0000
0100
0000
,
0000
0000
0001
0000
0000
0001
0000
0000
0001
0000
0000
0100
0000
0000
0100
0000
,
0000
0000
1000
0000
0000
1000
0000
0000
1000
0000
0000
0100
0000
0000
0100
0000
,
0000
0000
0010
0000
0000
0010
0000
0000
0100
0000
0000
0010
0000
0000
0010
0000
,
0000
0000
0100
0000
0000
0100
0000
0000
0010
0000
0000
0100
0000
0000
0100
0000
,
0020
0000
0000
0000
1030
0000
0001
0200
0000
0000
0000
0000
0300
0000
0000
0000
,
0020
0000
0000
0000
1030
0000
0001
0200
0000
0000
0000
0000
0300
0000
0000
0000
,
0020
0000
0000
0000
1030
0000
0001
0200
0000
0000
0000
0000
0300
0000
0000
0000
,
0020
0000
0000
0000
1030
0000
0001
0200
0000
0000
0300
0000
0002
0000
0013
0000
,
0000
0000
0001
0000
0000
0010
0000
0000
1000
0000
0000
0100
0000
0000
0001
0000
,
0020
0000
0000
0000
0031
0000
1000
0200
0000
0000
0000
0000
0300
0000
0000
0000
,
0100
0000
0000
0000
0000
0000
0100
0000
0000
0000
0100
0000
0000
0100
0000
0000
,
0100
0000
0000
1001
,
0200
0310
0000
0010
0000
0010
0000
0010
,
0000
0010
0000
0000
0000
0000
1001
0000
,
1000
0000
0000
0000
0001
0000
0100
0000
0000
0000
0100
0000
0000
1000
0000
0000
,
1000
0000
0100
0001
0000
0101
0000
0000
,
0100
0000
0000
0000
0010
0000
1000
0000
0000
0000
1000
0000
0000
0001
0000
0000
,
0001
0000
1000
0100
0000
1100
0000
0000
,
0010
0000
0000
0000
0001
0000
0010
0000
0000
0000
0010
0000
0000
0100
0000
0000
,
0100
0000
0000
1001
,
0100
0000
0010
0000
1000
0000
0100
0000
0000
0000
0010
0000
0100
1000
0100
0000
,
1000
0010
0100
1000
0000
1000
0100
0010
,
1000
0000
0100
0000
0010
0000
0100
0000
0000
0000
1000
0000
0010
0100
0010
0000
,
0100
1000
0100
0010
0000
1000
0100
0010
,
0100
0000
1000
0000
0010
0000
0100
0000
0000
0000
1000
0000
0100
0010
0100
0000
,
0010
1000
0100
0010
0000
0001
0010
0100
,
0001
0000
0100
0000
1000
0000
0001
0000
0000
0000
0010
0000
0001
0010
0001
0000
,
1000
0000
0000
0000
0000
0000
1100
0000
0000
0010
0000
0000
0001
0000
0001
0000
1000
0000
0001
0000
0000
0000
0000
0000
,
0020
0000
0000
0000
0031
0000
1000
0200
0000
0000
0000
0000
0300
0000
0000
0000
,
0020
0000
0000
0000
0031
0000
1000
0200
0000
0000
0000
0000
0300
0000
0000
0000
,
1000
0000
0100
0000
0001
0000
0100
0000
0000
0000
0100
0000
1000
0100
0010
0000
,
0001
0100
1000
0100
0000
0100
0001
1000
,
0020
0000
0000
0000
1030
0000
0001
0200
0000
0000
0000
0000
0300
0000
0000
0000
,
0020
0000
0000
0000
1030
0000
0001
0200
0000
0000
0000
0000
0300
0000
0000
0000
,
0001
0000
0100
0000
1000
0000
0100
0000
0000
0000
0100
0000
0001
0100
0010
0000
,
1000
0100
0001
0100
0000
0100
1000
0001
,
1000
0000
0001
0000
0000
0010
0000
0000
0100
0000
0000
1000
0000
0000
0011
0000
,
0000
0000
1000
0000
0000
1000
0000
0000
0010
0000
0000
0010
0000
0000
0101
0000
,
0000
0000
0100
0000
0000
1000
0000
0000
0001
0000
0000
0010
0000
0000
1100
0000
,
0000
0000
1000
0000
0000
1000
0000
0000
0010
0000
0000
0010
0000
0000
1001
0000
,
0000
0000
0100
0000
0000
1000
0000
0000
0001
0000
0000
0010
0000
0000
0110
0000
,
1000
0001
0001
1000
1000
0001
0001
0100
0010
1000
0000
0000
;

//---------------dance-double - Edit by silenttype01----------------
#NOTES:
     dance-double:
     Edit by silenttype01:
     Hard:
     9:
     0.408,0.456,0.097,0.216,0.307: // measure 1
00000000
00000000
00000000
00000000
,  // measure 2
0000M000
0000000M
0000000M
0000M000
0000M000
0000000M
0000000M
00000M00
000000M0
0000M000
00000000
00000000
,  // measure 3
00000000
00000000
00000000
00000000
,  // measure 4
00000000
00000000
00000000
00000000
,  // measure 5
00000000
00000000
00000000
00000000
,  // measure 6
00000000
00000000
00000000
00001001
,  // measure 7
00000000
00000000
00000001
00000000
00000000
00000001
00000000
00000000
00000010
00000000
00000000
00000010
00000000
00000000
00000100
00000000
,  // measure 8
00000000
00000000
00010000
00000000
00000000
00010000
00000000
00000000
00001000
00000000
00000000
00001000
00000000
00000000
00000010
00000000
,  // measure 9
00000000
00000000
00000001
00000000
00000000
00000001
00000000
00000000
00000100
00000000
00000000
00000100
00000000
00000000
00001000
00000000
,  // measure 10
00000000
00000000
00010000
00000000
00000000
00010000
00000000
00000000
01000000
00000000
00000000
01000000
00000000
00000000
00100000
00000000
,  // measure 11
00000000
00000000
00010000
00000000
00000000
00010000
00000000
00000000
10000000
00000000
00000000
10000000
00000000
00000000
01000000
00000000
,  // measure 12
00000000
00000000
00100000
00000000
00000000
00100000
00000000
00000000
00010000
00000000
00000000
00010000
00000000
00000000
10000000
00000000
,  // measure 13
00200000
00000000
00000000
00000000
10300000
00000000
00010000
02000000
00000000
00000000
00000000
00000000
03000000
00000000
00000000
00000000
,  // measure 14
00200000
00000000
00000000
00000000
00310000
00000000
00001000
00020000
00000000
00000000
00000000
00000000
00030000
00000000
00000000
00000000
,  // measure 15
00002000
00000000
00000000
00000000
00013000
00000000
00001000
00020000
00000000
00000000
00000000
00000000
00030000
00000000
00000000
00000000
,  // measure 16
00000020
00000000
00000000
00000000
00001030
00000000
00000001
00000200
00000000
00000000
00000300
00000000
00000002
00000000
00000013
00000000
,  // measure 17
00000000
00000000
00000001
00000000
00000000
00000001
00000000
00000000
00001000
00000000
00000000
00001000
00000000
00000000
00000001
00000000
,  // measure 18
00000020
00000000
00000000
00000000
00000130
00000000
00010000
00002000
00000000
00000000
00000000
00000000
00003000
00000000
00000000
00000000
,  // measure 19
00010000
00000000
00000000
00000000
00000000
00000000
00010000
00000000
00000000
00000000
00010000
00000000
00000000
00010000
00000000
00000000
,  // measure 20
00010000
00000000
00000000
00011000
,  // measure 21
00020000
00001000
00000000
00001000
00000000
00001000
00000000
00001000
,  // measure 22
00000000
00031000
00000000
00000000
00000000
00000000
00000011
00000000
,  // measure 23
00000001
00000000
00000000
00000000
00000100
00000000
00000010
00000000
00000000
00000000
00001000
00000000
00000000
00000001
00000000
00000000
,  // measure 24
00000010
00000000
00000000
00001000
00000000
00000100
00000000
00000000
,  // measure 25
00000010
00000000
00000000
00000000
00000100
00000000
00010000
00000000
00000000
00000000
00000100
00000000
00000000
00000010
00000000
00000000
,  // measure 26
00010000
00000000
00000000
00000100
00000000
00000010
00000000
00000000
,  // measure 27
00001000
00000000
00000000
00000000
00000100
00000000
00010000
00000000
00000000
00000000
00100000
00000000
00000000
01000000
00000000
00000000
,  // measure 28
00010000
00000000
00000000
00011000
,  // measure 29
00001000
00000000
00010000
00000000
00001000
00000000
00000100
00000000
00000000
00000000
00001000
00000000
00000100
00001000
00000100
00000000
,  // measure 30
00001000
00010000
00001000
00000100
00000000
00000001
00000010
00001000
,  // measure 31
00010000
00000000
00001000
00000000
00010000
00000000
01000000
00000000
00000000
00000000
00010000
00000000
01000000
00010000
01000000
00000000
,  // measure 32
00010000
00001000
00010000
01000000
00000000
10000000
00100000
00010000
,  // measure 33
00001000
00000000
00010000
00000000
00001000
00000000
00000010
00000000
00000000
00000000
00001000
00000000
00000010
00001000
00000010
00000000
,  // measure 34
00001000
00010000
00001000
00000010
00000000
00000001
00000100
00001000
,  // measure 35
00010000
00000000
00001000
00000000
00010000
00000000
00100000
00000000
00000000
00000000
10000000
00000000
00100000
00010000
00100000
00000000
,  // measure 36
00010000
00000000
00000000
00000000
00000000
00000000
00011000
00000000
00000000
00100000
00000000
00000000
00001000
00000000
00001000
00000000
00010000
00000000
00001000
00000000
00000000
00000000
00000000
00000000
,  // measure 37
00000020
00000000
00000000
00000000
00000031
00000000
00001000
00000200
00000000
00000000
00000000
00000000
00000300
00000000
00000000
00000000
,  // measure 38
00000020
00000000
00000000
00000000
00001030
00000000
00010000
02000000
00000000
00000000
00000000
00000000
03000000
00000000
00000000
00000000
,  // measure 39
00100000
00000000
00010000
00000000
01000000
00000000
00100000
00000000
00000000
00000000
00100000
00000000
00010000
00001000
00010000
00000000
,  // measure 40
00000100
00000010
00001000
00010000
00000000
00010000
00001000
00000010
,  // measure 41
00000002
00000000
00000000
00000000
00001003
00000000
00000001
00000200
00000000
00000000
00000000
00000000
00000300
00000000
00000000
00000000
,  // measure 42
00002000
00000000
00000000
00000000
00103000
00000000
00010000
02000000
00000000
00000000
00000000
00000000
03000000
00000000
00000000
00000000
,  // measure 43
00100000
00000000
00010000
00000000
00001000
00000000
00000100
00000000
00000000
00000000
00000100
00000000
00001000
00010000
00001000
00000000
,  // measure 44
00000100
00000001
00000010
00000100
00000000
00000100
00000010
00000001
,  // measure 45
00001000
00000000
00000001
00000000
00000000
00000010
00000000
00000000
00001000
00000000
00000000
00100000
00000000
00000000
00110000
00000000
,  // measure 46
00000000
00000000
10000000
00000000
00000000
00100000
00000000
00000000
00010000
00000000
00000000
00000010
00000000
00000000
00001010
00000000
,  // measure 47
00000000
00000000
00000001
00000000
00000000
00000100
00000000
00000000
00001000
00000000
00000000
01000000
00000000
00000000
01010000
00000000
,  // measure 48
00000000
00000000
10000000
00000000
00000000
01000000
00000000
00000000
00010000
00000000
00000000
00000100
00000000
00000000
00001100
00000000
,  // measure 49
00000000
00000000
00000001
00000000
00000000
00000010
00000000
00000000
00010000
00000000
00000000
00100000
00000000
00000000
01000000
00000000
,  // measure 50
10000000
00010000
00010000
10000000
10000000
00010000
00010000
01000000
00100000
10000000
00000000
00000000
;
