#TITLE:GET UP (BEFORE THE NIGHT IS OVER);
#SUBTITLE:;
#ARTIST:TECHNOTRONIC feat. YA KID K;
#TITLETRANSLIT:;
#SUBTITLETRANSLIT:;
#ARTISTTRANSLIT:;
#CREDIT:;
#BANNER:GET UP (BEFORE THE NIGHT IS OVER).png;
#BACKGROUND:GET UP (BEFORE THE NIGHT IS OVER)-bg.png;
#LYRICSPATH:;
#CDTITLE:Dance Dance Revolution 3rd Mix.png;
#MUSIC:GET UP (BEFORE THE NIGHT IS OVER).ogg;
#OFFSET:0.000;
#SAMPLESTART:25.158;
#SAMPLELENGTH:15.000;
#SELECTABLE:YES;
#DISPLAYBPM:124.000;
#BPMS:0=124,4=124.015;
#STOPS:;
#BGCHANGES:;

//---------------dance-single - ----------------
#NOTES:
     dance-single:
     :
     Beginner:
     1:
     :
0000
0000
0000
0000
,
0000
0000
0000
0000
,
0000
0000
0000
0000
,
0000
0000
0000
0000
,
0000
0000
0000
0000
,
0010
0000
0000
0000
,
0001
0000
0000
0000
,
1000
0000
0000
0001
,
0001
0001
0001
0000
,
0100
0000
0000
0000
,
0001
0000
0000
0000
,
1000
0000
0000
0001
,
0001
0001
0001
0000
,
0010
0000
0000
0000
,
0100
0000
0000
0000
,
1000
0000
0001
0000
,
1000
0000
0000
0000
,
0010
0000
0000
0000
,
0100
0000
0000
0000
,
1000
0000
0001
0000
,
1000
0000
0000
0000
,
0100
0000
0000
0010
,
0010
0000
0000
0000
,
0100
0000
0000
0010
,
0010
0000
0000
0000
,
0001
0000
0001
0000
,
1000
0000
1000
0000
,
0001
0000
0001
0000
,
1000
0000
1000
0000
,
0100
0000
0000
0000
,
0001
0000
0000
0000
,
1000
0000
0000
0000
,
0010
0000
0010
0000
,
0010
0000
0000
0000
,
0100
0000
0000
0000
,
0000
0001
0001
0001
,
0001
0000
0000
0000
,
0010
0000
0000
0000
,
0100
0000
0000
0000
,
1000
0000
0001
0000
,
1000
0000
0000
0000
,
0010
0000
0000
0000
,
0100
0000
0000
0000
,
1000
0000
0001
0000
,
1000
0000
0000
0000
;

//---------------dance-single - ----------------
#NOTES:
     dance-single:
     :
     Easy:
     4:
     :
0000
0000
0000
0000
,
0000
0000
0000
0000
,
0000
0000
0000
0000
,
0000
0000
0000
0000
,
0000
0000
0000
0000
,
0010
0000
0001
0000
,
0010
0000
0001
0010
,
0010
0000
0010
1010
,
0001
0101
0100
0100
,
0010
0000
1000
0000
,
0010
0000
1000
0000
,
0010
0000
0010
0011
,
1000
1100
0100
0100
,
0010
1000
0010
0000
0001
0000
0001
0000
,
0100
0100
1010
0101
,
0010
0100
0010
0100
,
1000
1000
1010
0101
,
0010
0001
0010
0000
1000
0000
1000
0000
,
0100
0100
0011
1100
,
0010
0100
0010
0100
,
0001
0001
0011
1100
,
0000
0010
0000
1000
,
0000
0010
0000
1000
,
0000
0010
0000
0001
,
0000
0010
0000
0001
,
0010
0010
0001
0001
,
0100
0100
1000
1000
,
0010
0001
0010
0001
,
0100
1000
0100
1000
,
0001
0001
1000
1000
,
0010
0010
0100
0100
,
0010
1000
0010
1000
,
0100
0001
0100
0001
,
0010
0001
0100
1000
,
0010
0001
0100
1000
,
0100
0100
0011
1100
,
0100
0011
1000
1100
,
0010
1000
0010
0000
0001
0000
0001
0000
,
0100
0100
1010
0101
,
0010
0100
0010
0100
,
1000
1000
1010
0101
,
0010
0001
0010
0000
1000
0000
1000
0000
,
0100
0100
0011
1100
,
0010
0100
0010
0100
,
0001
0001
0011
1100
;

//---------------dance-single - ----------------
#NOTES:
     dance-single:
     :
     Medium:
     6:
     :
0000
0000
0000
0000
,
0000
0000
0000
0000
,
0000
0000
0000
0000
,
0000
0000
0000
0000
,
0000
0000
0000
0000
,
0010
1000
0010
0000
0001
0000
0001
0000
,
0010
0000
0010
0000
1000
0000
1000
0001
,
0010
0001
0001
0011
,
1000
0000
1100
0000
0100
1000
0100
0000
,
0010
0010
1000
1000
,
0010
0010
0001
0001
,
0010
0010
0100
0100
0010
0000
1010
0000
,
0001
0101
1000
1000
,
0010
1000
0010
0000
0001
0100
0001
0000
,
0100
0010
0100
0000
1010
0000
0101
0000
,
0010
1000
0010
0000
0100
0010
0100
0000
,
0010
0010
1010
0101
,
0010
0001
0010
0000
0100
1000
0100
0000
,
0010
0010
0011
1100
,
0010
0001
0010
0000
0100
0010
0100
0000
,
0010
0000
0010
0000
0011
0000
1100
0010
,
0001
0000
0000
0001
,
0000
0010
0000
0100
,
0000
1000
0000
0100
,
0000
0010
0000
0001
,
0010
0000
0010
0000
0001
0100
1000
0000
,
0010
0000
0010
0000
0001
0100
1000
0000
,
0010
0000
0010
0000
1000
0001
0100
0000
,
0010
0000
0010
0000
1000
0001
0100
0000
,
1000
1000
0001
0001
,
0010
0000
0001
0000
1000
0100
1000
0000
,
0001
0000
0010
0000
0100
1000
0100
0000
,
0010
0000
0001
0000
0100
0001
0100
0000
,
0010
0000
1000
0000
0001
0100
0001
0000
,
1000
0000
0010
0000
0100
0001
0100
0000
,
0010
0000
1000
0000
0010
0100
0010
0000
,
1000
1000
0001
0001
,
0010
1000
0010
0000
0001
0100
0001
0000
,
0100
0010
0100
0000
1010
0000
0101
0000
,
0010
1000
0010
0000
0100
0010
0100
0000
,
0010
0010
0011
1100
,
0100
1000
0100
0000
0001
0010
0001
0000
,
0010
0010
1100
0011
,
0010
0001
0010
0000
0100
0010
0100
0000
,
0010
0010
0011
1100
;

//---------------dance-single - ----------------
#NOTES:
     dance-single:
     :
     Hard:
     7:
     :
0000
0000
0000
0000
,
0000
0000
0000
0000
,
0000
0000
0000
0000
,
0000
0000
0000
0000
,
0000
0000
0000
0000
,
0010
1000
0000
0000
0010
0000
0000
0000
0010
0000
0001
0000
0100
0000
0000
0000
,
0010
0000
0010
0000
1000
0000
1000
0001
,
0100
0000
0001
0000
0001
0000
1100
1100
,
1100
1100
1100
0000
0001
0001
0100
0000
,
0010
0000
0100
0000
0100
0000
0010
0000
0100
0000
0100
0000
0000
0000
0010
0100
,
0010
0000
0010
0000
1000
0100
1000
0000
,
0001
0000
0010
0000
0001
0000
0101
0101
,
0101
0101
0101
0000
1000
1000
0100
0000
,
0010
1000
0000
0010
1000
0000
0000
0000
0010
0000
1000
0000
0010
0000
0000
0000
,
1000
0010
0000
1000
0010
0000
0000
0000
0011
0000
0000
0000
1100
0000
0000
0000
,
0001
0010
0000
0001
0010
0000
0000
0000
0100
0000
0001
0000
0100
0000
0000
0000
,
0010
0010
0100
0100
0101
0000
1010
0000
,
0010
0001
0000
0010
0001
0000
0000
0000
0010
0000
0001
0000
0010
0000
0000
0000
,
0001
0010
0000
0001
0010
0000
0000
0000
1010
0000
0000
0000
0101
0000
0000
0000
,
1000
0010
0000
1000
0010
0000
0000
0000
0100
0000
1000
0000
0100
0000
0000
0000
,
0010
0010
0100
0100
1100
0000
0010
0100
,
0001
0000
0000
0001
0000
0000
0001
0000
0000
0000
0100
0000
0010
0000
0000
0000
,
0001
0000
0000
0001
0000
0000
0001
0000
0000
0000
0100
0000
0010
0000
0000
0000
,
1000
0000
0000
1000
0000
0000
1000
0000
0000
0000
0100
0000
0010
0000
0000
0000
,
1000
0000
0000
1000
0000
0000
1000
0000
0000
0000
0100
0000
0010
0000
0000
0000
,
0010
0000
0000
0000
0010
0000
1000
0010
1000
0000
0001
0000
0100
0000
0000
0000
,
0010
0000
0100
0000
0010
0000
1000
0010
1000
0000
0001
0000
0100
0000
0000
0000
,
0010
0000
0000
0000
0010
0000
0001
0010
0001
0000
1000
0000
0100
0000
0000
0000
,
0010
0000
0000
0000
0010
0000
0001
0010
0001
0000
1000
0000
0100
0000
0001
0000
,
0010
0000
0000
0000
0010
0000
0001
0010
0001
0000
1000
0000
0100
0000
0000
0000
,
0010
0000
0000
0000
0001
0000
1000
0001
1000
0000
0100
0000
1000
0000
0000
0000
,
0010
0000
0000
0000
1000
0000
0001
1000
0001
0000
0100
0000
0001
0000
0000
0000
,
0010
0000
0000
0000
0001
0000
1000
0001
1000
0000
0100
0000
1000
0000
0000
0000
,
0010
0000
0000
0000
1000
0000
0001
1000
0001
0000
0100
0000
0001
0000
0000
0000
,
0010
0000
0010
0000
1000
0000
0001
1000
0001
0000
0100
0000
0001
0000
0000
0000
,
0000
0000
0010
0000
1000
0100
0000
0000
0001
0000
0001
0000
1000
0000
1000
0000
,
0001
0000
0000
0000
0001
0000
0000
0000
0010
0001
0000
0000
0100
0000
0000
0000
,
0010
1000
0000
0010
1000
0000
0000
0000
0010
0000
1000
0000
0010
0000
0000
0000
,
1000
0010
0000
1000
0010
0000
0000
0000
0011
0000
0000
0000
1100
0000
0000
0000
,
0001
0010
0000
0001
0010
0000
0000
0000
0100
0000
0001
0000
0100
0000
0000
0000
,
0010
0010
0100
0100
0101
0000
1010
0000
,
0010
0001
0000
0010
0001
0000
0000
0000
0010
0000
0001
0000
0010
0000
0000
0000
,
0001
0010
0000
0001
0010
0000
0000
0000
1010
0000
0000
0000
0101
0000
0000
0000
,
1000
0010
0000
1000
0010
0000
0000
0000
0100
0000
1000
0000
0100
0000
0000
0000
,
0010
0010
0100
0100
1100
0000
0011
0000
;

//---------------dance-double - ----------------
#NOTES:
     dance-double:
     :
     Beginner:
     1:
     0.093,0.121,0.000,0.000,0.000:
00000000
00000000
00000000
00000000
,
00000000
00000000
00000000
00000000
,
00000000
00000000
00000000
00000000
,
00000000
00000000
00000000
00000000
,
00000000
00000000
00000000
00000000
,
00000010
00000000
00000000
00000000
,
00000001
00000000
00000000
00000100
,
00000000
00000000
00000000
00001000
,
00001000
00001000
00001000
00000000
,
00010000
00000000
00000000
00000000
,
01000000
00000000
00000000
00000000
,
10000000
00000000
00000000
00010000
,
00010000
00010000
00010000
00000000
,
00100000
00000000
00000000
00000000
,
01000000
00000000
00000000
00000000
,
10000000
00000000
10000000
00000000
,
10000000
00000000
00000000
00000000
,
00100000
00000000
00000000
00000000
,
01000000
00000000
00000000
00000000
,
00010000
00000000
00010000
00000000
,
00001000
00000000
00000000
00000000
,
00000100
00000000
00000000
00000010
,
00000010
00000000
00000000
00000000
,
00000100
00000000
00000000
00000010
,
00000010
00000000
00000000
00000000
,
00000001
00000000
00000001
00000000
,
00000100
00000000
00000100
00000000
,
00001000
00000000
00001000
00000000
,
00010000
00000000
00010000
00000000
,
01000000
00000000
00000000
00000000
,
10000000
00000000
00000000
00000000
,
00100000
00000000
00000000
00000000
,
10000000
00000000
10000000
00000000
,
01000000
00000000
00000000
00000000
,
00010000
00000000
00000000
00000000
,
00000000
00001000
00001000
00001000
,
00001000
00000000
00000000
00000000
,
00000010
00000000
00000000
00000000
,
00000100
00000000
00000000
00000000
,
00000001
00000000
00001000
00000000
,
00000001
00000000
00000000
00000000
,
00000010
00000000
00000000
00000000
,
00000100
00000000
00000000
00000000
,
00000001
00000000
00001000
00000000
,
00000001
00000000
00000000
00000000
;

//---------------dance-double - ----------------
#NOTES:
     dance-double:
     :
     Easy:
     4:
     :
00000000
00000000
00000000
00000000
,
00000000
00000000
00000000
00000000
,
00000000
00000000
00000000
00000000
,
00000000
00000000
00000000
00000000
,
00000000
00000000
00000000
00000000
,
00000000
10000000
00000000
10000000
,
00000000
00010000
00000000
00010000
,
00001000
00000000
00000010
00000011
,
00001000
01010000
10000000
10000000
,
00000000
01000000
00000000
01000000
,
00000000
10000000
00000000
00100000
,
00001000
00000010
00000001
00000011
,
00001000
00011000
10000000
10000000
,
00110000
01010000
00010000
10000000
,
00110000
01010000
10000000
10000000
,
10100000
11000000
00100000
00010000
,
00001000
00001000
00000100
00000100
,
00001010
00001100
00000010
00000001
,
00001010
00001100
00000001
00000001
,
00000011
00000101
00000010
00001000
,
00010000
00010000
01000000
01000000
,
10000000
10000000
00000000
01000000
,
00000000
00010000
00000000
00000100
,
00000000
00000001
00000000
00000001
,
00000000
00000100
00010000
00000100
,
10000000
10000000
01000000
00010000
,
00000100
00000100
00010000
00001000
,
00100000
00001000
00010000
00000010
,
00010000
00100000
10000000
10000000
,
00010000
00100000
00001000
00010000
,
00000010
00001000
00010000
10000000
,
00010000
01000000
00100000
01000000
,
00001000
00000010
00000100
00000010
,
00001000
00010000
00000010
00001000
,
00000100
00000010
00000001
00000001
,
00000000
00001000
00001000
00100000
,
00010000
00000010
00000100
00001000
,
00001100
00001010
00001000
00000001
,
00001100
00001010
00000001
00000001
,
00000101
00000011
00000100
00001000
,
00010000
00010000
00100000
00100000
,
01010000
00110000
01000000
10000000
,
01010000
00110000
10000000
10000000
,
11000000
10100000
01000000
00010000
,
00001000
00001000
00000010
00000010
;

//---------------dance-double - ----------------
#NOTES:
     dance-double:
     :
     Medium:
     5:
     :
00000000
00000000
00000000
00000000
,
00000000
00000000
00000000
00000000
,
00000000
00000000
00000000
00000000
,
00000000
00000000
00000000
00000000
,
00000000
00000000
00000000
00000000
,
10000000
00100000
10000000
00000000
10000000
00000000
10000000
00000000
,
00100000
00000000
00100000
00000000
00010000
00000000
00010000
01000000
,
10000000
01000000
00100000
00110000
,
00001000
00001100
00000001
00000001
,
00000010
00000001
00000100
00000000
,
00000100
00001000
00010000
00001000
,
00010000
00000100
00000010
00001010
,
00011000
01010000
01000000
01000000
,
10100000
00000000
11000000
00000000
00010000
10000000
00100000
00000000
,
10100000
11000000
00010000
00010000
,
00010000
10000000
00100000
00000000
00100000
01000000
00010000
00000000
,
00001000
00001000
00000100
00000100
,
00000011
00000000
00000101
00000000
00001000
00000001
00000010
00000000
,
00000011
00000101
00001000
00001000
,
00001000
00000001
00000010
00000000
00000001
00000100
00001000
00000000
,
00010000
00000000
00010000
00000000
01000000
00000000
01000000
10000000
,
01000000
01000000
00100000
00100000
,
00010000
00010000
00001000
00001000
,
00000100
00000100
00000001
00000001
,
00000010
00000010
00001000
00010000
,
00000010
00000000
00010000
00000000
00001000
00010000
00001000
00000000
,
00100000
00000000
00001000
00000000
00010000
00001000
00010000
00000000
,
01000000
00000000
00001000
00000000
00010000
00001000
00010000
00000000
,
00000100
00000000
00010000
00000000
00001000
00010000
00001000
00000000
,
00000010
00000000
00000100
00000000
00000001
00001000
00000100
00000000
,
00001000
00000000
00010000
00000000
10000000
01000000
00100000
00000000
,
00100000
00000000
00100000
00000000
00010000
00001000
00010000
00000000
,
00100000
00000000
00100000
00000000
00010000
00001000
00000100
00000000
,
00000010
00000000
00000010
00000000
00001000
00010000
00001000
00000000
,
00000010
00000000
00000010
00000000
00001000
00010000
01000000
00000000
,
00100000
00000000
00010000
00000000
00100000
00010000
01000000
00000000
,
00100000
00000000
00010000
00000000
10000000
00100000
01000000
00000000
,
10100000
00000000
11000000
00000000
00010000
10000000
00100000
00000000
,
10100000
11000000
00010000
00010000
,
00010000
10000000
00100000
00000000
00100000
01000000
00010000
00000000
,
00001000
00001000
00000100
00000100
,
00000011
00000000
00000101
00000000
00001000
00000001
00000010
00000000
,
00000011
00000101
00001000
00001000
,
00001000
00000001
00000010
00000000
00000001
00000100
00001000
00000000
,
00010000
00010000
01000000
01000000
;

//---------------dance-double - ----------------
#NOTES:
     dance-double:
     :
     Hard:
     7:
     :
00000000
00000000
00000000
00000000
,
00000000
00000000
00000000
00000000
,
00000000
00000000
00000000
00000000
,
00000000
00000000
00000000
00000000
,
00000000
00000000
00000000
00000000
,
10000000
01000000
00000000
00000000
00010000
00000000
00000000
00000000
00001000
00000000
00010000
00000000
00001000
00000000
00000000
00000000
,
00000010
00000000
00000010
00000000
00000001
00000000
00000001
00000100
,
00000001
00000000
00000010
00000001
00000010
00000000
00000011
00000000
,
00011000
00000000
01010000
00000000
00100000
10000000
00100000
00000000
,
10000000
00010000
00010000
10000000
01000000
01000000
00000000
00000000
,
00010000
00001000
00000010
00000010
,
00000001
00000010
00000001
00000010
00000001
00000000
00000011
00000000
,
00011000
00000000
01010000
00000000
00100000
10000000
00100000
00000000
,
10000000
00100000
00000000
00100000
00010000
00000000
00000000
00000000
00010000
00000000
00001000
00000000
00010000
00000000
00000000
00000000
,
00000010
00000001
00000000
00000010
00000001
00000000
00000010
00000000
00000001
00000000
00000000
00000000
00000001
00000000
00000000
00000000
,
00000010
00000001
00000000
00000010
00000000
00000010
00000001
00000000
00001000
00000000
00000100
00000000
00001000
00000000
00000000
00000000
,
00000100
00000100
00000010
00000010
,
00000001
00000010
00000000
00000010
00001000
00000000
00000000
00000000
00001000
00000000
00010000
00000000
00001000
00000000
00000000
00000000
,
00100000
10000000
00000000
00100000
10000000
00000000
00100000
00000000
10000000
00000000
00000000
00000000
10000000
00000000
00000000
00000000
,
00100000
10000000
00000000
00100000
00000000
00100000
10000000
00000000
00010000
00000000
01000000
00000000
00010000
00000000
00000000
00000000
,
00001000
00000000
00010000
00000000
00001000
00000000
00001000
00010000
,
00000100
00000001
00000000
00000010
,
00000000
00000100
00000000
00001000
,
00000000
00100000
00000000
10000000
,
00000000
10000000
00000000
01000000
,
00010000
00000000
00100000
00000000
10000000
00000000
00000000
00000000
00100000
10000000
00000000
00000000
00100000
00000000
00000000
00000000
,
00010000
00000000
00100000
00000000
10000000
00000000
00000000
00000000
00100000
10000000
00000000
00000000
00100000
00000000
00000000
00000000
,
00010000
00000000
00100000
00000000
01000000
00000000
00000000
00000000
01000000
00010000
00000000
00000000
01000000
00000000
00000000
00000000
,
00010000
00000000
00001000
00000000
00010000
00000000
00000000
00000000
00001000
00000100
00000000
00000000
00001000
00000000
00000100
00000000
,
00000001
00000000
00000010
00000000
00000001
00000000
00000000
00000000
00000001
00000010
00000000
00000000
00000100
00000000
00000000
00000000
,
00000100
00000000
00000100
00000000
00000010
00000000
00000010
00000000
00000001
00000010
00000000
00000001
00000010
00000000
00000000
00000000
,
00000100
00000000
00000100
00000000
00001000
00000000
00001000
00000000
00010000
00001000
00000000
00010000
00001000
00000000
00000000
00000000
,
00100000
00000000
10000000
00000000
00100000
00000000
10000000
00000000
01000000
10000000
00000000
10000000
01000000
00000000
00000000
00000000
,
01000000
00000000
00010000
00000000
01000000
00000000
00010000
00000000
00010000
00001000
00000000
00010000
00001000
00000000
00000000
00000000
,
00000100
00000000
00000100
00000000
00000010
00000000
00000010
00000000
00000001
00001000
00000000
00000001
00001000
00000000
00000000
00000000
,
00000010
00000000
00000001
00000000
00000010
00000001
00000001
00000100
,
00000001
00000100
00001000
01000000
,
10000000
00100000
00000000
00100000
00010000
00000000
00000000
00000000
00010000
00000000
00001000
00000000
00010000
00000000
00000000
00000000
,
00000010
00000001
00000000
00000010
00000001
00000000
00000010
00000000
00000001
00000000
00000000
00000000
00000001
00000000
00000000
00000000
,
00000010
00000001
00000000
00000010
00000000
00000010
00000001
00000000
00001000
00000000
00000100
00000000
00001000
00000000
00000000
00000000
,
00000100
00000100
00000010
00000010
,
00000001
00000010
00000000
00000010
00001000
00000000
00000000
00000000
00001000
00000000
00010000
00000000
00001000
00000000
00000000
00000000
,
00100000
10000000
00000000
00100000
10000000
00000000
00100000
00000000
10000000
00000000
00000000
00000000
10000000
00000000
00000000
00000000
,
00100000
10000000
00000000
00100000
00000000
00100000
10000000
00000000
00010000
00000000
01000000
00000000
00010000
00000000
00000000
00000000
,
00001000
00010000
00001000
00001000
;

//---------------dance-couple - ----------------
#NOTES:
     dance-couple:
     :
     Challenge:
     7:
     :
00000000
00000000
00000000
00000000
,
00000000
00000000
00000000
00000000
,
00000000
00000000
00000000
00000000
,
00000000
00000000
00000000
00000000
,
00000000
00000000
00000000
00000000
,
00100000
10000000
00100001
00000000
00010000
00000000
00010001
00000000
,
00100000
00000000
00100001
00000000
10000000
00000000
10000001
00010000
,
00100000
00010001
00010000
00110001
,
10000000
00000000
11000001
00000000
01000000
10000000
01000001
00000000
,
00000010
00001000
10000010
00000000
00000001
00000000
10000001
00000000
,
00000010
00000000
10000010
00000000
00001000
00000000
10001000
00000001
,
00000010
10000001
00000001
10000011
,
00001000
00000000
10001100
00000000
00000100
00001000
10000100
00000000
,
10100000
00000000
00000101
00000000
00100000
10000000
01000000
00000000
,
00000011
00000000
11000000
00000000
00000010
00000001
00000100
00000000
,
00001001
00000000
10010000
00000000
00001000
00000001
00000100
00000000
,
10010000
00000000
00001001
00000000
00010000
10000000
01000000
00000000
,
00100010
00011000
00000000
00100010
00011000
00000000
00000000
00000000
00100010
00000000
00011000
00000000
00100010
00000000
00000000
00000000
,
00011000
00100010
00000000
00011000
00100010
00000000
00000000
00000000
10100011
00000000
00000000
00000000
01011100
00000000
00000000
00000000
,
10000001
00100010
00000000
10000001
00100010
00000000
00000000
00000000
00011000
00000000
00000000
00000000
01000100
00000000
00000000
00000000
,
10000001
00011000
10000001
01000100
,
10011001
01000000
01000000
01000000
,
10011001
00000100
00000100
00000100
,
10001000
01000100
00010001
01000100
,
10001000
01000100
00010001
01000100
,
10010000
00000000
01000001
00000000
00010000
01000000
10000001
00000000
,
10010000
00000000
00100001
00000000
00010000
01000000
10000001
00000000
,
00001001
00000000
10000100
00000000
00000001
00000100
10001000
00000000
,
00001001
00000000
10000010
00000000
00000001
00000100
10001000
00000000
,
10010000
10010000
01000000
00000000
10010000
10010000
01000000
00000000
,
00001001
00001001
00000100
00000000
00001001
00001001
00000100
00000000
,
00100000
10000000
00000000
00000000
00100000
10000000
00000000
00000000
00010000
00000000
00000000
00000000
01000000
00000000
00000000
00000000
,
00000010
00001000
00000000
00000000
00000010
00001000
00000000
00000000
00000001
00000000
00000000
00000000
00000100
00000000
00000000
00000000
,
00010000
01000000
00000000
00000000
00010000
01000000
00010000
00000000
10000000
00000000
01000000
00000000
01000000
00000000
00000000
00000000
,
00000001
00000100
00000000
00000000
00000001
00000100
00000001
00000000
00001000
00000000
00000100
00000000
00000100
00000000
00000000
00000000
,
00100010
00000000
10000001
00000000
00100010
01000100
00100010
00000000
,
10000001
10000001
00011000
00011000
,
10100000
00000000
00000101
00000000
00100000
10000000
01000000
00000000
,
00000011
00000000
11000000
00000000
00000010
00000001
00000100
00000000
,
00001001
00000000
10010000
00000000
00001000
00000001
00000100
00000000
,
10010000
00000000
00001001
00000000
00010000
10000000
01000000
00000000
,
00100010
00011000
00000000
00100010
00011000
00000000
00000000
00000000
00100010
00000000
00011000
00000000
00100010
00000000
00000000
00000000
,
00011000
00100010
00000000
00011000
00100010
00000000
00000000
00000000
10100011
00000000
00000000
00000000
01011100
00000000
00000000
00000000
,
10000001
00100010
00000000
10000001
00100010
00000000
00000000
00000000
00011000
00000000
00000000
00000000
01000100
00000000
00000000
00000000
,
10000001
00011000
10000001
01000100
;

//---------------dance-solo - ----------------
#NOTES:
     dance-solo:
     :
     Easy:
     4:
     :
000000
000000
000000
000000
,
000000
000000
000000
000000
,
000000
000000
000000
000000
,
000000
000000
000000
000000
,
000000
000000
000000
000000
,
001000
000000
010000
000000
,
001000
000000
010000
010000
,
000001
000000
100000
100000
,
000010
000010
000001
000001
,
000100
000000
100000
000000
,
000100
000000
100000
000000
,
010000
000000
000001
010001
,
100000
100010
000010
000010
,
001000
001000
000001
000001
,
100000
100000
100010
010001
,
000100
000100
001000
001000
,
000001
000001
010001
100010
,
000100
000100
100000
100000
,
001000
001000
000110
010100
,
000001
100000
000001
100000
,
000100
000100
001010
011000
,
000000
000100
000000
001000
,
000000
000100
000000
001000
,
000000
000010
000000
100000
,
000000
000010
000000
100000
,
000100
000100
000001
000001
,
001000
001000
100000
100000
,
010000
100000
010000
100000
,
000010
000001
000010
000001
,
100000
100000
000001
000001
,
001000
001000
000100
000100
,
100000
001000
100000
001000
,
010000
001000
010000
001000
,
000100
001000
000001
100000
,
000100
000001
001000
100000
,
000010
000010
100010
010001
,
000000
010100
000000
000110
,
000100
000100
100000
100000
,
001000
001000
001010
001001
,
000100
001000
000100
001000
,
100000
100000
110000
100100
,
001000
001000
000001
000001
,
000100
000100
000110
010100
,
000100
001000
000100
001000
,
000001
000001
000101
100001
;

//---------------dance-solo - ----------------
#NOTES:
     dance-solo:
     :
     Medium:
     5:
     :
000000
000000
000000
000000
,
000000
000000
000000
000000
,
000000
000000
000000
000000
,
000000
000000
000000
000000
,
000000
000000
000000
000000
,
001000
010000
001000
000000
000001
000000
000001
000000
,
000100
000100
100000
100000
,
001000
000010
000010
000110
,
100000
000000
101000
000000
001000
100000
001000
000000
,
000001
000001
001000
001000
,
000010
000010
001000
001000
,
000100
000100
001000
001000
000100
000000
100100
000000
,
010000
010100
000001
000001
,
000100
010000
000100
000000
000001
010000
000001
000000
,
001000
000100
001000
000000
001010
000000
011000
000000
,
000100
100000
000100
000000
001000
000001
001000
000000
,
000010
000010
100010
010001
,
001000
000100
001000
000000
000100
001000
000100
000000
,
010000
010000
010100
000100
,
000001
000010
000001
000000
000001
000100
000001
000000
,
001000
001000
001001
101000
,
000001
000000
000000
000001
,
000000
000100
000000
001000
,
000000
010000
000000
001000
,
000000
000010
000000
000001
,
000100
000000
000100
000000
000001
001000
100000
000000
,
000100
000000
000100
000000
000001
001000
100000
000000
,
000100
000000
000100
000000
100000
001000
000001
000000
,
000100
000000
000100
000000
100000
001000
000001
000000
,
010000
010000
010000
010000
,
000010
000000
000010
000000
100000
001000
100000
000000
,
000001
000000
000100
000000
001000
000100
001000
000000
,
100000
000000
001000
000000
000100
001000
000100
000000
,
100000
000000
000010
000000
000010
001000
000001
000000
,
100000
000000
000100
000000
001000
000010
001000
000000
,
000001
000000
000001
000000
010000
001000
010000
000000
,
000100
000100
001000
001000
,
000010
100000
000010
000000
000001
010000
000001
000000
,
000010
000010
000010
000000
010001
000000
100010
000000
,
001000
000100
001000
000000
000001
100000
000001
000000
,
000100
000100
000110
010100
,
100000
010000
100000
000000
000001
000010
000001
000000
,
000100
000100
000110
010100
,
001000
000010
001000
000000
001000
100000
001000
000000
,
000001
000001
000011
010010
;

//---------------dance-solo - ----------------
#NOTES:
     dance-solo:
     :
     Hard:
     7:
     :
000000
000000
000000
000000
,
000000
000000
000000
000000
,
000000
000000
000000
000000
,
000000
000000
000000
000000
,
000000
000000
000000
000000
,
001000
000010
000000
000000
001000
000000
000000
000000
001000
000000
000010
000000
100000
000000
000000
000000
,
000001
000000
000001
000000
100000
000000
100000
000100
,
001000
000000
000010
000000
000010
000000
100000
010000
,
100000
010000
100000
010000
001000
000100
001000
000000
,
000001
000000
000010
000000
000010
000000
000001
000000
000100
000000
000100
000000
000000
000000
000001
001000
,
000001
000000
000001
000000
100000
001000
100000
000000
,
000001
000000
000100
000000
000001
000000
000010
000001
,
000010
000001
100000
000000
000100
000100
001000
000000
,
000100
100000
000000
000100
100000
000000
000000
000000
000100
000000
010000
000000
000100
000000
000000
000000
,
100000
000100
000000
100000
000100
000000
000000
000000
010100
000000
000000
000000
000110
000000
000000
000000
,
000001
000010
000000
000001
000010
000000
000000
000000
001000
000000
000010
000000
001000
000000
000000
000000
,
000100
000100
001000
001000
001010
000000
011000
000000
,
000001
100000
000000
000001
100000
000000
000000
000000
000001
000000
100000
000000
000001
000000
000000
000000
,
000100
001000
000000
000100
001000
000000
000000
000000
100010
000000
000000
000000
010001
000000
000000
000000
,
000010
001000
000000
000010
001000
000000
000000
000000
000100
000000
100000
000000
000100
000000
000000
000000
,
000001
000001
001000
001000
000010
000000
010000
100000
,
000100
000000
000000
000100
000000
000000
000100
000000
000000
000000
001000
000000
000100
000000
000000
000000
,
000001
000000
000000
000001
000000
000000
000001
000000
000000
000000
001000
000000
000100
000000
000000
000000
,
100000
000000
000000
100000
000000
000000
100000
000000
000000
000000
000010
000000
001000
000000
000000
000000
,
000010
000000
000000
000010
000000
000000
000010
000000
000000
000000
100000
000000
000001
000000
000000
000000
,
000100
000000
000000
000000
000100
000000
000010
000100
000010
000000
100000
000000
001000
000000
000000
000000
,
000100
000000
000000
000000
000100
000000
000010
000100
000010
000000
100000
000000
001000
000000
000000
000000
,
000100
000000
000000
000000
000100
000000
000001
000100
000001
000000
100000
000000
001000
000000
000000
000000
,
000100
000000
000000
000000
000100
000000
000010
000100
000010
000000
001000
000000
010000
000000
100000
000000
,
000100
000000
000000
000000
000100
000000
100000
000100
100000
000000
001000
000000
010000
000000
000000
000000
,
000001
000000
000000
000000
001000
000000
000010
001000
000010
000000
000100
000000
000001
000000
000000
000000
,
010000
000000
000000
000000
001000
000000
001000
010000
001000
000000
010000
000000
000001
000000
000000
000000
,
000100
000000
000000
000000
000001
000000
001000
000001
001000
000000
000010
000000
001000
000000
000000
000000
,
000100
000000
000000
000000
100000
000000
000001
010000
000001
000000
010000
000000
000001
000000
000000
000000
,
000100
000000
000100
000000
000001
000000
010000
000001
010000
000000
001000
000000
100000
000000
000000
000000
,
000000
000000
000100
000000
100000
000010
000000
000000
010000
000000
010000
000000
000001
000000
000001
000000
,
001000
000000
000000
000000
001000
000000
000000
000000
000100
001000
000000
000000
000001
000000
000000
000000
,
100000
001000
000000
100000
001000
000000
000000
000000
000100
000000
100000
000000
000100
000000
000000
000000
,
100000
000100
000000
100000
000100
000000
000000
000000
010100
000000
000000
000000
000110
000000
000000
000000
,
000001
000100
000000
000001
000100
000000
000000
000000
000010
000000
001000
000000
000010
000000
000000
000000
,
100000
100000
000001
000001
000001
000000
100010
000000
,
001000
000001
000000
001000
000001
000000
000000
000000
001000
000000
000010
000000
100000
000000
000000
000000
,
100000
000100
000000
100000
000100
000000
000000
000000
100100
000000
000000
000000
010010
000000
000000
000000
,
000001
000010
000000
000001
000010
000000
000000
000000
001000
000000
000100
000000
001000
000000
000000
000000
,
100000
100000
000001
000001
000101
000000
000110
000000
;

//---------------dance-double - Edit by silenttype01----------------
#NOTES:
     dance-double:
     Edit by silenttype01:
     Challenge:
     8:
     0.449,0.467,0.231,0.066,0.209: // measure 1
00000000
00000000
00000000
00000000
,  // measure 2
00000000
00000000
00000000
00000000
,  // measure 3
00000000
00000000
00000000
00000000
,  // measure 4
00000000
00000000
00000000
00000000
,  // measure 5
00000000
00000000
00000000
00000000
,  // measure 6
00000001
00000100
00001000
00000100
00000001
00000000
00001000
00000100
,  // measure 7
00000001
00000000
00000000
00000000
00000100
00000000
00000010
00000000
00000001
00000000
00000000
00000001
00000000
00000000
00000002
00000000
,  // measure 8
00001003
00000100
00000010
00000100
00001000
00000000
00000001
00000100
,  // measure 9
00001000
00000000
00100000
00001000
00010000
00000000
00022000
00033000
,  // measure 10
00000010
00010000
00001000
00010000
01000000
00000000
00100000
00001000
,  // measure 11
01000000
00000000
00000000
00000000
00010000
00000000
01000000
00000000
10000000
00000000
00000000
10000000
00000000
00000000
20000000
00000000
,  // measure 12
31000000
00010000
10000000
01000000
00100000
00000000
00010000
00100000
,  // measure 13
00010000
00000000
10000000
01000000
10000000
00000000
02200000
03300000
,  // measure 14
10000000
00100000
00000000
00100000
00010000
00000000
00000010
00000000
00010000
00000000
00001000
00000000
00010000
00000000
00000100
00000000
,  // measure 15
00000010
00000001
00000000
00000010
00000001
00000000
00000000
00000000
00000011
00000000
00000000
00000000
00000011
00000000
00000000
00000000
,  // measure 16
00000010
00000001
00000000
00000010
00000000
00000010
00000001
00000000
00001000
00000000
00000100
00000000
00001000
00000000
00000001
00000000
,  // measure 17
00000100
00000100
00000010
00001001
,  // measure 18
00000001
00000010
00000000
00000010
00001000
00000000
00100000
00000000
00001000
00000000
00010000
00000000
00001000
00000000
01000000
00000000
,  // measure 19
00100000
10000000
00000000
00100000
10000000
00000000
00000000
00000000
10100000
00000000
00000000
00000000
10100000
00000000
00000000
00000000
,  // measure 20
00100000
10000000
00000000
00100000
00000000
00100000
10000000
00000000
00010000
00000000
01000000
00000000
00010000
00000000
00100000
00000000
,  // measure 21
00001000
00000000
00010000
00000000
00001000
00000000
00001000
00010000
,  // measure 22
00000100
00000100
00000100
00000100
,  // measure 23
00000010
00000010
00000010
00000010
,  // measure 24
00000100
00000100
00000100
00000100
,  // measure 25
00000010
00000010
00000010
00000010
00000010
00000010
00000010
00000000
,  // measure 26
00000100
00000000
00000000
00000000
00001100
00000000
00000001
00000000
00000100
00000000
00000000
00000000
00000000
00000101
00000000
00000101
,  // measure 27
00000000
00001000
00010000
01000000
10000000
00000000
00010000
00000000
,  // measure 28
01000000
00000000
01010000
10000000
01000000
00100000
00100000
00000000
,  // measure 29
11000000
00000000
01010000
00000000
00001000
00000010
00000001
00000100
,  // measure 30
00000100
00001001
00001000
01000000
,  // measure 31
10000000
00000000
10010000
00000000
01000000
00100000
01000000
00000000
,  // measure 32
00100000
00000000
00000000
00010000
00000000
00000000
00100000
00000000
00000000
01000000
00000000
00000000
10000000
00000000
00000000
00000000
,  // measure 33
10000000
00000000
01000000
00000000
00010000
00000000
00000000
00000000
00001000
00000000
00001000
00000000
00000000
00001000
00000000
00000000
,  // measure 34
00000000
00010000
01000000
10000000
01000000
10000000
01000000
00000000
,  // measure 35
00100000
00000000
00000000
00100000
00000000
00000000
01000000
00000000
00000000
01000000
00000000
00000000
10000000
00000000
00010000
00000000
10000000
00000000
01000000
00000000
00000000
00000000
00000000
00000000
,  // measure 36
00000000
00000000
00000000
00010000
00000000
00000000
01000000
00000000
10000000
00000000
01000000
00000000
00010000
00000000
01000000
00000000
,  // measure 37
10000000
01000000
00010000
01000000
10000000
01000000
00010000
01000000
,  // measure 38
10000000
00100000
00000000
00100000
00010000
00000000
00000010
00000000
00010000
00000000
00001000
00000000
00010000
00000000
00000100
00000000
,  // measure 39
00000010
00000001
00000000
00000010
00000001
00000000
00000010
00000000
00000011
00000000
00000000
00000000
00000011
00000000
00000000
00000000
,  // measure 40
00000010
00000001
00000000
00000010
00000000
00000010
00000001
00000000
00001000
00000000
00000100
00000000
00001000
00000000
00000001
00000000
,  // measure 41
00000100
00000001
00000100
00000001
00000010
00000000
00001001
00000000
,  // measure 42
00000001
00000010
00000000
00000010
00001000
00000000
00100000
00000000
00001000
00000000
00010000
00000000
00001000
00000000
01000000
00000000
,  // measure 43
00100000
10000000
00000000
00100000
10000000
00000000
00100000
00000000
10100000
00000000
00000000
00000000
10100000
00000000
00000000
00000000
,  // measure 44
00100000
10000000
00000000
00100000
00000000
00100000
10000000
00000000
00010000
00000000
01000000
00000000
00010000
00000000
00100000
00000000
,  // measure 45
00001000
01000000
00010000
00100000
00001000
00000000
00011000
00000000
;
