#TITLE:GET OFF;
#SUBTITLE:;
#ARTIST:WIZZZARD;
#TITLETRANSLIT:;
#SUBTITLETRANSLIT:;
#ARTISTTRANSLIT:;
#CREDIT:;
#BANNER:GET OFF.png;
#BACKGROUND:GET OFF-bg.png;
#LYRICSPATH:;
#CDTITLE:Dance Dance Revolution Solo.png;
#MUSIC:GET OFF.ogg;
#OFFSET:0.000;
#SAMPLESTART:15.799;
#SAMPLELENGTH:15.000;
#SELECTABLE:YES;
#DISPLAYBPM:137.000;
#BPMS:0.000=136.717,52.000=139.434,54.000=136.797,66.000=140.335,68.000=136.651,148.000=134.356,152.000=136.712;
#STOPS:;
#BGCHANGES:;

//---------------dance-single - ----------------
#NOTES:
     dance-single:
     :
     Easy:
     4:
     0.230,0.304,0.088,0.000,0.000:
0000
0000
0000
0000
,
0000
0000
0000
0000
,
0000
0000
0000
0000
,
0000
0000
0000
0000
,
0000
0000
0000
0000
,
0001
0000
0000
0000
,
0010
0100
0000
0000
,
0010
0000
0100
0000
,
0100
0000
0010
0000
,
0010
0001
0100
1000
,
0010
0001
0100
1000
,
1000
0001
1000
0001
,
0010
0100
0010
0100
,
1000
0100
0010
0001
,
0000
0000
0000
0000
,
0010
0001
1000
0100
,
0000
0000
0000
0000
,
0001
0001
0100
0010
,
0010
0010
1000
0001
,
1000
1000
0010
0100
,
0100
0100
0001
1000
,
0100
0100
1001
0100
,
0100
1000
0001
1000
,
0010
0000
0100
0000
0100
0000
0001
1000
,
0000
0000
0000
0000
,
0100
0100
1000
0100
,
0001
0001
0010
1000
,
0100
0000
0100
0000
0100
0000
1000
0001
,
0000
0000
0000
0000
,
0100
1000
0001
0100
,
0001
0010
1000
0010
,
0100
0000
0100
0000
0100
0000
0001
1000
,
0000
0000
0000
0000
,
0110
1001
0100
0010
,
1000
0001
0100
0010
,
0100
0000
0010
0000
0100
0000
1000
0001
,
0000
0000
0000
0000
,
0000
0000
0000
0000
,
0000
0000
0000
0000
,
0001
0100
1000
0000
,
1000
0100
0001
0000
,
0001
0000
1000
0000
0001
1000
0001
0100
,
0000
0000
0000
0000
,
1000
0100
0001
0000
,
0001
0100
1000
0000
,
1000
0000
0001
0000
1000
0001
1000
0001
,
0000
0000
0000
1001
,
0010
0010
0100
1001
,
0100
0100
0010
1001
,
0010
0100
0010
0110
,
1000
0001
0110
0000
;

//---------------dance-single - ----------------
#NOTES:
     dance-single:
     :
     Medium:
     5:
     0.305,0.360,0.153,0.000,0.000:
0000
0000
0000
0000
,
0000
0000
0000
0000
,
0000
0000
0000
0000
,
0000
0000
0000
0000
,
0000
0000
0000
0000
,
1001
0000
0000
0000
,
0110
0000
1001
0000
,
0010
1000
0010
0001
,
0010
1000
0010
0001
,
0010
0001
0100
1000
,
0010
0001
0100
1000
,
1000
0001
1000
0001
,
1000
1000
0001
0001
,
0000
1000
0001
0100
0010
0100
0001
1000
,
0000
0000
0000
0000
,
0000
0010
0100
0001
1000
0001
0010
0100
,
0000
0000
0000
0000
,
0001
1000
0001
0000
0100
0000
0100
0000
,
0001
0001
0001
0000
1000
0000
1000
0000
,
0010
0001
1000
0000
0100
0000
0100
0000
,
0110
1000
0001
0001
,
0100
0000
0100
0000
1000
0100
0100
0000
,
0000
0000
1000
0000
0001
0001
1000
0000
,
0000
0000
0100
0000
0100
0000
0001
1000
,
0000
0000
0000
0000
,
0100
0000
0100
0000
1000
0100
0100
0000
,
0001
1000
0001
0000
0010
0100
1000
0000
,
0100
0000
0100
0000
0100
0100
1000
0001
,
0000
0000
0101
1010
,
0100
0000
1000
0000
0001
0100
1000
0000
,
0001
0000
0010
1000
0001
0000
0000
0000
,
0100
0000
0100
0000
0100
1000
0001
1000
,
0000
0000
0000
0000
,
0110
0000
1000
0000
0101
0001
0001
0000
,
1000
0000
0101
0000
0100
0010
0100
0000
,
0000
0000
0000
0010
0100
0010
1000
0001
,
0000
0000
0000
0000
,
0010
0000
1001
0000
1001
0100
0100
0000
,
1000
1000
0001
1000
,
0010
0001
0100
0000
1000
1000
0000
0000
,
0010
1000
0100
0000
0001
0001
0000
0000
,
0001
0100
1000
0100
0001
1000
0001
1000
,
0000
0000
0000
0000
,
0010
1000
0100
0000
0001
0001
0000
0000
,
0010
0001
0100
0000
1000
1000
0000
0000
,
1000
0100
0001
0100
1000
0001
1000
0010
,
0000
0000
0000
0000
0000
0000
0001
1000
,
0000
0000
0010
0100
0000
0000
0001
1000
,
0000
0000
0100
0010
0000
0000
1000
0001
,
1000
0000
0000
0110
,
0000
1001
0000
0000
0110
0000
0000
0000
;

//---------------dance-single - ----------------
#NOTES:
     dance-single:
     :
     Hard:
     6:
     0.449,0.415,0.011,0.000,0.000:
0000
0000
0000
0000
,
0000
0000
0000
0000
,
0000
0000
0000
0000
,
0000
0000
0000
0000
,
0000
0000
0000
0000
,
0001
0000
1000
0000
0001
1000
0001
1000
,
0010
0000
0100
0000
0010
0100
0010
0100
,
0001
0000
1000
0000
0001
1000
0001
1000
,
0010
0000
1000
0000
0001
0010
0001
0000
,
0010
0001
1000
0100
,
0100
0001
1000
0010
,
1000
0001
1000
0001
1000
0001
1000
0001
,
0010
0100
1000
0100
0010
0001
0010
0001
,
0010
0001
1000
0001
,
0100
0010
0100
0010
0100
0010
0100
0010
,
0010
1000
0100
0010
,
0100
0010
0100
0010
0100
0000
0100
0000
,
1000
0001
1000
0000
0100
0100
0100
0000
,
0001
1000
0001
0000
0100
0100
0100
0000
,
1000
0001
1000
0001
1000
0001
1000
0001
,
0100
0010
0100
0010
1000
0001
1000
0000
,
0001
1000
0001
0000
0010
0100
1000
0001
,
0100
0010
1000
0001
1000
0001
0010
0000
,
0100
0000
0100
0000
0100
0010
0100
0010
,
0010
0000
0010
0000
0010
0100
0010
0100
,
1000
0001
1000
0000
0010
0100
0100
0010
,
1000
0001
1000
0010
0010
0100
0001
1000
,
0010
0000
0010
0000
1000
0001
0010
0100
,
0010
0000
0010
0000
1000
0001
1000
0001
,
0001
1000
0001
0000
0010
0100
1000
0001
,
0100
0010
1000
0001
1000
0001
0010
0000
,
0100
0000
0100
0000
0100
0010
0100
0010
,
0010
0000
0010
0000
0010
0100
0010
0100
,
1000
0001
1000
0000
0010
0100
0100
0010
,
1000
0001
1000
0010
0010
0100
0001
1000
,
0010
0000
0010
0000
1000
0001
0010
0001
,
0010
0000
0010
0000
0001
1000
0001
0001
,
0001
0000
0001
0000
0001
1000
0001
1000
,
0010
0000
0100
0000
0010
0100
0010
1000
,
1000
0100
1000
0100
1000
0000
0001
0000
,
0001
0100
0001
0100
0001
0000
1000
0000
,
1000
0100
1000
0100
0010
0001
0010
0001
,
0010
0100
0010
0010
,
0001
0100
1000
0100
0001
0000
0010
0000
,
1000
0100
0001
0100
1000
0000
0010
0000
,
0001
0010
0001
0010
0100
1000
0100
1000
,
0100
0000
1000
0000
0001
0000
0010
0001
,
0010
0000
0100
1000
0010
1000
0010
1000
,
0010
0000
0100
0001
0010
0000
0100
1000
,
0010
0000
0100
0001
0010
0000
0100
1000
,
0010
1000
0000
0010
0110
0000
0000
0000
;

//---------------dance-solo - ----------------
#NOTES:
     dance-solo:
     :
     Easy:
     4:
     0.247,0.332,0.121,0.000,0.000:
000000
000000
000000
000000
,
000000
000000
000000
000000
,
000000
000000
000000
000000
,
000000
000000
000000
000000
,
000000
000000
000000
000000
,
100001
000000
000000
000000
,
001100
000000
100001
000000
,
010000
100000
000010
000001
,
010000
100000
000010
000001
,
000100
000001
001000
100000
,
000100
000001
001000
100000
,
100000
000001
100000
000001
,
100000
100000
000001
000001
,
100000
001000
000100
000001
,
000000
000000
000000
000000
,
000100
000001
100000
001000
,
000000
000000
000000
000000
,
000010
000010
000001
000000
001000
000000
001000
000000
,
000001
000001
000001
000000
100000
000000
100000
000000
,
010000
010000
100000
000000
001000
000000
001000
000000
,
001100
100000
000001
000001
,
001000
000000
001000
000000
100000
001000
001000
000000
,
000000
000000
100000
000000
000001
000001
100000
000000
,
000000
000000
001000
000000
001000
000000
000001
100000
,
000000
000000
000000
000000
,
001000
000000
001000
000000
100000
001000
001000
000000
,
000001
000000
000001
000000
000100
001000
100000
000000
,
001000
000000
001000
000000
001000
000000
100000
000001
,
000000
000000
000000
000000
,
001000
000000
100000
000000
000001
001000
100000
000000
,
000001
000000
000010
000010
000001
100000
000000
000000
,
001000
000000
001000
000000
001000
000000
000001
100000
,
000000
000000
000000
000000
,
001100
000000
000000
000000
001001
000001
000001
000000
,
100000
000000
001000
000000
001000
000100
001000
000000
,
000000
000000
000000
000100
001000
000100
100000
000001
,
000000
000000
000000
000000
,
000000
000000
000000
000000
,
000000
000000
000000
000000
,
000001
001000
100000
000000
,
100000
001000
000001
000000
,
000001
000000
100000
000000
000001
100000
000010
001000
,
000000
000000
000000
000000
,
100000
001000
000001
000000
,
000001
001000
100000
000000
,
100000
000000
000001
000000
100000
000001
010000
001000
,
000000
000000
000000
000000
000000
000000
000001
100000
,
000000
000000
001100
000000
000000
000000
000001
100000
,
000000
000000
001100
000000
000000
000000
100000
000001
,
100000
000000
000000
001100
,
000000
100001
000000
000000
001100
000000
000000
000000
;

//---------------dance-solo - ----------------
#NOTES:
     dance-solo:
     :
     Medium:
     6:
     0.305,0.360,0.153,0.000,0.000:
000000
000000
000000
000000
,
000000
000000
000000
000000
,
000000
000000
000000
000000
,
000000
000000
000000
000000
,
000000
000000
000000
000000
,
100001
000000
000000
000000
,
001100
000000
100001
000000
,
010000
100000
000010
000001
,
010000
100000
000010
000001
,
000100
000001
001000
100000
,
000100
000001
001000
100000
,
100000
000001
100000
000001
,
100000
100000
000001
000001
,
000000
100000
000001
001000
000100
001000
000001
100000
,
000000
000000
000000
000000
,
000000
000100
001000
000001
100000
000001
000100
001000
,
000000
000000
000000
000000
,
000010
010000
000001
000000
001000
000000
001000
000000
,
000001
000001
000001
000000
100000
000000
100000
000000
,
010000
000010
100000
000000
001000
000000
001000
000000
,
001100
100000
000001
000001
,
001000
000000
001000
000000
100000
001000
001000
000000
,
000000
000000
100000
000000
000001
000001
100000
000000
,
000000
000000
001000
000000
001000
000000
000001
100000
,
000000
000000
000000
000000
,
001000
000000
001000
000000
100000
001000
001000
000000
,
000001
100000
000001
000000
000100
001000
100000
000000
,
001000
000000
001000
000000
001000
001000
100000
000001
,
000000
000000
001001
100100
,
001000
000000
100000
000000
000001
001000
100000
000000
,
000001
000000
000010
010000
000001
000000
000000
000000
,
001000
000000
001000
000000
001000
100000
000001
100000
,
000000
000000
000000
000000
,
001100
000000
100000
000000
001001
000001
000001
000000
,
100000
000000
001001
000000
001000
000100
001000
000000
,
000000
000000
000000
000100
001000
000100
100000
000001
,
000000
000000
000000
000000
,
000100
000000
010010
000000
100001
001000
001000
000000
,
100000
100000
000001
100000
,
000010
000001
001000
000000
100000
100000
000000
000000
,
010000
100000
001000
000000
000001
000001
000000
000000
,
000001
001000
100000
001000
000001
100000
000010
010000
,
000000
000000
000000
000000
,
010000
100000
001000
000000
000001
000001
000000
000000
,
000010
000001
001000
000000
100000
100000
000000
000000
,
100000
001000
000001
001000
100000
000001
010000
000010
,
000000
000000
000000
000000
000000
000000
000001
100000
,
000000
000000
000100
001000
000000
000000
000001
100000
,
000000
000000
001000
000100
000000
000000
100000
000001
,
100000
000000
000000
001100
,
000000
010010
000000
000000
001100
000000
000000
000000
;

//---------------dance-solo - ----------------
#NOTES:
     dance-solo:
     :
     Hard:
     7:
     0.455,0.415,0.055,0.000,0.000:
000000
000000
000000
000000
,
000000
000000
000000
000000
,
000000
000000
000000
000000
,
000000
000000
000000
000000
,
000000
000000
000000
000000
,
000001
000000
100000
000000
000001
100000
000001
100000
,
000100
000000
001000
000000
000100
001000
000100
001000
,
000010
000000
010000
000000
000010
010000
000010
010000
,
010000
000000
100000
000000
000010
000010
000001
000000
,
000100
000010
010000
001000
,
001000
000010
010000
000100
,
010000
000010
010000
000010
010000
000010
010000
000010
,
010000
100000
010000
100000
000010
000001
000010
000001
,
000100
000011
000100
110000
,
001000
000100
001000
000100
001000
000100
001000
000100
,
000100
110000
000100
000011
,
001000
000100
001000
000100
001000
000000
001000
000000
,
010000
000010
010000
000000
001000
001000
001000
000000
,
000010
010000
000010
000000
001000
001000
001000
000000
,
010000
000010
100000
000001
010000
000010
100000
000001
,
001000
000100
001000
000100
100000
000001
100000
000000
,
000001
100000
000001
000000
000100
001000
100000
000001
,
001000
000100
100000
000010
010000
000001
000100
000000
,
001000
000000
001000
000000
001000
000100
001000
000100
,
000100
000000
000100
000000
000100
001000
000100
001000
,
100000
000001
100000
000000
000100
001000
001000
000100
,
100000
000001
100000
000100
000100
001000
100000
000001
,
000100
000000
000100
000000
010000
000010
000010
010000
,
000100
000000
000100
000000
010000
000010
100000
000001
,
000001
100000
000001
000000
000100
001000
100000
000001
,
001000
000100
100000
000010
010000
000001
000100
000000
,
001000
000000
001000
000000
001000
000100
001000
000100
,
000100
000000
000100
000000
000100
001000
000100
001000
,
100000
000001
100000
000000
000100
001000
001000
000100
,
100000
000001
100000
000100
000100
001000
100000
000001
,
000100
000000
000100
000000
010000
000010
000010
010000
,
000100
000000
000100
000000
010000
000010
100000
000001
,
000001
000000
000001
000000
000001
100000
000001
100000
,
000100
000000
001000
000000
000100
001000
000100
100000
,
100000
001000
100000
001000
100000
000000
000010
000000
,
000001
001000
000001
001000
000001
000000
010000
000000
,
100000
001000
100000
001000
000001
001000
000001
001000
,
000100
001000
000100
000100
,
000001
001000
100000
001000
000001
000000
010000
000000
,
100000
001000
000001
001000
100000
000000
000010
000000
,
000001
000100
000001
000100
100000
000100
100000
000100
,
001000
000000
100000
000000
000001
000000
000010
000001
,
000100
000000
010000
100000
010000
100000
010000
100000
,
000100
000000
000010
000001
000010
000000
000010
000001
,
000100
000000
010000
100000
010000
000000
010000
100000
,
000100
010000
000000
000100
001100
000000
000000
000000
;

//---------------dance-double - Edit by silenttype01----------------
#NOTES:
     dance-double:
     Edit by silenttype01:
     Easy:
     4:
     0.224,0.304,0.066,0.000,0.000: // measure 1
00000000
00000000
00000000
00000000
,  // measure 2
00000000
00000000
00000000
00000000
,  // measure 3
00000000
00000000
00000000
00000000
,  // measure 4
00000000
00000000
00000000
00000000
,  // measure 5
00000000
00000000
00000000
00000000
,  // measure 6
00001000
00000000
00000000
00000000
,  // measure 7
00000100
00000010
00000000
00000000
,  // measure 8
00000100
00000000
00010000
00000000
,  // measure 9
00001000
00000000
00100000
00000000
,  // measure 10
01000000
10000000
00100000
00010000
,  // measure 11
00000100
00001000
00000010
00010000
,  // measure 12
00010000
00001000
00000010
00000001
,  // measure 13
00000100
00000010
00000100
00000010
,  // measure 14
00000001
00000010
00000100
00001000
,  // measure 15
00000000
00000000
00000000
00000000
,  // measure 16
01000000
10000000
00010000
00100000
,  // measure 17
00000000
00000000
00000000
00000000
,  // measure 18
10000000
10000000
00100000
01000000
,  // measure 19
01000000
01000000
00010000
10000000
,  // measure 20
00010000
00010000
00000100
00000010
,  // measure 21
00000010
00000010
00001000
00000001
,  // measure 22
00000010
00000010
00001001
00000010
,  // measure 23
00000010
00001000
00010000
00001000
,  // measure 24
00000100
00000100
00000100
00001000
,  // measure 25
00000001
00000000
00000000
00000000
,  // measure 26
00000010
00000010
00001000
00100000
,  // measure 27
00010000
00010000
01000000
00010000
,  // measure 28
00100000
00100000
00100000
00010000
,  // measure 29
10000000
00000000
00000000
00000000
,  // measure 30
00100000
10000000
00010000
00100000
,  // measure 31
00010000
01000000
00001000
00000100
,  // measure 32
00000010
00000010
00000010
00001000
,  // measure 33
00000001
00000000
00000000
00000000
,  // measure 34
00000100
00001000
00000010
00000100
,  // measure 35
00001000
00010000
00100000
01000000
,  // measure 36
00100000
00100000
00100000
10000000
,  // measure 37
00010000
00000000
00000000
00000000
,  // measure 38
00000000
00000000
00000000
00000000
,  // measure 39
00000000
00000000
00000000
00000000
,  // measure 40
00000001
00000010
00001000
00000000
,  // measure 41
00010000
00100000
10000000
00000000
,  // measure 42
10000000
01000000
00010000
00100000
,  // measure 43
10000000
00000000
00000000
00000000
,  // measure 44
10000000
00100000
00010000
00000000
,  // measure 45
00001000
00000010
00000001
00000000
,  // measure 46
00000001
00000100
00001000
00000010
,  // measure 47
00000001
00000000
00000000
00011000
,  // measure 48
00010000
00001000
00010000
00011000
,  // measure 49
00001000
00010000
00001000
00011000
,  // measure 50
00010000
00001000
00010000
00011000
,  // measure 51
00001000
00010000
00011000
00000000
;

//---------------dance-double - Edit by silenttype01----------------
#NOTES:
     dance-double:
     Edit by silenttype01:
     Medium:
     7:
     0.304,0.360,0.175,0.044,0.000: // measure 1
00000000
00000000
00000000
00000000
,  // measure 2
00000000
00000000
00000000
00000000
,  // measure 3
00000000
00000000
00000000
00000000
,  // measure 4
00000000
00000000
00000000
00000000
,  // measure 5
00000000
00000000
00000000
00000000
,  // measure 6
00001001
00000000
00000000
00000000
,  // measure 7
00011000
00000000
00000000
00000000
,  // measure 8
10010000
00000000
00000000
00000000
,  // measure 9
10010000
00000000
00000000
00000000
,  // measure 10
01000000
10000000
00100000
00010000
,  // measure 11
00000100
00001000
00000010
00010000
,  // measure 12
00010000
00000010
00010000
00001000
,  // measure 13
00100000
00100000
00001000
00001000
,  // measure 14
00000000
00010000
00001000
00100000
01000000
00100000
00001000
00010000
,  // measure 15
00000000
00000000
00000000
00000000
,  // measure 16
00000000
00001000
00010000
00000010
00000100
00000010
00010000
00001000
,  // measure 17
00000000
00000000
00000000
00000000
,  // measure 18
00010000
00001000
00010000
00000000
00000100
00000000
00000100
00000000
,  // measure 19
00001000
00000010
00000100
00000000
00000001
00000000
00000001
00000000
,  // measure 20
00000010
00000100
00001000
00000000
00000010
00000000
00000010
00000000
,  // measure 21
00000110
00010000
00001000
00001000
,  // measure 22
00100000
00000000
00100000
00000000
00010000
00100000
00100000
00000000
,  // measure 23
00000000
00000000
00010000
00000000
10000000
10000000
00010000
00000000
,  // measure 24
00000000
00000000
00100000
00000000
00100000
00000000
00010000
10000000
,  // measure 25
00000000
00000000
00000000
00000000
,  // measure 26
00100000
00000000
00100000
00000000
00010000
00000010
00000010
00000000
,  // measure 27
00001000
00000001
00001000
00000000
00000100
00000010
00000001
00000000
,  // measure 28
00000010
00000000
00000010
00000000
00000010
00000010
00000001
00001000
,  // measure 29
00000000
00000000
00000000
00000101
,  // measure 30
00000010
00000000
00010000
00000000
00001000
00010000
00100000
00000000
,  // measure 31
00010000
00000000
00100000
10000000
00010000
00000000
00000000
00000000
,  // measure 32
00100000
00000000
00100000
00000000
00100000
00010000
10000000
00010000
,  // measure 33
00000000
00000000
10010000
10010000
,  // measure 34
01100000
00000000
00001000
00000000
00010010
00000010
00000010
00000000
,  // measure 35
00000100
00000000
00001010
00000000
00000100
00010000
00000010
00000000
,  // measure 36
00000000
00000000
00000000
00000100
00000010
00000100
00000001
00001000
,  // measure 37
00000000
00000000
00000200
00000000
,  // measure 38
00010300
00000000
00011000
00000000
10010000
00100000
00100000
00000000
,  // measure 39
00010000
00010000
10000000
00000000
,  // measure 40
01000000
10000000
00100000
00000000
00010000
00010000
00000000
00000000
,  // measure 41
00000100
00010000
00000010
00000000
00001000
00001000
00000000
00000000
,  // measure 42
00000100
00001000
00000010
00000001
00000010
00001000
00000001
00002000
,  // measure 43
00000000
00003000
00000000
00000000
,  // measure 44
00000100
00000001
00000010
00000000
00001000
00001000
00000000
00000000
,  // measure 45
01000000
00001000
00100000
00000000
00010000
00010000
00000000
00000000
,  // measure 46
01000000
00010000
00100000
10000000
00100000
00010000
10000000
00020000
,  // measure 47
00000000
00000000
00030000
00000000
00000000
00000000
10000000
00100000
,  // measure 48
00000000
00000000
00010000
00001000
00000000
00000000
00000100
00000001
,  // measure 49
00000000
00000000
00000010
00001000
00000000
00000000
00010000
02000000
,  // measure 50
00000000
00000000
03000000
10010000
,  // measure 51
00000000
00011000
00000000
00000000
00001001
00000000
00000000
00000000
;

//---------------dance-double - Edit by silenttype01----------------
#NOTES:
     dance-double:
     Edit by silenttype01:
     Hard:
     8:
     0.462,0.470,0.011,0.000,0.044: // measure 1
00000000
00000000
00000000
00000000
,  // measure 2
00000000
00000000
00000000
00000000
,  // measure 3
00000000
00000000
00000000
00000000
,  // measure 4
00000000
00000000
00000000
00000000
,  // measure 5
00000000
00000000
00000000
00000000
,  // measure 6
00001000
00000000
00000001
00000000
00001000
00000001
00001000
00000001
,  // measure 7
00000100
00000000
00000010
00000000
00010000
00001000
00010000
00001000
,  // measure 8
01000000
00000000
00100000
00000000
10000000
00010000
10000000
00010000
,  // measure 9
01000000
00000000
00100000
00000000
00010000
00001000
00010000
00000000
,  // measure 10
00000100
00000000
00000000
00000100
00001000
00000000
00000000
00001000
00000001
00000000
00000000
00000001
00000010
00000000
00000000
00000001
,  // measure 11
00000010
00000000
00000000
00000010
00001000
00000000
00000000
00001000
00000001
00000000
00000000
00000001
00000100
00000000
00000000
00000100
,  // measure 12
00010000
00001000
00010000
00001000
00010000
00001000
00010000
00001000
,  // measure 13
00000100
00000010
00000001
00000010
00000100
00001000
00000100
00001000
,  // measure 14
00000100
00001000
00010000
00100000
,  // measure 15
01000000
00100000
01000000
00100000
01000000
00100000
01000000
00100000
,  // measure 16
00100000
10000000
00100000
01000000
,  // measure 17
00001000
00010000
00001000
00010000
00001000
00000000
00000010
00000000
,  // measure 18
00000001
00001000
00000001
00000000
00000010
00000010
00000010
00000000
,  // measure 19
00001000
00010000
00001000
00000000
00100000
00100000
00100000
00000000
,  // measure 20
00010000
10000000
00010000
10000000
00010000
10000000
00010000
10000000
,  // measure 21
00100000
01000000
00100000
01000000
00010000
10000000
00010000
00000000
,  // measure 22
10000000
00100000
00010000
00000000
00000100
00000010
00000001
00001000
,  // measure 23
00000010
00000100
00000001
00001000
00000001
00001000
00000100
00000000
,  // measure 24
00000010
00000000
00000010
00000000
00000010
00000100
00000010
00000100
,  // measure 25
00000100
00000000
00000100
00000000
00000100
00000010
00000100
00000010
,  // measure 26
00000001
00001000
00000001
00000000
00000100
00000010
00000010
00000100
,  // measure 27
00001000
00010000
00001000
00000100
00000100
00000010
00001000
00000001
,  // measure 28
00000100
00000000
00000100
00000000
00001000
00010000
01000000
00100000
,  // measure 29
01000000
00000000
01000000
00000000
10000000
00010000
10000000
00010000
,  // measure 30
00010000
10000000
00010000
00000000
01000000
00100000
00010000
00001000
,  // measure 31
00000010
00000100
00001000
00000001
00001000
00000001
00000100
00000000
,  // measure 32
00000010
00000000
00000010
00000000
00000010
00010000
00000010
00010000
,  // measure 33
00010000
00000000
00010000
00000000
00010000
00000010
00010000
00000010
,  // measure 34
00001000
00000100
00000010
00000000
00000100
00000010
00000010
00001000
,  // measure 35
00010000
01000000
10000000
00010000
00010000
10000000
00100000
10000000
,  // measure 36
01000000
00000000
01000000
00000000
10000000
00010000
01000000
00010000
,  // measure 37
01000000
00000000
00010000
00000000
00000100
00000001
00001000
00001000
,  // measure 38
00001000
00000000
00000001
00000000
00000001
00001000
00000001
00001000
,  // measure 39
00000100
00000000
00000010
00000000
00000100
00000010
00000100
00010000
,  // measure 40
00010000
00000010
00001000
00000010
00001000
00000000
00000100
00000000
,  // measure 41
00000100
00000010
00000100
00000010
00000100
00000000
00010000
00000000
,  // measure 42
01000000
00100000
01000000
00100000
00010000
00100000
00010000
00100000
,  // measure 43
01000000
00100000
01000000
01000000
,  // measure 44
10000000
00100000
00010000
00100000
10000000
00000000
01000000
00000000
,  // measure 45
00010000
00100000
10000000
00100000
00010000
00000000
01000000
00000000
,  // measure 46
10000000
01000000
10000000
01000000
00100000
00010000
00100000
00010000
,  // measure 47
00100000
00000000
00001000
00000000
00010000
00000000
00000100
00010000
,  // measure 48
00000010
00000000
00001000
00000001
00000100
00000001
00000010
00000001
,  // measure 49
00000100
00000000
00000010
00001000
00000100
00000000
00100000
00010000
,  // measure 50
01000000
00000000
00100000
10000000
01000000
00000000
00100000
00001000
,  // measure 51
01000000
00010000
00000000
00001000
00011000
00000000
00000000
00000000
;

//---------------dance-double - Edit by silenttype01----------------
#NOTES:
     dance-double:
     Edit by silenttype01:
     Challenge:
     9:
     0.518,0.584,0.372,0.197,0.548: // measure 1
00000000
00000000
00000000
00000000
,  // measure 2
00000000
00000000
00000000
00000000
,  // measure 3
00000000
00000000
00000000
00000000
,  // measure 4
00000000
00000000
00000000
00000000
,  // measure 5
00000000
00000000
00000000
00000000
,  // measure 6
00001001
00000000
00000000
00001001
00000000
00000000
00001001
00000000
00000000
00000000
00000020
00000000
00000000
00000000
00000030
00000000
,  // measure 7
00011000
00000000
00000000
00011000
00000000
00000000
00011000
00000000
00000000
00000000
00200000
00000000
00000000
00000000
00300000
00000000
,  // measure 8
10010000
00000000
00000000
10010000
00000000
00000000
10010000
00000000
00000000
00000000
00200000
00000000
00000000
00000000
00300000
00000000
,  // measure 9
00011000
00000000
00000000
00011000
00000000
00000000
00011000
00000000
00000000
00000000
00000020
00000000
00000000
00000000
00000030
00000000
,  // measure 10
00000101
00000000
00000000
00000001
00001000
00000000
00001100
00000000
00000000
00000000
00000010
00000000
00000001
00000000
00000000
00000000
,  // measure 11
00000011
00000000
00000000
00001000
00000001
00000000
00001010
00000000
00000000
00000000
00000100
00000000
00000010
00000000
00000000
00000000
,  // measure 12
00011000
00000000
00000000
00001000
00100000
00000000
00110000
00000000
00000000
00000000
01000000
00000000
10000000
00000000
00000000
00000000
,  // measure 13
10100000
00000000
00000000
10000000
00010000
00000000
00110000
00000000
00000000
00000000
01000000
00000000
10000000
00000000
00000000
00000000
,  // measure 14
00010000
10000000
00000000
00010000
01000000
00010000
00000000
01000000
00010000
01000000
00000000
00010000
01000000
00010000
00000000
01000000
,  // measure 15
00020000
00000000
10000000
00000000
10000000
00030000
10000000
00000000
,  // measure 16
00001000
00010000
00000000
00001000
00010000
00001000
00000000
00010000
00001000
00010000
00000000
00001000
00010000
00001000
00000000
00010000
,  // measure 17
00002000
00000000
00010000
00000000
00010000
00003000
000M0000
00000000
,  // measure 18
00000001
00000000
00000010
00000000
00000100
00000000
00000000
00000100
00000000
00000010
00000000
00000001
00000000
00000010
00000001
00000000
,  // measure 19
00001000
00000000
00000010
00000000
00000100
00000000
00000000
00000110
00000000
00000100
00000000
00001000
00000000
00010000
00001000
00000000
,  // measure 20
01000000
00000000
00010000
00000000
00100000
00010000
00000000
10010000
00000000
10000000
00000000
00010000
00000000
10000000
00100000
00000000
,  // measure 21
10000000
00000000
00000000
10000000
01000000
00000000
00000000
01000000
00100000
00000000
00010000
00000000
10000000
00000000
00000000
00000000
,  // measure 22
00110000
00000000
00000000
00010000
00000000
00000000
00100000
00000000
10000000
00000000
00100000
00000000
00000000
00010000
00000000
00000000
,  // measure 23
20000000
00000000
00100000
00100000
00000000
00200000
00000000
00000000
,  // measure 24
30300000
00000000
00000000
10000000
00100000
00010000
01000000
10000000
,  // measure 25
00000000
00000000
00000000
00000000
22000000
00000000
00000000
33000000
,  // measure 26
01000000
02000000
00000000
00000000
13000000
01000000
00010000
00002000
,  // measure 27
00000000
00000000
00000010
00000000
00000000
00000010
00000000
00000000
00000010
00000000
00000000
00000020
00000000
00000000
00000000
00000000
,  // measure 28
00003030
00000000
00000000
00001000
00000010
00000001
00000100
00001000
,  // measure 29
00000000
00000000
00000000
00000000
00010000
00010000
00010000
00010000
,  // measure 30
00010000
00000000
00000000
00001000
00000000
00000000
00000100
00000000
00000001
00000000
00000010
00000000
00000000
00000001
00000000
00000000
,  // measure 31
00000100
00000000
00000000
00001000
00000000
00000000
00020000
00000000
00000000
00000000
00000000
00000000
00000000
00000000
00000000
00000000
,  // measure 32
00030000
00000000
00000000
00010000
00100000
10000000
01000000
00010000
,  // measure 33
00000000
00000000
00000000
00000000
01000000
01000000
10000000
10000000
,  // measure 34
01000000
00000000
00000000
02000000
00000000
00000000
00100000
00000000
03200000
00000000
00000000
00000000
00300000
00000000
00001000
00000000
,  // measure 35
00010000
00000000
00000010
00010000
00000000
00001000
00200000
00000000
00000000
00000000
00002000
00000000
00000000
00000000
00000000
00000000
,  // measure 36
00303000
00000000
00000000
00001000
00000010
00000001
00000100
00001000
,  // measure 37
00000000
00000000
00000000
00000000
00000000
00000000
00000000
00000000
00000100
00001000
00000100
00001000
00000100
00001000
00000100
00001000
,  // measure 38
00000000
00000000
00000000
00000000
00000000
00000000
00000000
00000000
00000000
00000000
01000000
00010000
01000000
00010000
01000000
00010000
,  // measure 39
00000000
00000000
00000000
00000000
00000000
00000000
00000000
00000000
00000000
00000000
10000000
00010000
10000000
00010000
10000000
00010000
,  // measure 40
10000000
00000000
00000000
10000000
00100000
00000000
00000000
00100000
00010000
00000000
00000000
00010000
00001000
00000000
00000000
00001000
,  // measure 41
00010000
00000000
00000000
00010000
00100000
00000000
00000000
00100000
10000000
00000000
00000000
10000000
01000000
00000000
00000000
01000000
,  // measure 42
00010000
00000000
00000000
00010000
00001000
00000000
00000000
00001000
00000010
00000000
00000000
00000010
00000001
00001000
00000000
00001000
,  // measure 43
00000001
00000000
00000000
00000100
00001000
00000000
00000000
00010000
00100000
00000000
00000000
10000000
00010000
00100000
00000000
00100000
,  // measure 44
00010000
00000000
00000000
00010000
10000000
00000000
00000000
10000000
00100000
00000000
00000000
00100000
01000000
00000000
00000000
01000000
,  // measure 45
00001000
00000000
00000000
00001000
00010000
00000000
00000000
00010000
00000100
00000000
00000000
00000100
00000010
00000000
00000000
00000010
,  // measure 46
00000001
00000000
00000000
00000001
00001000
00000000
00000000
00001000
00000100
00000000
00000000
00000100
00000010
00000001
00000000
00000001
,  // measure 47
00000010
00000000
00000000
00001000
00010000
00000000
00000000
01000000
10000000
00000000
00000000
00100000
00010000
00001000
00000000
00001000
,  // measure 48
00010000
00000000
00000000
00000000
00001010
00000000
00000000
00000000
00001010
00000000
00000000
00000000
00000101
00000000
00000000
00000001
,  // measure 49
00000100
00000000
00000000
00000000
00010010
00000000
00000000
00000000
00010100
00000000
00000000
00000000
00011000
00000000
00000000
00100000
,  // measure 50
00001000
00000000
00000000
00000000
00101000
00000000
00000000
00000000
01010000
00000000
00000000
00000000
00010000
10000000
00000000
10000000
,  // measure 51
00010000
00000000
01100000
00000000
00000000
00000000
00000000
00000000
01100000
00000000
00000000
00000000
M0000000
000M0000
00000000
00000000
;

//---------------dance-single - Edit by silenttype01----------------
#NOTES:
     dance-single:
     Edit by silenttype01:
     Challenge:
     9:
     0.527,0.581,0.351,0.197,0.411:
0000
0000
0000
0000
,
0000
0000
0000
0000
,
0000
0000
0000
0000
,
0000
0000
0000
0000
,
0000
0000
0000
0000
,
1010
0000
0000
1010
0000
0000
1010
0000
0000
0000
0200
0000
0000
0000
0300
0000
,
0011
0000
0000
0011
0000
0000
0011
0000
0000
0000
0200
0000
0000
0000
0300
0000
,
1001
0000
0000
1001
0000
0000
1001
0000
0000
0000
0020
0000
0000
0000
0030
0000
,
1100
0000
0000
1100
0000
0000
1100
0000
0000
0000
0020
0000
0000
0000
0030
0000
,
1001
0000
0000
1000
0001
0000
0011
0000
0000
0000
0100
0000
1000
0000
0000
0000
,
1100
0000
0000
0001
1000
0000
0101
0000
0000
0000
0010
0000
0100
0000
0000
0000
,
1001
0000
0000
1000
0100
0000
0011
0000
0000
0000
0100
0000
1000
0000
0000
0000
,
1001
0000
0000
0001
0010
0000
1100
0000
0000
0000
0010
0000
0001
0000
0000
0000
,
1000
0001
0000
1000
0010
1000
0000
0010
1000
0010
0000
1000
0010
1000
0000
0010
,
2000
0001
0001
3001
,
0001
1000
0000
0001
0010
0001
0000
0010
0001
0010
0000
0001
0010
0001
0000
0010
,
0002
1000
1000
M003
,
1000
0000
0100
0000
0010
0000
0000
0010
0000
0100
0000
1000
0000
0100
1000
0000
,
0001
0000
0100
0000
0010
0000
0000
0110
0000
0010
0000
1000
0000
0001
1000
0000
,
0010
0000
0010
0000
0010
1000
0000
1001
0000
0001
0000
0100
0000
1000
0100
0000
,
0001
0000
0000
0001
0010
0000
0000
0010
0100
0000
1000
0000
0001
0000
0000
0000
,
1100
0000
0000
1000
0000
0000
0100
0000
0001
0000
0100
0000
0000
1000
0000
0000
,
0002
0000
0100
0100
0000
0200
0000
0000
,
0303
0000
0000
0001
0100
1000
0010
0001
,
0000
0000
0000
0000
0022
0000
0000
0033
,
0010
0020
0000
0000
0031
0010
0001
2000
,
0000
0000
0010
0000
0000
0001
0000
0000
0100
0000
0000
0200
0000
0000
0000
0000
,
3300
0000
0000
0100
1000
0010
0001
0100
,
0000
0000
0000
0000
1000
1000
0001
0001
,
1000
0000
0000
0001
0000
0000
1000
0000
0010
0000
0100
0000
0000
0010
0000
0000
,
1000
0000
0000
0001
0000
0000
2000
0000
0000
0000
0000
0000
0000
0000
0000
0000
,
3000
0000
0000
1000
0010
0001
0100
1000
,
0000
0000
0000
0000
0010
0100
0010
0100
,
0010
0000
0000
0020
0000
0000
0100
0000
0230
0000
0000
0000
0300
0000
0001
0000
,
1000
0000
0010
1000
0000
0010
2000
0000
0000
0000
0002
0000
0000
0000
0000
0000
,
3003
0000
0000
1000
0010
0001
0100
1000
,
0000
0000
0000
0000
0000
0000
0000
0000
0100
1000
0100
1000
0100
1000
0100
1000
,
0000
0000
0000
0000
0000
0000
0000
0000
0000
0000
0001
0010
0001
0010
0001
0010
,
0000
0000
0000
0000
0000
0000
0000
0000
0000
0000
0001
1000
0001
1000
0001
1000
,
0001
0000
1000
0000
0100
0000
0010
0000
0001
0000
0100
0000
0010
0000
0000
0100
,
0001
0000
0100
0000
1000
0000
0100
0000
0001
0000
0100
0000
1000
0000
0000
0100
,
0010
0000
0001
0000
0010
0000
1000
0000
0010
0000
0001
0000
0010
1000
0000
1000
,
0010
0000
0100
0000
0001
0000
1000
0000
0100
0000
0010
0000
0001
1000
0000
1000
,
0001
0000
1000
0000
0100
0000
0010
0000
0001
0000
0100
0000
0010
0000
0000
1000
,
0001
0000
0100
0000
0001
0000
1000
0000
0001
0000
0010
0000
0001
0000
0000
1000
,
0100
0000
1000
0000
0001
0000
0100
0000
0001
0000
1000
0000
0100
0010
0000
0010
,
0001
0000
0100
0000
1000
0000
0100
0000
0001
0000
0010
0000
0100
1000
0000
1000
,
0100
0000
0010
0000
1001
0000
0000
0000
0110
0000
0000
0000
1001
0000
0000
0100
,
0001
0000
1000
0000
1001
0000
0001
0000
1000
0000
0100
0000
1100
0000
0000
0010
,
0001
0000
0100
0000
1001
0000
0010
0000
1000
0000
0001
0000
0010
0100
0000
0100
,
0010
1001
0000
0100
1001
0000
0000
0000
;
