#TITLE:Genie In A Bottle;
#SUBTITLE:;
#ARTIST:nc ft. NRG Factory;
#TITLETRANSLIT:;
#SUBTITLETRANSLIT:;
#ARTISTTRANSLIT:;
#CREDIT:;
#BANNER:Genie In A Bottle.png;
#BACKGROUND:Genie In A Bottle-bg.png;
#LYRICSPATH:;
#CDTITLE:./CDTITLES/Dance Dance Revolution EXTREME 2.png;
#MUSIC:Genie In A Bottle.ogg;
#OFFSET:0.000;
#SAMPLESTART:60.772;
#SAMPLELENGTH:15.000;
#SELECTABLE:YES;
#DISPLAYBPM:136.000;
#BPMS:0.000=136.882,4.000=135.000;
#STOPS:;
#BGCHANGES:7.750=Genie In A Bottle.avi=1.000=1=0=0,
198.750=Genie In A Bottle-bg.png=1.000=0=0=1,
99999=-nosongbg-=1.000=0=0=0 // don't automatically add -songbackground-
;

//---------------dance-single - ----------------
#NOTES:
     dance-single:
     :
     Beginner:
     1:
     0.136,0.179,0.031,0.082,0.000:
0000
0000
0000
0000
,
0000
0000
0000
0000
,
0000
0000
0000
0000
,
0000
0000
0000
0000
,
1000
0000
0000
0000
,
0001
0000
0000
0000
,
1000
1000
0000
0000
,
0010
0010
0000
0000
,
0100
0100
0000
0000
,
0001
0001
0000
0000
,
1000
0000
0100
0000
,
0100
0000
1000
0000
,
0001
0000
0100
0000
,
0001
0001
0001
0000
,
1000
0000
1000
0000
,
0001
0000
0001
0000
,
1000
0000
1000
0000
,
0001
0001
0001
0001
,
0002
0000
0000
0003
,
0001
0000
0000
0000
,
0200
0000
0000
0300
,
0100
0000
0001
0000
,
2000
0000
0000
3000
,
1000
0000
0000
0000
,
0020
0000
0000
0030
,
0010
0000
1000
0000
,
0002
0000
0000
0003
,
0001
0000
0000
0000
,
0200
0000
0000
0300
,
0100
0000
0010
0000
,
2000
0000
0000
3000
,
1000
0000
0000
0000
,
0020
0000
0000
0030
,
0010
0000
1000
0000
,
1000
1000
0000
0000
,
0001
0001
0000
0000
,
0100
0100
0000
0000
,
0010
0000
1000
0000
,
0010
0010
0000
0000
,
0100
0100
0000
0000
,
0001
0001
0000
0000
,
1000
0000
1000
0000
,
1001
0000
0000
0100
,
0100
0000
0000
0010
,
0010
0000
0000
1000
,
1000
0000
0001
0000
,
1001
0000
0000
0010
,
0010
0000
0000
0100
,
0100
0000
0000
0001
,
0001
0000
1000
0000
,
1001
0000
0000
0000
;

//---------------dance-single - ----------------
#NOTES:
     dance-single:
     :
     Easy:
     4:
     0.238,0.286,0.072,0.389,0.000:
0000
0000
0000
0000
,
0000
0000
0000
0000
,
0000
0000
0000
0000
,
0000
0000
0000
0000
,
0010
0002
0000
1003
,
0010
0200
0000
0301
,
0010
0200
0000
1300
,
0100
0020
0000
0031
,
0100
0020
0000
1030
,
2002
0000
0000
3003
,
0001
0001
1000
1000
,
0010
1000
0100
1000
,
0100
0100
0010
0010
,
0110
0000
1001
0000
,
1000
1000
0001
0001
,
0010
0001
0100
0001
,
1001
0000
0110
0000
,
1000
0100
0010
0001
,
2002
0000
0000
3003
,
0200
0000
0000
0000
,
0302
0000
0000
0000
,
0203
0300
2000
3000
,
0010
1000
0100
0002
,
0000
0000
0000
0003
,
0100
0010
0001
0200
,
0000
0000
0000
0300
,
0020
0000
0000
0000
,
2030
0000
0000
0000
,
3002
0000
0000
0000
,
2003
3000
0020
0030
,
0200
0000
0000
0000
,
0302
0000
0000
0000
,
2003
0000
0000
0000
,
3002
0003
2000
3000
,
0010
1000
0001
1000
,
0010
0000
0010
1000
,
0100
0000
0001
1000
,
2000
3000
0002
0003
,
0010
0001
1000
0001
,
0010
0000
0010
0001
,
0100
0000
1000
0001
,
0002
0003
2000
3000
,
0001
1000
0001
0100
,
0002
0003
0200
0300
,
0001
1000
0001
0010
,
0002
0003
0020
0030
,
0100
1000
0100
0010
,
0002
0003
2000
3000
,
0200
1300
0100
0010
,
0001
0100
1000
0100
,
2002
0000
0000
3003
;

//---------------dance-single - ----------------
#NOTES:
     dance-single:
     :
     Medium:
     6:
     0.330,0.363,0.031,0.358,0.000:
0000
0000
0000
0000
,
0000
0000
0000
0000
,
0000
0000
0000
0000
,
0000
0000
0000
0000
,
1001
1000
0010
0100
,
0001
0100
0010
1000
,
0010
1000
0100
0000
0001
0000
0100
0000
,
1000
0100
0010
0000
0001
0000
0100
0000
,
0010
1000
0100
0000
0100
1000
0010
0000
,
0220
0000
0000
0330
,
1000
0100
0010
0000
0001
0000
0100
0000
,
0001
0010
0100
0000
0001
0000
0100
0000
,
0001
0100
1000
0000
0100
0000
1000
0000
,
2002
0000
0000
3003
,
0001
1000
0100
0000
1000
0000
0010
0000
,
0100
0001
0010
0000
0001
0000
2000
3000
,
0100
0020
0031
0000
0010
0100
1000
0000
,
0010
1000
0100
0000
0001
0000
0100
0000
,
2000
0000
0000
0000
,
3002
0000
0000
0000
,
0203
0000
0000
0300
,
0020
0000
2030
3000
,
0001
0000
1000
0100
0000
0001
0200
0000
,
0000
0000
0000
0300
,
1000
0000
0001
0100
0000
1000
0200
0000
,
0000
0000
0000
0300
,
0010
0000
1000
0200
1300
0010
1000
0000
,
0001
0020
0130
2000
,
3010
0000
0100
0001
0010
0001
0100
0000
,
0020
0030
2000
3000
,
0010
0000
1000
0001
0010
0100
1000
0000
,
1000
0200
0310
0002
,
0013
0000
0100
1000
0100
0001
0100
0000
,
0020
0030
0200
0300
,
1000
0000
1000
0000
0010
0100
1000
0000
,
0100
0000
0100
0000
0001
0010
0100
0000
,
1000
0000
1000
0000
0001
0100
1000
0000
,
0200
0300
0002
0003
,
0001
0000
0001
0000
0100
0010
0001
0000
,
0010
0000
0010
0000
1000
0100
0010
0000
,
0001
0000
0001
0000
1000
0100
0001
0000
,
0200
0300
2000
3000
,
0020
0000
1030
0000
1000
0100
0000
0010
,
0002
0000
1003
0000
1000
0100
0000
0001
,
0200
0000
1300
0000
1000
0010
0000
0100
,
0002
0000
1003
0000
1000
0001
0000
0001
,
2000
0000
3001
0000
0001
0010
0000
0100
,
2000
0000
3001
0000
0001
0100
0000
0010
,
2000
0000
3001
0000
0001
0100
0000
1000
,
0200
0000
0301
0000
0001
1000
0000
1000
,
0002
0000
0000
0003
;

//---------------dance-single - ----------------
#NOTES:
     dance-single:
     :
     Hard:
     7:
     0.428,0.467,0.082,0.368,0.246:
0000
0000
0000
0000
,
0000
0000
0000
0000
,
0000
0000
0000
0000
,
0000
0000
0000
0000
,
1020
1030
2001
3001
,
0102
0103
0210
0310
,
1000
0010
0100
0000
0001
0000
1001
0000
,
0001
0010
0100
0000
1000
0000
1001
0000
,
0010
0001
0100
0000
0010
1000
0100
0000
,
0220
0000
0000
0330
,
0010
0001
1000
0001
0200
0000
0320
0000
,
1030
0100
0001
0100
2000
0000
3002
0000
,
1003
0100
0010
0001
0200
0000
0320
0000
,
0030
0000
1000
0000
0000
1000
0000
0000
0010
0000
0100
0000
0001
0000
0000
0000
,
0010
0001
0100
0001
0020
0000
0230
0000
,
1300
0010
1000
0001
0200
0000
0302
0000
,
1003
0100
0001
0000
0001
0100
1000
0000
,
1000
0010
0100
0001
0100
0010
1000
0001
,
0200
0000
0000
0000
,
0302
0000
0000
0000
,
2003
0000
0000
0000
,
3200
0000
0320
0000
,
0130
0000
0000
1000
0000
0000
0001
0000
0000
1000
0000
0000
0200
0000
0000
0000
,
0000
0000
0000
0300
,
0010
0000
0000
0001
0000
0000
1000
0000
0000
0001
0000
0000
0200
0000
0000
0000
,
0000
0000
0000
0300
,
0000
0000
0001
0000
0000
0010
0000
0000
1000
0000
0000
0010
0000
0000
0002
0000
,
0000
0000
1003
0000
0000
0010
0000
0000
0100
0000
0000
0001
0000
0000
2000
0000
,
0000
0000
3010
0000
0000
0100
0000
0000
0001
0000
0000
1000
0000
0000
0200
0000
,
0000
0000
1300
0000
0000
0010
0000
0000
0001
0000
0000
0010
0000
0000
2000
0000
,
0000
0000
3001
0000
0000
0010
0000
0000
0100
0000
0000
1000
0000
0000
0002
0000
,
0000
0000
1003
0000
0000
0100
0000
0000
0010
0000
0000
0001
0000
0000
0020
0000
,
0000
0000
0031
0000
0000
1000
0000
0000
0100
0000
0000
0001
0000
0000
0100
0000
,
0000
0000
1000
0000
0000
0001
0000
0000
0100
0000
0000
0001
0000
0000
1000
0000
,
0000
0000
0010
1000
0100
0001
0100
1000
,
0020
0000
1030
0100
0010
0001
0010
0100
,
2000
0000
3001
0100
0010
1000
0001
0100
,
0001
0000
0000
0000
0000
0000
1000
0001
1000
0000
0100
0000
0010
0000
0001
0000
,
0200
0000
0301
1000
0001
1000
0100
0001
,
0200
0000
1300
0010
1000
0001
0010
0001
,
0200
0000
0000
0000
0300
0000
0001
1000
0001
0000
1000
0000
0100
0000
1000
0000
,
0010
0000
0000
0000
0000
0000
0001
0100
0001
0000
1000
0000
0100
0000
1000
0000
,
0001
0000
0100
0000
0001
0100
0000
0001
0100
0000
0000
0010
0000
0000
1000
0000
,
0010
0000
0100
0000
0001
0010
0000
0001
0010
0000
0000
0001
0000
0000
1000
0000
,
0100
0000
1000
0000
0100
0010
0000
0100
0010
0000
0000
0001
0000
0000
0010
0000
,
0001
0000
0100
0000
0010
0100
0000
0010
0100
0000
0000
0001
0000
0000
1000
0000
,
0100
0000
1000
0000
0100
0010
0000
0001
0010
0000
0000
0100
0000
0000
1000
0000
,
0010
0000
0001
0000
0010
0100
0000
1000
0100
0000
0000
0010
0000
0000
0100
0000
,
0001
0000
1000
0000
0100
1000
0000
0001
0100
0000
0000
0001
0000
0000
0010
0000
,
0100
0000
1000
0000
0001
0100
0000
0001
1000
0000
0000
0100
0000
0000
0010
0000
,
2002
0000
0000
3003
;

//---------------dance-double - ----------------
#NOTES:
     dance-double:
     :
     Easy:
     4:
     0.229,0.311,0.092,0.256,0.000:
00000000
00000000
00000000
00000000
,
00000000
00000000
00000000
00000000
,
00000000
00000000
00000000
00000000
,
00000000
00000000
00000000
00000000
,
00011000
00000000
00001000
00000000
,
00010000
00000000
01000000
00000000
,
10000000
00000000
01000000
00000000
,
00010000
00000000
00001000
00000000
,
00000100
00000000
00001000
00000000
,
00022000
00000000
00000000
00033000
,
00001000
00000100
00001000
00000000
,
00010000
00001000
00000100
00000001
,
00000010
00000001
00000010
00000000
,
00000220
00000330
00002002
00003003
,
00000001
00000100
00000001
00000000
,
00000100
00001000
00010000
00001000
,
00010000
01000000
10000000
00000000
,
01000000
00010000
00001000
00000100
,
00002000
00000000
00000000
00003000
,
00020000
00000000
00000000
00030000
,
02000000
00000000
00000000
03000000
,
00020000
00030000
00002000
00003000
,
00010000
01000000
10000000
02000000
,
00000000
00000000
00000000
03000000
,
01000000
00010000
00001000
00000200
,
00000000
00000000
00000000
00000300
,
00000001
00000100
00000001
00000100
,
00002000
00000000
00000000
00003000
,
00010000
01000000
00010000
01000000
,
20000000
30000000
02000000
03000000
,
00010000
00001000
00010000
00001000
,
00020000
00000000
00000000
00030000
,
00001000
00000100
00001000
00000100
,
00000002
00000003
00000200
00000300
,
00000100
00001000
00010000
00000000
,
00010000
01000000
10000000
00100000
,
00010000
00001000
00010000
00000000
,
00002000
00003000
00020000
00030000
,
01000000
00010000
00001000
00000000
,
00001000
00000100
00000001
00000010
,
00001000
00010000
00001000
00000000
,
00020000
00030000
00002000
00003000
,
00011000
00000000
00010000
01000000
,
00010000
00001000
00000100
00001000
,
00011000
00000000
00010000
01000000
,
10000000
01000000
00010000
00000000
,
00011000
00000000
00001000
00000100
,
00001000
00010000
01000000
00010000
,
00011000
00000000
00001000
00000100
,
00000001
00000100
00001000
00000000
,
00022000
00000000
00000000
00033000
;

//---------------dance-double - ----------------
#NOTES:
     dance-double:
     :
     Medium:
     5:
     0.304,0.311,0.031,0.174,0.000:
00000000
00000000
00000000
00000000
,
00000000
00000000
00000000
00000000
,
00000000
00000000
00000000
00000000
,
00000000
00000000
00000000
00000000
,
00100000
10000000
01000000
00010000
,
00001000
00000100
00000001
00000010
,
00000001
00000100
00001000
00000000
00010000
00000000
00001000
00000000
,
00000100
00001000
00010000
00000000
01000000
00000000
10000000
00000000
,
00100000
10000000
01000000
00000000
00010000
00001000
00000100
00000000
,
00002000
00000000
00000000
00003000
,
00010000
00001000
00000100
00000001
,
00000010
00000001
00000100
00000000
00000001
00000100
00001000
00000000
,
00010000
00000000
00100000
00000000
00010000
00000000
00002000
00003000
,
00010000
01000000
10000000
00000000
00100000
10000000
01000000
00000000
,
00100000
10000000
01000000
00010000
,
00001000
00010000
00001000
00000000
00001000
00010000
00001000
00000000
,
00010000
00001000
00000100
00000001
,
00000010
00000001
00000100
00000000
00000001
00000100
00001000
00000000
,
00020000
00000000
00000000
00030000
,
02000000
00000000
00000000
03000000
,
00020000
00000000
00000000
00030000
,
00002000
00003000
00020000
00030000
,
00010000
00000000
00010000
01000000
00000000
01000000
20000000
00000000
,
00000000
00000000
00000000
30000000
,
01000000
00000000
01000000
00010000
00000000
00010000
00002000
00000000
,
00000000
00000000
00000000
00003000
,
00000100
00000000
00000001
00000000
00000010
00000001
00000010
00000000
,
00000001
00001000
00000100
00010000
,
00001000
00000000
00010000
00000000
01000000
10000000
01000000
00000000
,
20000000
30000000
02000000
03000000
,
01000000
00000000
10000000
00000000
00100000
10000000
00100000
00000000
,
10000000
00010000
01000000
00001000
,
00010000
00000000
00001000
00000000
00000100
00000001
00000100
00000000
,
00000002
00000003
00000200
00000300
,
00001000
00010000
00001000
00010000
,
01000000
10000000
00100000
00000000
00100000
10000000
01000000
00000000
,
10000000
01000000
00100000
00010000
,
10000000
00010000
10000000
00000000
01000000
00010000
00001000
00000000
,
00010000
00001000
00010000
00001000
,
00000100
00000001
00000010
00000000
00000010
00000001
00000100
00000000
,
00000001
00000010
00000100
00001000
,
00000220
00000000
00000000
00000330
,
00000010
00000000
00000001
00000000
00000100
00001000
00010000
00001000
,
00000100
00001000
00010000
00001000
,
00010000
00000000
01000000
00000000
10000000
01000000
00010000
01000000
,
10000000
01000000
10000000
10010000
,
00100000
00000000
10000000
00000000
01000000
00010000
00001000
00010000
,
01000000
00010000
00001000
00010000
,
00001000
00000000
00000100
00000000
00000001
00000100
00001000
00000100
,
00000001
00000100
00001000
00010000
,
00022000
00000000
00000000
00033000
;

//---------------dance-double - ----------------
#NOTES:
     dance-double:
     :
     Hard:
     7:
     0.427,0.441,0.051,0.317,0.066:
00000000
00000000
00000000
00000000
,
00000000
00000000
00000000
00000000
,
00000000
00000000
00000000
00000000
,
00000000
00000000
00000000
00000000
,
01000000
00000000
00010000
00000000
00001000
00010000
00001000
00000000
,
00000100
00000000
00001000
00000000
00010000
00001000
00010000
00000000
,
00001000
01000000
00010000
00000000
10000000
00000000
10010000
00000000
,
00100000
10000000
01000000
00000000
00010000
00000000
01100000
00000000
,
00100000
00001000
00010000
00000000
00001000
00000000
00011000
00000000
,
00020200
00000000
00000000
00030300
,
00010000
00000000
00001000
00000000
00000100
00000000
00001000
00000000
00020000
00000000
00000000
00030000
00002000
00000000
00000000
00003000
,
00000010
00000000
00001000
00000000
00010000
00000000
00001000
00000000
00000020
00000000
00000000
00000030
00000002
00000000
00000000
00000003
,
00000100
00000000
00001000
00000000
00010000
00000000
01000000
00000000
20000000
00000000
00000000
30000000
00200000
00000000
00000000
00300000
,
00000000
00000000
10000000
00000000
00000000
01000000
00000000
00000000
00100000
00000000
00001000
00000000
00010000
00000000
00000000
00000000
,
00001000
00000000
00000100
00000000
00000001
00000000
00000010
00000000
00002000
00000000
00000000
00003000
00000020
00000000
00000000
00000030
,
00000001
00000000
00000100
00000000
00001000
00000000
00010000
00000000
02000000
00000000
00000000
03000000
20000000
00000000
00000000
30000000
,
00100000
10000000
00100000
00000000
00100000
00010000
00001000
00000000
,
00001000
00010000
01000000
00010000
00001000
00000010
00001000
00010000
,
00002000
00000000
00000000
00000000
,
00023000
00000000
00000000
00000000
,
00030200
00000000
00000000
00000000
,
00002300
00000000
00000000
00000000
00003002
00000000
00000000
00000003
,
00000010
00000000
00000000
00000001
00000000
00000000
00000100
00000000
00000000
00000000
00001000
00000000
00020000
00000000
00000000
00000000
,
00000000
00000000
00000000
00030000
,
00010000
00000000
00000000
01000000
00000000
00000000
00010000
00000000
00000000
00000000
00001000
00000000
00020000
00000000
00000000
00000000
,
00000000
00000000
00000000
00030000
,
00000000
00000000
00010000
01000000
10000000
01000000
00100000
00010000
,
02000000
00000000
00000000
03000000
00010000
00000000
01000000
00000000
00100000
00000000
00010000
00000000
00001000
00000000
00000010
00000000
,
00000002
00000000
00000000
00000003
00001000
00000000
00000100
00000000
00000010
00000000
00000001
00000000
00001000
00000000
00000001
00000000
,
00000100
00000000
00000000
00000001
00000010
00000001
00000100
00001000
,
00020000
00000000
00000000
00030000
01000000
00000000
10000000
00000000
00100000
00000000
10000000
00000000
01000000
00000000
10000000
00000000
,
02000000
00000000
00000000
03000000
10000000
00000000
00100000
00000000
00010000
00000000
00100000
00000000
10000000
00000000
01000000
00000000
,
00020000
00000000
00000000
00030000
00000000
00000000
00001000
00000000
00000100
00000000
00000001
00000000
00000100
00000000
00001000
00000000
,
00010000
00000000
00001000
00000000
00000000
00000000
00010000
00001000
00010000
00000000
00001000
00000000
00010000
00000000
00001000
00000000
,
00010000
00000000
00001000
00000100
00000001
00000100
00000010
00001000
,
00000200
00000000
00000000
00000300
00001000
00000000
00000100
00000000
00000010
00000000
00001000
00000000
00010000
00000000
00100000
00000000
,
20000000
00000000
00000000
30000000
00010000
00000000
00100000
00000000
01000000
00000000
10000000
00000000
00010000
00000000
10000000
00000000
,
01000000
00000000
00000000
10000000
00100000
10000000
01000000
00010000
,
00002000
00000000
00000000
00003000
00000100
00000000
00000001
00000000
00000010
00000000
00000001
00000000
00000100
00000000
00000001
00000000
,
00000200
00000000
00000000
00000300
00000001
00000000
00000010
00000000
00001000
00000000
00000010
00000000
00000001
00000000
00000100
00000000
,
00002000
00000000
00000000
00003000
00000000
00000000
00010000
00000000
01000000
00000000
10000000
00000000
01000000
00000000
00010000
00000000
,
00001000
00000000
00010000
00000000
00000000
00000000
00001000
00010000
00001000
00000000
00010000
00000000
00001000
00000000
00001000
00000000
,
00010000
00000000
01000000
00000000
10000000
00000000
00100000
00000000
00010000
00000000
00000000
00001000
00000000
00000000
00000010
00000000
,
00000100
00000000
00001000
00000000
00000010
00000000
00000100
00000000
00001000
00000000
00000000
00010000
00000000
00000000
00001000
00000000
,
00000100
00000000
00001000
00000000
00010000
00000000
00100000
00000000
00010000
00000000
00000000
01000000
00000000
00000000
10000000
00000000
,
00100000
00000000
10000000
00000000
01000000
00000000
00010000
00000000
00001000
00000000
00000000
00010000
00000000
00000000
00010000
00000000
,
00001000
00000000
00000100
00000000
00000001
00000000
00000010
00000000
00001000
00000000
00000000
00010000
00000000
00000000
01000000
00000000
,
00100000
00000000
00010000
00000000
01000000
00000000
00100000
00000000
00010000
00000000
00000000
00001000
00000000
00000000
00010000
00000000
,
01000000
00000000
00010000
00000000
00001000
00000000
00000100
00000000
00001000
00000000
00000000
00000100
00000000
00000000
00000001
00000000
,
00000010
00000000
00000001
00000000
00000100
00000000
00001000
00000000
00010000
00000000
00000000
00001000
00000000
00000000
00010000
00000000
,
00022000
00000000
00000000
00033000
;

//---------------dance-double - ----------------
#NOTES:
     dance-double:
     :
     Challenge:
     9:
     0.522,0.597,0.143,0.307,0.343:
00000000
00000000
00000000
00000000
,
00000000
00000000
00000000
00000000
,
00000000
00000000
00000000
00000000
,
00000000
00000000
00000000
00000000
,
00000000
00000000
00000000
00000000
,
00000000
00000000
00000000
00000000
,
00000010
00001000
00010000
00000000
00001000
00010000
00100000
00000000
,
00010000
00001000
00010000
00000000
00001000
00010000
00000010
00000000
,
00001000
00000001
00000100
00000000
00000001
00000010
00001000
00000000
,
00000010
00000100
00010000
00000000
00001000
00010000
00100000
02000000
,
03001000
00010000
00100000
00010000
00001000
00010000
01000000
10000000
,
00100000
00010000
00000010
00010000
00001000
00000010
00000001
00000100
,
00001000
00000100
00000010
00010000
00001000
00100000
01000000
00010000
,
01000000
10000000
01000000
00010000
00001000
00000010
00000100
00001000
,
00001100
00000100
00010000
00001000
00010000
00100000
10000000
01000000
,
11000000
01000000
00100000
00001000
00010000
01000000
10000000
00010000
,
10010000
10000000
00100000
01000000
01100000
00100000
00010000
00001000
,
00001010
00000011
00000101
00001100
,
00012000
00000000
00000000
00020000
00000000
00000000
00000000
00000000
00000000
00000000
00000000
00000000
00000000
00000000
00003000
00000000
,
00001000
00000000
00000000
00002000
00000000
00000000
00000000
00000000
00000000
00000000
00000000
00000000
00000000
00000000
00030000
00000000
,
00100000
00000000
00000000
00200000
00000000
00000000
00000000
00000000
00000000
00000000
00000000
00000000
00000000
00000000
00003000
00000000
,
00010000
00000000
00000000
00020000
00000000
00000000
00300000
00000000
10000000
00000000
00000000
20000000
00000000
00000000
00030000
00000000
,
32000000
00000000
00000000
23000000
00000000
00000000
30200000
00000000
00000000
00320000
00000000
00000000
00002000
00000000
00000000
00000000
,
00000000
00000000
00000000
00000000
00000000
00000000
00000000
00000000
00000000
00000000
00000000
00000000
00000000
00003000
00000000
00000000
,
00032000
00000000
00000000
00003020
00000000
00000000
00002030
00000000
00000000
00023000
00000000
00000000
00002000
00000000
00000000
00000000
,
00000000
00000000
00000000
00000000
00000000
00000000
00000000
00000000
00000000
00000000
00000000
00033000
00000000
00000000
00000000
00000000
,
00021000
00000000
00031000
00000010
00000001
00000010
00000100
00001000
,
00000020
00000000
00000000
00000030
00001000
00000000
00000010
00000000
00000100
00000000
00001000
00000000
00010000
00000000
01000000
00000000
,
20000000
00000000
00000000
30000000
00010000
00000000
00100000
00000000
01000000
00000000
10000000
00000000
00010000
00000000
10000000
00100000
,
00000000
20000000
00000000
00000000
30000000
00000000
01000000
10000000
01000000
00000000
10000000
00000000
00100000
00000000
00010000
00000000
,
00002000
00000000
00000000
00003000
00000010
00000000
00000001
00000000
00000100
00000000
00000001
00000000
00000010
00000000
00000001
00000000
,
00000020
00000000
00000000
00000030
00000001
00000000
00000100
00000000
00001000
00000000
00000100
00000000
00000001
00000000
00000010
00000000
,
00002000
00000000
00000000
00003000
00000000
00000000
00010000
00001000
00010000
00000000
00100000
10000000
00000000
00100000
00000000
00010000
,
00000000
00002000
00000000
00000000
00003000
00000000
00010000
00001000
00010000
00000000
00000010
00000000
00010000
00000000
00001000
00000000
,
00011000
00010000
00100000
10000000
00100000
01000000
00010000
00100000
,
00010000
00100000
01000000
00010000
00001000
00000100
00000010
00001000
,
00000010
00000000
00001000
00000000
00000100
00000000
00000010
00000000
00001000
00000000
00000010
00000000
00000001
00000000
00000100
00000001
,
00000000
00000020
00000000
00000000
00000030
00000000
00000001
00001000
00000001
00000000
00000100
00000000
00001000
00000000
00010000
00000000
,
00001100
00000100
00000001
00000010
00001000
00010000
01000000
10000000
,
01010000
00010000
10000000
00100000
00010000
00001000
00000100
00000001
,
00001010
00000000
00000100
00000000
00000001
00000000
00001000
00000100
00001000
00000000
00000100
00010000
00000000
00001000
00000000
00010000
,
00000000
00000200
00000000
00000000
00000300
00000000
00010000
00001000
00000010
00000000
00001000
00000000
00010000
00000000
02000000
00000000
,
00000000
13000000
01000000
00000000
10000000
00100000
00000000
01000000
00010000
00000000
00100000
00001000
00000000
00010000
00001000
00000000
,
00000000
00001000
00010000
00000000
00000100
00001000
00000000
00000010
00010000
00000000
00000100
00001000
00000000
00000001
00000100
00000000
,
00000000
00000100
00000001
00000000
00000010
00000001
00000000
00001000
00000100
00000000
00010000
00001000
00000000
00010000
00000100
00000000
,
00000000
00000100
00010000
00000000
00001000
01000000
00000000
00010000
01000000
00000000
00100000
10000000
00000000
00010000
01000000
00000000
,
01000000
00010000
01000000
00000000
00100000
10000000
00000000
01000000
10000000
00000000
01000000
00010000
00000000
00001000
00010000
00000000
,
00010000
00001000
00010000
00000000
00000010
00001000
00000000
00000001
00000100
00000000
00001000
00010000
00000000
00000100
00010000
00000000
,
00010000
00001000
00010000
00000000
01000000
10000000
00000000
00100000
01000000
00000000
00100000
00010000
00000000
00001000
00010000
00000000
,
00010000
00001000
00010000
00000000
00100000
10000000
00000000
01000000
10000000
00000000
00100000
00010000
00000000
00001000
00020000
00000000
,
00000200
00000000
00000000
00030300
;

//---------------dance-single - ----------------
#NOTES:
     dance-single:
     :
     Challenge:
     8:
     0.475,0.470,0.164,0.113,0.322: // measure 1
0000
0000
0000
0000
,  // measure 2
0000
0000
0000
0000
,  // measure 3
0000
0000
0000
0000
,  // measure 4
0000
0000
0000
0000
,  // measure 5
0000
0000
0000
0000
,  // measure 6
0000
0000
0000
0000
,  // measure 7
0010
0011
0001
0101
,  // measure 8
0100
0110
0010
1010
,  // measure 9
1000
1100
0100
0110
,  // measure 10
0010
0000
0011
0000
0001
0000
0101
0010
,  // measure 11
0100
0010
1000
0100
0010
0100
1000
0010
,  // measure 12
0000
0100
0001
0010
0100
0010
0001
0100
,  // measure 13
0000
0010
1000
0100
0010
0100
1000
0010
,  // measure 14
0000
0000
0100
0000
0000
0001
0000
1000
0100
0010
0100
0000
0000
0000
0000
0000
,  // measure 15
1000
0010
0100
0001
0010
0100
1000
0010
,  // measure 16
0000
0100
0010
1000
0100
0010
0001
0100
,  // measure 17
0000
0010
1000
0010
0000
0100
0001
0100
,  // measure 18
0000
0010
1000
0010
1000
0100
0001
0100
,  // measure 19
2000
0000
0000
0010
0000
0000
0010
0000
0000
0010
0000
0000
0010
0000
0000
0000
,  // measure 20
0001
0000
0000
0001
0000
0000
0001
0000
0000
0001
0000
0000
0001
0000
0000
0000
,  // measure 21
0100
0000
0000
0100
0000
0000
0100
0000
0000
0100
0000
0000
0100
0000
0000
0000
,  // measure 22
0010
0000
0000
0010
0000
0000
0010
0000
0001
0000
0000
0001
3000
0000
0001
0000
,  // measure 23
2000
0000
0000
0100
3000
0000
0020
0000
0000
0001
0030
0000
0200
0000
0000
0000
,  // measure 24
0010
0000
0000
0010
0000
0000
0010
0000
0000
0010
0000
0000
0010
0000
0000
0000
,  // measure 25
0001
0000
0000
0001
0000
0000
0001
0000
0000
0001
0000
0000
0001
0000
0000
0000
,  // measure 26
1000
0000
0000
1000
0000
0000
1000
0000
0010
0000
0000
0010
0300
0000
0010
0000
,  // measure 27
1001
0000
1000
0100
1000
0010
1000
0001
,  // measure 28
1001
0000
0001
0010
0001
0100
0001
1000
,  // measure 29
1001
0000
0000
0000
1000
0000
0100
0000
0010
0000
0001
0000
0010
0000
0100
1000
,  // measure 30
0000
0001
0000
0000
0000
0000
0010
0100
1000
0000
0010
0000
0100
0000
0001
0000
,  // measure 31
1001
0000
1000
0010
0001
0010
1000
0001
,  // measure 32
1001
0000
1000
0100
0001
0100
1000
0001
,  // measure 33
1001
0000
0000
0000
0000
0000
0001
0100
0001
0000
1000
0010
0000
0100
0000
0001
,  // measure 34
0000
0100
0000
0000
0000
0000
0010
0100
0010
0000
1000
0000
0001
0000
0010
0000
,  // measure 35
0011
0001
1000
0100
1000
0001
0100
0001
,  // measure 36
0100
0010
1000
0010
1000
0100
0001
0100
,  // measure 37
0001
0000
0100
0000
1000
0000
0010
0000
0100
0000
0001
0000
1000
0000
0001
1000
,  // measure 38
0000
0100
0000
0000
0000
0000
0010
0001
0010
0000
0100
0000
1000
0000
0001
0000
,  // measure 39
1001
0000
0010
1000
0100
0001
0100
1000
,  // measure 40
0010
0100
0001
0010
0100
1000
0001
0100
,  // measure 41
0002
0000
2003
0000
,  // measure 42
3200
0320
0032
2003
,  // measure 43
3000
0000
0010
0000
0100
0001
0000
1000
0001
0000
1000
0001
0000
1000
0001
0000
,  // measure 44
0000
0000
0010
0000
0100
1000
0000
0001
1000
0000
0001
1000
0000
0001
1000
0000
,  // measure 45
0000
0000
0010
0000
0100
0001
0000
1000
0010
0000
1000
0010
0000
1000
0010
0000
,  // measure 46
0000
0000
0100
0000
0001
0100
0000
0001
0010
0000
0001
0010
0000
0001
0010
0000
,  // measure 47
0000
0000
0100
0000
1000
0001
0000
1000
0010
0000
1000
0010
0000
1000
0010
0000
,  // measure 48
0000
0000
0100
0000
0001
1000
0000
0100
0010
0000
0100
0010
0000
0100
0010
0000
,  // measure 49
0000
0000
0010
0000
0001
1000
0000
1000
0010
0000
1000
0010
0000
1000
0010
0000
,  // measure 50
0000
0000
0100
0000
0001
1000
0000
1000
0010
0000
1000
0010
0000
1000
0020
0000
,  // measure 51
0000
0000
0000
0000
,  // measure 52
0030
0000
0000
0000
;
