#TITLE:Gamelan de Couple;
#SUBTITLE:;
#ARTIST:TOMOSUKE;
#TITLETRANSLIT:;
#SUBTITLETRANSLIT:;
#ARTISTTRANSLIT:;
#CREDIT:;
#BANNER:Gamelan de Couple.png;
#BACKGROUND:Gamelan de Couple-bg.png;
#LYRICSPATH:;
#CDTITLE:./CDTITLES/MAMBO A GO GO.PNG;
#MUSIC:Gamelan de Couple.mp3;
#OFFSET:-1.662;
#SAMPLESTART:30.420;
#SAMPLELENGTH:15.000;
#SELECTABLE:YES;
#DISPLAYBPM:150.000;
#BPMS:0.000=150.000;
#STOPS:;
#BGCHANGES:;

//---------------dance-single - ----------------
#NOTES:
     dance-single:
     :
     Easy:
     3:
     0.263,0.299,0.060,0.000,0.000:
0000
0000
0000
0000
,
0000
0000
0000
0000
,
0001
0000
0000
0000
,
1000
0000
0000
0000
,
0010
0000
0100
0000
,
0010
0000
0100
0000
,
0001
0000
1000
0000
,
0010
0010
0010
1001
,
0001
0000
1000
0000
,
0001
0000
1000
1000
,
0010
0000
0100
0000
,
0010
0000
0100
0100
,
1000
0000
0001
0000
,
1000
0000
0001
0001
,
0010
0000
0100
0000
,
0010
0000
0100
0100
,
0110
0000
0110
0000
,
1000
1000
1000
1001
,
0001
0100
0001
0100
,
0001
0100
0001
0001
,
1000
0100
1000
0100
,
1000
0100
1000
1000
,
0010
0000
1000
0000
,
0001
1000
0001
0000
,
0010
0000
0001
0000
,
1000
0001
1000
0001
,
0010
0010
0010
0010
,
0001
0001
0001
0001
,
1000
1000
1000
1000
,
0100
0100
0100
0100
,
0001
1000
0001
1000
,
0001
1000
0001
1000
,
0010
0100
0010
0100
,
0010
0010
0010
0010
,
0010
0000
1000
0000
,
0001
0000
0001
0001
,
0010
0000
0001
0000
,
1000
0000
1000
1000
,
0100
0000
0010
0000
,
0001
0000
0100
0100
,
0010
0000
0100
0000
,
1000
0000
0010
0010
,
0000
0001
0100
0001
,
0100
0001
0100
0001
,
0001
1000
0100
1000
,
0100
1000
0100
1000
,
1000
0010
1000
0100
,
1000
0010
1000
0100
,
0100
0010
0001
0100
,
0001
0010
0001
0100
,
1001
0000
0000
0000
;

//---------------dance-single - ----------------
#NOTES:
     dance-single:
     :
     Medium:
     5:
     0.321,0.329,0.155,0.000,0.000:
0000
0000
0000
0000
,
0000
0000
0000
0000
,
0001
0000
0000
0000
,
1000
0000
0000
0000
,
0010
0010
0100
0100
,
0010
0010
0100
0100
,
0010
0010
0100
0100
,
0010
0010
0010
1001
,
0001
1000
0001
1000
,
0001
1000
0001
1100
,
1000
0001
1000
0001
,
1000
0001
1000
0101
,
0010
1000
0001
0100
,
0010
1000
0001
1100
,
0010
0001
1000
0100
,
0010
0001
1000
0101
,
1000
0001
1000
0001
,
1000
0100
0010
1001
,
0001
0100
0001
0100
,
0001
0100
1000
0101
,
1000
0100
1000
0100
,
1000
0100
0001
1100
,
0010
0001
1000
0000
,
0001
1000
0000
0100
0000
0000
0000
0000
,
0010
0001
0100
0000
,
0000
0010
0000
0010
0000
0010
0010
0000
,
0000
1000
0000
0100
0000
0010
0000
0001
,
0000
1000
0000
0100
0000
0010
0001
0000
,
0000
0001
0000
0100
0000
0010
0000
1000
,
0000
0001
0000
0100
0000
0010
1000
0000
,
0000
0001
0000
1000
0000
0001
0000
1000
,
0000
0010
0000
0100
0000
0001
0001
0000
,
0000
1000
0000
0001
0000
1000
0000
0001
,
0000
0010
0000
0100
0000
1000
1000
0000
,
0010
0000
0000
1000
0000
0000
0100
0000
,
0000
1000
0000
0000
0001
0000
0001
0000
,
0010
0000
0000
0001
0000
0000
0100
0000
,
0000
0001
0000
0000
1000
0000
1000
0000
,
0100
0000
0000
0010
0000
0000
0001
0000
,
0000
1000
0000
0000
0100
0000
0100
0000
,
0010
0000
0000
0100
0000
0000
1000
0000
,
0000
0001
0000
0000
0010
0000
0010
0000
,
0000
1001
0010
1000
,
0001
0100
0010
1000
,
0101
0010
0001
1000
,
0100
0010
0001
1000
,
1100
0010
1000
0100
,
0001
0010
1000
0100
,
1100
0010
0001
0100
,
1000
0010
0001
0100
,
0101
0000
0000
0000
;

//---------------dance-single - ----------------
#NOTES:
     dance-single:
     :
     Hard:
     8:
     0.518,0.538,0.060,0.000,0.478: // measure 1
0000
0000
0000
0000
,  // measure 2
0000
0000
0000
0000
,  // measure 3
0000
0000
0000
0000
,  // measure 4
0000
0000
0000
0000
,  // measure 5
0010
0000
0000
1000
0000
0000
0100
0000
1000
0000
0000
0001
0000
0000
0100
0000
,  // measure 6
0001
0000
0000
0010
0000
0000
0100
0000
1000
0000
0000
0010
0000
0000
0100
0000
,  // measure 7
0001
0000
0000
1000
0000
0000
0010
0000
0100
0000
0000
0001
0000
0000
0010
0000
,  // measure 8
0110
0000
0000
0100
1000
0000
0000
0000
0100
0000
0000
0000
1001
0000
0000
0000
,  // measure 9
0010
0000
1000
0100
0000
0000
1000
0000
0010
0000
0000
0001
0000
0000
0010
0000
,  // measure 10
0100
0000
1000
0001
0000
0000
0100
0000
0010
0000
1000
0000
0100
0000
0000
0000
,  // measure 11
0010
0000
0001
0100
0000
0000
0001
0000
0010
0000
0000
1000
0000
0000
0010
0000
,  // measure 12
0100
0000
0001
1000
0000
0000
0100
0000
0010
0000
0001
0000
0100
0000
0000
0000
,  // measure 13
0010
0000
0001
1000
0000
0000
1000
0000
0100
0000
0000
0001
0000
0000
1000
0000
,  // measure 14
0100
0000
0010
0001
0000
0000
0100
0000
1000
0000
0010
0000
0100
0000
0000
0000
,  // measure 15
0010
0000
1000
0001
0000
0000
0001
0000
0100
0000
0000
1000
0000
0000
0001
0000
,  // measure 16
0100
0000
0010
1000
0000
0000
0100
0000
0001
0000
0010
0000
0100
0000
0000
0000
,  // measure 17
0001
0000
0000
1000
0100
0000
0000
0100
0010
0000
0000
0010
0001
0000
1000
0000
,  // measure 18
0100
0000
0000
0100
0010
0000
0001
0000
0100
0000
0000
0000
1001
0000
0000
0000
,  // measure 19
0100
0000
0001
1000
0000
0000
0010
0000
0100
0000
1000
0100
0000
0000
0010
0000
,  // measure 20
0001
0000
1000
0100
0000
0000
1000
0000
0001
0000
0001
0000
0100
0000
0000
0000
,  // measure 21
0100
0000
1000
0001
0000
0000
0010
0000
0100
0000
0001
0100
0000
0000
0010
0000
,  // measure 22
1000
0000
0001
0100
0000
0000
0001
0000
1000
0000
1000
0000
0100
0000
0000
0000
,  // measure 23
0001
0000
0001
0100
0000
0000
0000
0000
0100
0000
0100
0010
0000
0000
0000
0000
,  // measure 24
0010
0000
0010
1000
0000
0000
1000
0000
0100
0000
0000
0000
0110
0000
0000
0000
,  // measure 25
1000
0000
1000
0100
0000
0000
0000
0000
0100
0000
0100
0010
0000
0000
0000
0000
,  // measure 26
0000
0001
0000
1000
0000
0100
0000
0010
0000
0001
0000
0100
0000
0000
0000
0000
,  // measure 27
1000
0001
0000
1000
0000
0000
0100
0000
1000
0001
0000
1000
0000
0000
0100
0000
,  // measure 28
1000
0001
0000
1000
0000
0000
0100
0000
1000
0001
0000
1000
0000
0000
0100
0000
,  // measure 29
0010
0001
0000
0010
0000
0000
0100
0000
0010
0001
0000
0010
0000
0000
0100
0000
,  // measure 30
0010
0001
0000
0010
0000
0000
0100
0000
0010
0001
0000
0010
0000
0000
0100
0000
,  // measure 31
1000
0001
0000
0100
0000
0000
0010
0000
1000
0001
0000
0100
0000
0000
0010
0000
,  // measure 32
0001
0100
0000
0001
0000
0000
1000
0000
0001
0100
0000
0001
0000
0000
1000
0000
,  // measure 33
0100
0010
0000
0001
0000
0000
1000
0000
0010
0100
0000
0001
0000
0000
1000
0000
,  // measure 34
0001
1000
0000
1000
0001
0000
0010
0000
0100
0000
1000
0000
0001
0000
0001
0000
,  // measure 35
0100
0000
0001
1000
0000
1000
0100
0000
,  // measure 36
0100
0010
0000
0010
0001
0000
0100
0000
,  // measure 37
1000
0000
0010
0100
0000
0100
0001
0000
,  // measure 38
0001
1000
0000
1000
0100
0000
0010
0000
,  // measure 39
0001
0000
1000
0100
0000
0001
0010
0000
,  // measure 40
0100
0001
0000
1000
0001
0000
0010
0000
,  // measure 41
0100
0000
1000
0010
0000
0001
0010
0000
,  // measure 42
0100
0000
1000
0000
0000
0000
0010
0000
0100
0010
0100
0000
0001
0000
0000
0000
,  // measure 43
0000
1000
1000
1000
,  // measure 44
1000
0000
0000
0000
1000
0000
0000
0000
1000
0000
0000
0000
1000
0000
0100
0010
,  // measure 45
0100
0001
0001
0001
,  // measure 46
0001
0000
0000
0000
0001
0000
0000
0000
0001
0000
0000
0000
0001
0000
1000
0100
,  // measure 47
1000
0010
0010
0100
,  // measure 48
0100
0000
0000
0000
0010
0000
0000
0000
0010
0000
0000
0000
0100
0000
0001
1000
,  // measure 49
0001
0000
0000
0000
1000
0000
0100
1000
0000
0000
0001
0000
0010
0000
0100
1000
,  // measure 50
0000
0000
0001
0000
0000
0100
0000
0010
0000
1000
0000
0001
0100
0000
0000
0000
,  // measure 51
1001
0000
0000
0000
;

//---------------dance-double - ----------------
#NOTES:
     dance-double:
     :
     Easy:
     3:
     0.289,0.329,0.203,0.000,0.000:
00000000
00000000
00000000
00000000
,
00000000
00000000
00000000
00000000
,
00000000
00000000
00000000
00000000
,
00000000
00000000
00000000
00000000
,
00000010
00000000
00000001
00000000
,
00000100
00000000
00001000
00000000
,
00010000
00000000
01000000
00000000
,
10000000
00100000
00010000
00011000
,
00100000
00100000
10000000
10000000
,
01000000
01000000
00010000
00001000
,
00000010
00000010
00000001
00000001
,
00000100
00000100
00001000
00010000
,
00100000
00100000
10000000
10000000
,
01000000
01000000
00010000
00011000
,
00000100
00000100
00000001
00000001
,
00000010
00000010
00000100
00001000
,
00010000
00000000
00001000
00000000
,
00010000
00000000
00000000
01100000
,
00010000
00001000
00010000
00001000
,
00010000
00001000
00010000
00011000
,
00001000
00010000
00001000
00010000
,
00001000
00010000
00001000
00011000
,
00100000
00000000
01000000
00000000
,
00001000
00000000
00010000
00000000
,
00000010
00000000
00000100
00000000
,
00001000
00010000
00001000
00010000
,
00000010
00000010
00000100
00000100
,
00001000
00001000
00010000
00010000
,
00100000
00100000
01000000
01000000
,
00010000
00010000
00001000
00001000
,
00000010
00000010
00000100
00000100
,
00001000
00001000
00010000
00010000
,
01000000
01000000
10000000
10000000
,
00010000
00010000
00010000
00010000
,
00100000
00000000
00000000
00001000
,
00000000
00000000
00000110
00000110
,
00001000
00000000
00000000
01000000
,
00000000
00000000
01100000
01100000
,
00010000
00000000
00000000
00001000
,
00000000
00000000
00001001
00001001
,
00001000
00000000
00000000
00010000
,
00000000
00000000
10010000
10010000
,
00000000
00010000
00001000
00010000
,
00001000
00010000
00001000
00010000
,
00011000
00001000
00010000
00001000
,
00010000
00001000
00010000
00001000
,
00011000
00000010
00000100
00000010
,
00000100
00000010
00000100
00000010
,
00000110
00001000
00010000
00001000
,
00010000
01000000
01000000
01000000
,
01100000
00000000
00000000
00000000
;

//---------------dance-double - ----------------
#NOTES:
     dance-double:
     :
     Medium:
     5:
     0.362,0.389,0.490,0.000,0.000:
00000000
00000000
00000000
00000000
,
00000000
00000000
00000000
00000000
,
00000000
00000000
00000000
00000000
,
00000000
00000000
00000000
00000000
,
00100000
00100000
10000000
10000000
,
01000000
01000000
00010000
00010000
,
00001000
00001000
00000100
00000100
,
00000001
00000010
00001000
00011000
,
00000010
00001010
00000001
00000101
,
00001000
00001100
00010000
00011000
,
00100000
00110000
10000000
11000000
,
00010000
01010000
00001000
00011000
,
00000010
00000110
00000001
00000011
,
00000100
00001100
00010000
00011000
,
01000000
11000000
00100000
01100000
,
00001000
00011000
00010000
00011000
,
00000000
00000010
00000000
00000100
,
00000000
00010000
00000000
01100000
,
00001000
00010000
00001000
00010000
,
00001000
00010000
00001000
00000110
,
00010000
00001000
00010000
00001000
,
00010000
00001000
00010000
01100000
,
00010000
00001000
00000010
00000000
,
00001000
00010000
01000000
00000000
,
00010000
00001000
00000100
00000000
,
00000000
00001001
00000000
00000110
00000000
00001000
00010000
00000000
,
00100000
10000000
01000000
00010000
,
00001000
00000010
00000001
00000101
,
00000010
00000001
00000100
00001000
,
00010000
00100000
10000000
11000000
,
00100000
00110000
00001000
00011000
,
00000010
00000001
00000100
00001100
,
00000010
00000110
00001000
00011000
,
00010000
00010000
01010000
01010000
,
00100000
00000000
00000000
10000000
00000000
00000000
01000000
00000000
,
00000000
00010000
00000000
00000000
00011000
00000000
00011000
00000000
,
00000010
00000000
00000000
00000001
00000000
00000000
00000100
00000000
,
00000000
00001000
00000000
00000000
00011000
00000000
00011000
00000000
,
00100000
00000000
00000000
00010000
00000000
00000000
00001000
00000000
,
00000000
00000100
00000000
00000000
00000001
00000000
00000101
00000000
,
00000010
00000000
00000000
00001000
00000000
00000000
00010000
00000000
,
00000000
01000000
00000000
00000000
10000000
00000000
11000000
00000000
,
00000000
00001000
00010000
00001000
,
00010000
00001000
00010000
00001000
,
00000110
00010000
00001000
00010000
,
00001000
00010000
00001000
00010000
,
01100000
10000000
01000000
00010000
,
00001000
00000010
00000001
00000001
,
00000101
00000001
00000100
00001000
,
00010000
00000000
00001000
00010000
00001000
00010000
00001000
00000000
,
00011000
00000000
00000000
00000000
;

//---------------dance-double - ----------------
#NOTES:
     dance-double:
     :
     Hard:
     9:
     0.579,0.598,0.502,0.000,0.371:
00000000
00000000
00000000
00000000
,
00000000
00000000
00000000
00000000
,
00000000
00000000
00000000
00000000
,
00000000
00000000
00000000
00000000
,
00000010
00000000
00000000
00001000
00000000
00000000
00000100
00000000
00010000
00000000
00000000
00001000
00000000
00000000
00010000
00000000
,
01000000
00000000
00000000
10000000
00000000
00000000
00010000
00000000
01000000
00000000
00000000
00001000
00000000
00000000
00010000
00000000
,
00000100
00000000
00000000
00000010
00000000
00000000
00000001
00000000
00000100
00000000
00000000
00000010
00000000
00000000
00000000
00010000
,
00001000
00000000
00000000
00001000
00010000
00000000
01000000
00000000
10000000
00000000
00000000
00000000
01100000
00000000
00000000
00000000
,
00100000
10000000
01000000
00100000
10000000
01000000
00100000
00010000
,
00010000
01000000
10000000
01000000
00100000
00000000
00011000
00000000
,
00000010
00001000
00000100
00000001
00000100
00000010
00001000
00000100
,
00000001
00000100
00000010
00000001
00000100
00000000
00011000
00000000
,
00010000
01000000
10000000
01000000
00100000
01000000
00010000
00100000
,
10000000
01000000
00100000
00010000
01000000
00000000
00011000
00000000
,
00001000
00000010
00000100
00001000
00000100
00000010
00001000
00000001
,
00000100
00000010
00000001
00001000
00000100
00000000
00011000
00000000
,
00011000
00000000
00000000
00010000
01000000
00000000
00000000
01000000
10000000
00000000
00000000
10000000
00100000
00000000
00000000
00100000
,
00001000
00001100
00000101
00011000
,
01000000
00010000
00100000
01000000
00010000
10000000
00100000
00010000
,
00100000
00000000
01000000
00000000
10000000
00000000
01000000
00000000
00100000
00000000
00000000
00010000
00001000
00000000
00000000
00000000
,
00000010
00000001
00000100
00001000
00000001
00000010
00000001
00001000
,
00000100
00000000
00000010
00000000
00001000
00000000
00000001
00000000
00000100
00000000
00000000
00001000
00010000
00000000
00000000
00000000
,
01100000
10010000
01010000
00000000
,
00011000
00010100
00000000
00000110
00000000
00000000
00000000
00000000
,
00001001
00001100
00010100
00000000
,
00000000
01001000
00000000
00110000
00000000
00101000
00011000
00000000
,
00001000
00010000
00000000
01000000
00000000
00000000
00000000
00000000
00010000
10000000
00000000
00100000
00000000
00000000
00000000
00000000
,
10000000
01000000
00000000
00000000
00010000
00000000
00000000
00000000
00010000
01000000
00000000
00001000
00000000
00000000
00000000
00000000
,
00001000
00010000
00000000
00000100
00000000
00000000
00000000
00000000
00000010
00001000
00000000
00000001
00000000
00000000
00000000
00000000
,
00000001
00000100
00000000
00000010
00000000
00000000
00000000
00000000
00000010
00010000
00000000
00001000
00000000
00000000
00000000
00000000
,
00001000
00010000
00000000
00000100
00000000
00000000
00000000
00000000
00000010
00000100
00000000
00001000
00000000
00000000
00010000
00000000
,
00001000
00010000
00000000
01000000
00000000
00000000
10000000
00000000
10000000
00100000
00000000
01000000
00000000
00000000
00010000
00000000
,
00010000
00001000
00000000
00000100
00000000
00000000
00000001
00000000
00001000
00000001
00000000
00000100
00000000
00000000
00001000
00000000
,
00010000
00001000
00000000
00001000
00010000
00000000
01000000
00000000
10000000
00000000
00100000
00000000
01000000
00000000
00000000
00000000
,
10010000
00000000
10000000
11000000
00000000
00010000
00011000
00000000
,
00000010
00000110
00000000
00000001
00000001
00000001
00000001
00000000
,
00001001
00000000
00000001
00000101
00000000
00001000
00011000
00000000
,
00100000
01100000
00000000
10000000
10000000
10000000
10000000
00000000
,
01100000
00000000
10000000
10010000
00000000
01000000
01010000
00000000
,
00001000
00011000
00000000
00000010
00000110
00000110
00000101
00000000
,
00000110
00000000
00000001
00001001
00000000
00000100
00001100
00000000
,
00010000
00000000
00011000
00000000
00000000
00000000
00100000
00000000
00010000
01000000
00010000
00000000
10000000
00000000
00000000
00000000
,
00000000
00000000
00000000
00000000
10000000
00000000
00100000
01000000
00000000
00000000
10000000
00000000
00100000
00000000
01000000
00010000
,
00000000
00000000
00001000
00000000
00010000
00000000
00000100
00001000
00000000
00000000
00000010
00000000
00000100
00000001
00000100
00000000
,
00000010
00000000
00000000
00000000
00000001
00000000
00000010
00000100
00000000
00000000
00000001
00000000
00000010
00000000
00000100
00001000
,
00000000
00000000
00010000
00000000
00001000
00000000
01000000
00010000
00000000
00000000
00100000
00000000
01000000
10000000
01000000
00000000
,
00100000
00000000
00000000
00000000
00010000
00000000
00001000
00010000
00000000
00000000
00000010
00000000
00000100
00000000
00000001
00000010
,
00000000
00000000
00000100
00000000
00010000
00000000
00001000
00010000
00000000
00000000
01000000
00000000
00100000
01000000
00100000
00000000
,
00010000
00000000
00000000
00000000
00001000
00000000
00010000
00000100
00000000
00000000
00001000
00000000
00000010
00000000
00000100
00000001
,
00000000
00000000
00000010
00000000
00000000
00000001
00000000
00000100
00000000
00001000
00000000
00010000
00001000
00000000
00000000
00000000
,
01001000
00000000
00000000
00000000
;

//---------------dance-single - ----------------
#NOTES:
     dance-single:
     :
     Beginner:
     1:
     0.200,0.239,0.036,0.000,0.000:
0000
0000
0000
0000
,
0000
0000
0000
0000
,
0001
0000
0000
0000
,
1000
0000
0000
0000
,
0010
0000
0100
0000
,
0010
0000
0100
0000
,
0001
0000
1000
0000
,
0010
0010
0010
0000
,
0001
0000
1000
0000
,
0001
0000
1000
0000
,
0010
0000
0100
0000
,
0010
0000
0100
0000
,
1000
0000
0001
0000
,
1000
0000
0001
0000
,
0010
0000
0100
0000
,
0010
0000
0100
0100
,
0100
0000
0110
0000
,
1000
1000
1000
0000
,
0001
0000
0001
0000
,
0001
0000
0001
0000
,
1000
0000
1000
0000
,
1000
0000
1000
0000
,
0010
0000
1000
0000
,
0001
0000
0001
0000
,
0010
0000
0001
0000
,
1000
0000
0001
0000
,
0010
0010
0010
0000
,
0001
0001
0001
0000
,
1000
1000
1000
0000
,
0100
0100
0100
0000
,
0001
0000
1000
0000
,
0001
0000
1000
0000
,
0010
0000
0100
0000
,
0010
0010
0010
0010
,
0010
0000
1000
0000
,
0001
0000
0001
0001
,
0001
0000
0100
0000
,
1000
0000
1000
1000
,
1000
0000
0010
0000
,
0001
0000
0100
0100
,
0100
0000
0100
0000
,
1000
0000
0010
0010
,
0000
0001
0001
0001
,
0001
0001
0000
0100
,
0100
0100
0100
0100
,
0100
0100
0000
1000
,
1000
1000
0000
0100
,
0000
0010
0000
0100
,
0000
0010
0000
0100
,
0000
0010
0000
1001
,
1001
0000
0000
0000
;

//---------------dance-single - ----------------
#NOTES:
     dance-single:
     :
     Challenge:
     9:
     0.673,0.719,0.216,0.000,0.599: // measure 1
0000
0000
0000
0000
,  // measure 2
0000
0000
0000
0000
,  // measure 3
0000
0000
0000
0000
,  // measure 4
0000
0000
0000
0000
,  // measure 5
1000
0000
0000
1000
0000
0000
0001
0000
0100
0000
0000
0100
0000
0000
0001
0000
,  // measure 6
0010
0000
0000
0010
0000
0000
0100
0000
1000
0000
0000
1000
0000
0000
0100
0000
,  // measure 7
0010
0000
0000
0010
0000
0000
0100
0000
0001
0000
0000
0001
0000
0000
0100
0000
,  // measure 8
1001
0000
0000
0000
0101
0000
0000
0000
1001
0000
1000
0001
1000
0100
0000
0000
,  // measure 9
0001
0000
0100
0001
0000
0001
0100
0000
0010
0000
1000
0001
0000
0001
1000
0000
,  // measure 10
0010
0000
0100
0001
0000
0001
1000
0000
0100
0000
1000
0001
1000
0000
0000
0000
,  // measure 11
1000
0000
0100
1000
0000
1000
0100
0000
0010
0000
0001
1000
0000
1000
0001
0000
,  // measure 12
0010
0000
0100
1000
0000
1000
0001
0000
0100
0000
0001
1000
0001
0000
0000
0000
,  // measure 13
1000
0000
0001
0010
0000
0010
0100
0000
1000
0000
0100
0010
0000
0010
0001
0000
,  // measure 14
0100
0000
0001
0010
0000
0010
1000
0000
0010
0000
0001
1000
0001
0000
0000
0000
,  // measure 15
1000
0000
0001
0100
0000
0100
0010
0000
1000
0000
0010
0100
0000
0100
0001
0000
,  // measure 16
0010
0000
0001
0100
0000
0100
1000
0000
0100
0000
0001
1000
0001
0000
0000
0000
,  // measure 17
0101
0000
0001
0100
0000
0000
1000
0100
0000
0000
0001
0100
0000
0000
0100
0000
,  // measure 18
1001
1001
1001
0110
,  // measure 19
1000
0000
0000
0001
0100
0000
0001
0000
1000
0000
0000
0001
0100
0000
0001
0000
,  // measure 20
1000
0000
0000
0010
0100
0000
0001
0000
0010
0000
0000
0100
1000
0000
0001
0000
,  // measure 21
0100
0000
0000
1000
0100
0000
0001
0000
1000
0000
0000
0100
0010
0000
0100
0000
,  // measure 22
1000
0000
0000
0001
0010
0000
0001
0000
0100
0000
0000
0010
1000
0000
0001
0000
,  // measure 23
0110
0000
0000
0001
0100
0000
0010
0000
0001
0000
0000
0010
1000
0000
0100
0000
,  // measure 24
0001
0000
0000
1000
0001
0000
0100
0000
1000
0000
0000
0001
0100
0000
0010
0000
,  // measure 25
1001
0000
0000
1000
0100
0000
0010
0000
0001
0000
0000
0100
1000
0000
0100
0000
,  // measure 26
0001
0110
0000
1100
0000
0110
1001
0000
,  // measure 27
0000
0001
0001
0001
0000
1000
1000
1000
,  // measure 28
0000
0000
0001
0000
0001
0000
0001
0000
0001
1000
0000
0001
0000
0000
0001
0000
,  // measure 29
0000
0010
0010
0010
0000
0100
0100
0100
,  // measure 30
0000
0000
0010
0000
0010
0000
0010
0000
0010
0100
0000
0010
0000
0000
0010
0000
,  // measure 31
0000
0001
0100
1000
0000
0001
0100
1000
,  // measure 32
0000
0000
0001
0000
0100
0000
1000
0000
0100
0001
0000
1000
0000
0000
1000
0000
,  // measure 33
0000
1000
0100
0001
0000
1000
0100
0001
,  // measure 34
1000
0001
1000
0001
1000
0001
1000
0001
1000
0001
0000
1000
0001
0000
1000
0001
,  // measure 35
1000
0001
0001
1000
0001
0001
1000
0001
,  // measure 36
0001
1000
0001
0001
1000
0000
1001
0000
,  // measure 37
0100
0001
0001
0100
0001
0001
0100
0001
,  // measure 38
0001
0100
0001
0001
0100
0000
1001
0000
,  // measure 39
0010
0000
1000
0010
1000
0000
0010
0000
,  // measure 40
1000
0000
0010
0000
1000
0000
0000
0000
1010
0000
0100
0001
0100
0001
0000
0000
,  // measure 41
1000
0000
0001
1000
0001
0000
1000
0000
,  // measure 42
0001
0000
1000
0000
0010
0000
0000
0000
1100
0000
0010
0001
0010
0001
0000
0000
,  // measure 43
0000
0000
0000
0000
1000
0000
0010
0100
0010
0100
0001
0000
1000
0000
0001
0100
,  // measure 44
0001
0100
0010
0000
1000
0000
0001
0100
0001
0100
0010
0000
1000
0100
0010
0001
,  // measure 45
1000
0000
0000
0000
0001
0000
1000
0010
1000
0010
0100
0000
0001
0000
0100
0010
,  // measure 46
0100
0010
1000
0000
0001
0000
0100
1000
0100
1000
0100
0000
0001
0010
0100
1000
,  // measure 47
0001
0000
0000
0000
0100
0000
0001
1000
0001
1000
0010
0000
0100
0000
0010
1000
,  // measure 48
0010
1000
0001
0000
0100
0000
1000
0100
1000
0100
0001
0000
0010
0100
1000
0001
,  // measure 49
0100
0000
0000
0000
0010
0000
1000
0001
0000
0100
0001
0000
1000
0000
0010
1000
,  // measure 50
0000
0001
0010
0000
0100
0000
1000
0000
0100
0000
0001
0000
0100
1000
0001
0100
,  // measure 51
0010
0000
0000
0000
;
