#TITLE:FURUHATA'S THEME;
#SUBTITLE:;
#ARTIST:C.J.Crew feat.Sedge;
#TITLETRANSLIT:;
#SUBTITLETRANSLIT:;
#ARTISTTRANSLIT:;
#CREDIT:;
#BANNER:FURUHATA'S THEME.png;
#BACKGROUND:FURUHATA'S THEME-bg.png;
#LYRICSPATH:;
#CDTITLE:Dance Dance Revolution 4th Mix.png;
#MUSIC:FURUHATA'S THEME.ogg;
#OFFSET:0.000;
#SAMPLESTART:7.058;
#SAMPLELENGTH:15.000;
#SELECTABLE:YES;
#DISPLAYBPM:170.000;
#BPMS:0.000=170.015;
#STOPS:;
#BGCHANGES:;

//---------------dance-single - ----------------
#NOTES:
     dance-single:
     :
     Easy:
     4:
     0.349,0.378,0.169,0.000,0.000:
0000
0000
0000
0000
,
0000
0000
0000
0000
,
0000
0000
0000
0000
,
0000
0000
0000
0000
,
0000
0000
0000
0000
,
1000
0010
0010
0010
,
0001
0010
0010
0010
,
0000
1000
0100
1000
,
0000
0001
0100
0001
,
0010
1000
1000
0100
,
0010
0001
0001
0100
,
0000
0010
1000
0100
,
0000
0010
0001
0100
,
0010
0010
0010
0010
,
0100
0100
0100
0100
,
0001
0001
1000
1000
,
0010
0010
0010
0010
,
1000
0000
1000
0000
,
0001
0000
0001
0000
,
0010
0010
0100
0100
,
1000
0001
0110
0110
,
1000
0100
0001
0100
,
0010
1000
0100
0100
,
0001
0000
1000
0000
,
0001
1000
0100
0100
,
0001
0100
1000
0100
,
0010
0001
0100
0100
,
1000
0000
0001
0000
,
1000
0001
0110
0110
,
1000
0001
1000
0100
,
0001
1000
0001
0100
,
1000
0001
1000
0100
,
0001
1000
0001
0100
,
1000
0000
1000
0000
,
0001
0000
0001
0000
,
1000
1000
0010
0010
,
0001
0100
0001
0100
,
0010
1001
0010
0010
,
1000
0100
0101
0101
,
1000
0100
0001
0100
,
0010
1000
0100
0100
,
0001
1000
0001
0101
,
0010
1000
0100
1100
,
0001
0001
0100
0100
,
0010
1000
0100
0100
,
1001
0100
0000
0100
,
0000
0100
0000
0100
,
0110
1000
0000
1000
,
0000
1000
0000
1000
,
0010
1000
0100
0001
,
0010
1000
0100
0001
,
0010
1000
0010
1000
,
0001
0100
0101
0101
,
1000
0010
0010
0010
,
0001
0010
0010
0010
,
0000
1000
0100
1000
,
0000
0001
0100
0001
,
0010
1000
1000
0100
,
0010
0001
0001
0100
,
0000
0010
1000
0100
,
0000
0010
0001
0100
,
1000
1000
0001
0001
,
0010
1000
0100
0001
,
0010
0010
1000
1000
,
0101
0101
0010
0100
,
1001
0000
0000
0000
;

//---------------dance-single - ----------------
#NOTES:
     dance-single:
     :
     Medium:
     7:
     0.474,0.515,0.233,0.000,0.148:
0000
0000
0000
0000
,
0000
0000
0000
0000
,
0000
0000
0000
0000
,
0000
0000
0000
0000
,
0000
0000
0000
0000
,
1000
0000
0000
0010
0000
0000
0100
0000
0001
0000
0000
0010
0000
0000
0100
0000
,
1000
0000
0000
0010
0000
0000
0100
0000
0001
0000
0000
0000
0000
0000
0000
0000
,
0100
0000
0100
0000
0000
0010
0100
0000
,
0001
0000
0001
0000
0000
1000
0001
0000
,
0001
0000
0000
0100
0000
0000
0010
0000
1000
0000
0000
0100
0000
0000
0010
0000
,
0001
0000
0000
0100
0000
0000
0010
0000
1000
0000
0000
0000
0000
0000
0000
0000
,
0010
0000
0010
0000
0000
0100
0010
0000
,
1000
0000
1000
0000
0000
0001
1000
0000
,
0010
0000
0000
0010
1000
0000
0000
1000
,
0100
0000
0000
0100
0010
0000
0000
0010
,
0001
0000
0000
0001
0100
0000
0000
0100
,
0010
0000
0000
0010
1000
0000
0000
1000
,
0010
0000
0000
0010
0000
0000
0010
0000
1000
0000
0000
1000
0000
0000
1000
0000
,
0100
0000
0000
0100
0000
0000
0100
0000
0010
0000
0000
0010
0000
0000
0010
0000
,
0001
0000
0000
0001
0000
0000
0001
0000
0100
0000
0000
0100
0000
0000
0100
0000
,
0010
0000
0000
0010
0000
0000
0010
0000
1000
0000
0000
1000
0000
0000
1000
0000
,
1000
0000
0000
0100
0000
0000
1000
0000
0001
0000
0000
0100
0000
0000
0010
0000
,
1000
0000
0000
0100
0000
0000
0010
0000
0001
0000
0000
0000
0000
0000
0000
0000
,
0001
0000
1000
0000
0000
0001
0100
0000
,
0001
0000
1000
0000
0000
0100
0010
0000
,
0001
0000
0000
0010
0000
0000
0001
0000
1000
0000
0000
0010
0000
0000
0100
0000
,
0001
0000
0000
0010
0000
0000
0100
0000
1000
0000
0000
0000
0000
0000
0000
0000
,
1000
0001
1000
0001
,
1010
0000
1010
0000
0010
1000
0100
0000
,
0001
0000
0001
0000
0001
1000
0100
0000
,
1000
0000
1000
0000
1000
0001
0100
0000
,
0001
0000
0001
0000
0001
1000
0100
0000
,
1000
0000
1000
0000
1000
0001
0100
0000
,
0010
0000
0010
1000
0100
0010
0001
0000
,
0010
0000
0010
0001
0100
0010
1000
0000
,
0001
0000
0001
0100
0010
1000
0100
0000
,
1000
0000
1000
0100
0010
0001
0100
0000
,
0010
0000
1001
0000
0010
1000
0100
0000
,
1000
0000
0101
0000
0001
1000
0100
0000
,
0010
0000
1001
0000
0010
0001
0100
0000
,
0001
0000
1100
0000
1000
0001
0100
0000
,
0010
0000
1000
0100
0010
0001
0100
0000
,
0010
0000
0001
0100
0010
1000
0100
0000
,
1000
0000
0001
0100
0010
1000
0100
0000
,
0001
0000
1000
0100
0010
0001
0100
0000
,
0101
1000
1100
0001
,
0101
1000
1100
0001
,
0110
1000
0110
0001
,
0110
1000
0110
0001
,
0001
0010
0100
1100
,
1000
0010
0100
0101
,
0001
1000
0100
1100
,
1000
0001
0100
0101
,
1000
0000
0000
0010
0000
0000
0100
0000
0001
0000
0000
0010
0000
0000
0100
0000
,
1000
0000
0000
0010
0000
0000
0100
0000
0001
0000
0000
0000
0000
0000
0000
0000
,
0100
0000
0100
0000
0000
0010
0100
0000
,
0001
0000
0001
0000
0000
1000
0001
0000
,
0001
0000
0000
0100
0000
0000
0010
0000
1000
0000
0000
0100
0000
0000
0010
0000
,
0001
0000
0000
0100
0000
0000
0010
0000
1000
0000
0000
0000
0000
0000
0000
0000
,
0010
0000
0010
0000
0000
0100
0010
0000
,
1000
0000
1000
0000
0000
0001
1000
0000
,
0010
1000
0000
0001
0100
0000
0010
1000
,
0100
1000
0100
1000
0100
1000
0100
0000
,
0010
0000
0000
1000
0000
0000
0100
0000
0010
0000
0000
0001
0000
0000
0100
0000
,
0101
0000
0101
0000
0000
1001
0000
0000
,
1100
0000
0000
0000
;

//---------------dance-single - ----------------
#NOTES:
     dance-single:
     :
     Hard:
     9:
     0.666,0.722,0.307,0.000,0.238:
0000
0000
0000
0000
,
0000
0000
0000
0000
,
0000
0000
0000
0000
,
0000
0000
0000
0000
,
0000
0000
0000
0000
,
0010
0000
0000
1000
0000
0000
1100
0000
1000
0000
0000
0001
0000
0000
0101
0000
,
0010
0000
0000
1000
0000
0000
0001
0000
0101
0000
0000
0000
0000
0000
0000
0000
,
0001
1000
0001
1000
0010
1000
0100
0000
,
1000
0001
1000
0001
0010
0001
0100
0000
,
1000
0000
0000
0100
0000
0000
0110
0000
1000
0000
0000
0001
0000
0000
0101
0000
,
1000
0000
0000
0001
0000
0000
0100
0000
0110
0000
0000
0000
0000
0000
0000
0000
,
0010
1000
0001
0010
0100
0010
0001
0000
,
0010
0001
1000
0010
0100
0010
1000
0000
,
0010
0000
0000
1000
0000
0000
0100
0000
0001
0000
0000
1000
0000
0000
0100
0000
,
0010
0000
0000
0001
0000
0000
0100
0000
1000
0000
0000
0001
0000
0000
0100
0000
,
0001
0000
0000
0100
0000
0000
0010
0000
0001
0000
0000
1000
0000
0000
0100
0000
,
1000
0000
0000
0010
0000
0000
0100
0000
1000
0000
0000
0100
0000
0000
0010
0000
,
1000
0000
0001
1000
0000
0001
1000
0000
0100
0000
0010
0100
0000
0010
0100
0000
,
1000
0000
0100
1000
0000
0100
1000
0000
0001
0000
0100
0001
0000
0100
0001
0000
,
0010
0000
0001
0010
0000
0001
0010
0000
0100
0000
1000
0100
0000
1000
0100
0000
,
1000
0000
0001
1000
0000
0001
1000
0000
0110
0000
0000
0000
0110
0000
0000
0000
,
1000
0010
1000
0100
1000
0010
1000
0100
,
0001
0010
0001
0100
0001
0010
0001
0100
,
1000
0001
1000
0100
1000
0001
1000
0100
,
0001
1000
0001
0100
0001
1000
0001
0100
,
0010
1000
0010
0001
0010
1000
0010
0001
,
0100
1000
0100
0001
0100
1000
0100
0001
,
1000
0010
1000
0001
1000
0100
1000
0010
,
1000
0001
1000
0000
0101
0000
1001
0000
,
0010
0000
0000
1000
0000
0000
0100
0000
1000
0000
0000
0000
0000
0000
0100
0000
,
0100
0000
1000
0000
0001
0000
0000
0000
0101
0000
0000
1001
0000
0000
0000
0000
,
0010
0000
0000
0001
0000
0000
0100
0000
0001
0000
0000
0000
0000
0000
0100
0000
,
0100
0000
0001
0000
1000
0000
0000
0100
0000
0000
0010
0000
0101
0000
0000
0000
,
0100
0000
0000
1000
0000
0000
0010
0000
1000
0000
0000
0000
0000
0000
0001
0000
,
0001
0000
1000
0000
0001
0000
0000
0000
0011
0000
0000
1001
0000
0000
0000
0000
,
0100
0000
0000
0001
0000
0000
0010
0000
0001
0000
0000
0000
0000
0000
1000
0000
,
1000
0000
0001
0000
1000
0000
0000
0000
0010
0000
0000
0100
0000
0000
1001
0000
,
0010
0100
0001
0100
0010
0100
0001
0100
,
0010
0001
1000
0001
0100
0001
1000
0001
,
0100
0010
1000
0010
0001
0010
1000
0010
,
0001
1000
0100
1000
0010
1000
0100
1000
,
0010
0100
0010
0100
1000
0100
0010
0100
,
1000
0010
1000
0010
0100
0010
1000
0010
,
0100
0001
1000
0001
0010
0001
1000
0001
,
0010
1000
0100
1000
0001
1000
0100
1000
,
0001
0010
1000
0010
0001
0010
1000
0010
,
0100
0001
1000
0001
0010
0001
1000
0001
,
0010
0100
0001
0100
0010
0100
0001
0100
,
0010
1000
0100
1000
0001
1000
0100
1000
,
0001
0010
0100
0010
0001
0010
0100
0010
,
0001
1000
0100
1000
0010
1000
0100
1000
,
0010
0001
1000
0001
0100
0001
1000
0001
,
0100
0010
0001
0010
1000
0010
1001
0000
,
0010
0000
0000
1000
0000
0000
1100
0000
1000
0000
0000
0001
0000
0000
0101
0000
,
0010
0000
0000
1000
0000
0000
0001
0000
0101
0000
0000
0000
0000
0000
0000
0000
,
0001
1000
0001
1000
0010
1000
0100
0000
,
1000
0001
1000
0001
0010
0001
0100
0000
,
1000
0000
0000
0100
0000
0000
0110
0000
1000
0000
0000
0001
0000
0000
0101
0000
,
1000
0000
0000
0001
0000
0000
0100
0000
0110
0000
0000
0000
0000
0000
0000
0000
,
0010
1000
0001
0010
0100
0010
0001
0000
,
0010
0001
1000
0010
0100
0010
1000
0000
,
1001
1001
0000
1100
1100
0000
0010
0001
,
0100
0001
1000
0100
0010
0001
0100
0000
,
0010
0000
0000
1000
0000
0000
1000
0000
0001
0000
0000
0100
0000
0000
0100
0000
,
1001
0000
0000
0000
1001
0000
0000
0000
0000
0000
0010
0000
0000
0000
1000
0001
,
1000
0000
0000
0000
;

//---------------dance-double - ----------------
#NOTES:
     dance-double:
     :
     Easy:
     4:
     0.346,0.309,0.021,0.000,0.000:
00000000
00000000
00000000
00000000
,
00000000
00000000
00000000
00000000
,
00000000
00000000
00000000
00000000
,
00000000
00000000
00000000
00000000
,
00000000
00000000
00000000
00000000
,
00001000
00010000
00001000
00010000
,
00100000
10000000
01000000
00000000
,
10000000
01000000
00010000
00001000
,
00000100
00000001
00001000
00000100
,
00010000
00001000
00010000
00001000
,
00000010
00000001
00000100
00000000
,
00000001
00000100
00001000
00010000
,
01000000
10000000
00010000
01000000
,
10000000
10000000
01000000
01000000
,
00010000
00010000
00001000
00001000
,
00000010
00000010
00000001
00000001
,
00000100
00000100
00001000
00001000
,
00010000
00010000
00100000
00100000
,
10000000
10000000
01000000
01000000
,
00010000
00010000
00001000
00001000
,
00000010
00000010
00001000
00010000
,
00001000
00010000
00001000
00010000
,
00100000
10000000
01000000
01000000
,
00010000
00010000
00001000
00001000
,
00000010
00000001
00000100
00000100
,
00010000
00001000
00010000
00001000
,
00000010
00000001
00000100
00000100
,
00001000
00001000
00010000
00010000
,
00100000
10000000
01000000
01000000
,
00100000
10000000
00100000
10000000
,
00001000
00010000
00001000
00010000
,
00000001
00000100
00000001
00000100
,
00010000
00000000
00001000
00000000
,
00000010
00000001
00000010
00000001
,
00010000
00001000
00010000
00001000
,
10000000
01000000
10000000
01000000
,
00001000
00000000
00010000
00000000
,
00000010
00001000
00000001
00000001
,
00000100
00001000
00010000
00010000
,
01000000
10000000
00100000
00100000
,
00010000
00001000
00000100
00000100
,
00000001
00000000
00000010
00000100
,
00010000
00000000
00100000
01000000
,
10000000
00000000
01000000
00100000
,
00001000
00000000
00000100
00000010
,
00000001
00000001
00000100
00000100
,
00001000
00001000
00010000
00010000
,
00100000
00010000
00001000
00000010
,
00001000
00010000
00100000
00100000
,
10000000
10000000
01000000
01000000
,
00010000
00010000
00001000
00001000
,
00000010
00001000
00010000
00100000
,
00010000
00001000
00000010
00000010
,
00001000
00010000
01000000
01000000
,
10000000
00010000
01000000
00000000
,
00001000
00010000
01000000
00010000
,
00001000
00000100
00001000
00010000
,
00010000
00001000
00000100
00000100
,
00000001
00001000
00000100
00000000
,
00010000
00001000
00000100
00001000
,
00010000
01000000
00010000
00001000
,
00000010
00000010
00001000
00001000
,
00010000
00010000
01000000
01000000
,
00010000
00000000
00001000
00000000
,
00011000
00011000
00000010
00000001
,
00000100
00000000
00000000
00000000
;

//---------------dance-double - ----------------
#NOTES:
     dance-double:
     :
     Medium:
     6:
     0.467,0.481,0.159,0.000,0.106:
00000000
00000000
00000000
00000000
,
00000000
00000000
00000000
00000000
,
00000000
00000000
00000000
00000000
,
00000000
00000000
00000000
00000000
,
00000000
00000000
00000000
00000000
,
10000000
00000000
00000000
00100000
00000000
00000000
01000000
00000000
00010000
00000000
00000000
01000000
00000000
00000000
00001000
00000000
,
00010000
00000000
00000000
00000010
00000000
00000000
00000100
00000000
00000001
00000000
00000000
00000000
00000000
00000000
00000000
00000000
,
00000001
00000000
00000100
00000000
00000010
00001000
00000100
00000000
,
00010000
00000000
01000000
00000000
10000000
00010000
01000000
00000000
,
10000000
00000000
00000000
01000000
00000000
00000000
00100000
00000000
00001000
00000000
00000000
00010000
00000000
00000000
01000000
00000000
,
00010000
00000000
00000000
00001000
00000000
00000000
00000100
00000000
00000001
00000000
00000000
00000000
00000000
00000000
00000000
00000000
,
00001000
00000000
00000100
00000000
00000010
00000001
00000100
00000000
,
00001000
00000000
00010000
00000000
01000000
10000000
00010000
00000000
,
10000000
00000000
01000000
00000000
,
00010000
00000000
00001000
00000100
,
00000001
00000000
00000100
00000000
,
00010000
00000000
00100000
00010000
,
01000000
10000000
01000000
10000000
,
01000000
00010000
00001000
00000010
,
00000100
00000001
00000100
00000001
,
00000100
00001000
00011000
00011000
,
10000000
00000000
00000000
00100000
00000000
00000000
01000000
00000000
00010000
00000000
00000000
01000000
00000000
00000000
00001000
00000000
,
00010000
00000000
00000000
00000010
00000000
00000000
00000100
00000000
00000001
00000000
00000000
00000000
00000000
00000000
00000000
00000000
,
00000001
00000000
00000100
00000000
00000010
00001000
00000100
00000000
,
00010000
00000000
01000000
00000000
10000000
00010000
01000000
00000000
,
10000000
00000000
00000000
01000000
00000000
00000000
00100000
00000000
00001000
00000000
00000000
00010000
00000000
00000000
01000000
00000000
,
00010000
00000000
00000000
00001000
00000000
00000000
00000100
00000000
00000001
00000000
00000000
00000000
00000000
00000000
00000000
00000000
,
00001000
00000000
00000100
00000000
00000010
00000001
00000100
00000000
,
00001000
00000000
00010000
00000000
01000000
10000000
01000000
00000000
,
00100000
00000000
00100000
00000000
10000000
00000000
10000000
01000000
,
00010000
00000000
00010000
00000000
00001000
00000000
00000100
00000001
,
00000010
00000000
00000010
00000000
00000001
00000000
00000001
00000100
,
00001000
00000000
00001000
00000000
00010000
00000000
01000000
10000000
,
00010000
00000000
00100000
00000000
00100000
00000000
00010000
10000000
,
01000000
00000000
00010000
00000000
00001000
00000000
00000100
00000010
,
00000001
00000000
00000010
00000000
00001000
00000000
00000100
00010000
,
00001000
00100000
00010000
01000000
,
00001000
00000000
00001010
00000000
00000001
00001000
00000100
00000000
,
00000100
00000000
00011000
00000000
00100000
00010000
01000000
00000000
,
10000000
00000000
11000000
00000000
00100000
00010000
01000000
00000000
,
00001000
00000000
00011000
00000000
00000010
00001000
00000100
00000000
,
00000010
00000000
00000010
00000000
00000001
00001000
00000100
00000010
,
00000100
00000000
00000100
00000000
00010000
00001000
00100000
01000000
,
10000000
00000000
10000000
00000000
00100000
01000000
00100000
10000000
,
01000000
00000000
01000000
00000000
00010000
00001000
00000100
00000001
,
00000010
00000101
00001000
00010000
,
00100000
10000000
01000000
00010000
01000000
10000000
01000000
00000000
,
00100000
11000000
00010000
00001000
,
00000010
00000001
00000100
00001000
00000100
00000001
00000100
00000000
,
00001000
00000101
00001000
00000101
,
00000001
00000100
00001000
00010000
01000000
10000000
00100000
00000000
,
00010000
11000000
00010000
11000000
,
10000000
01000000
00010000
00001000
00000100
00000001
00000010
00000000
,
00000001
00000000
00000000
00000010
00000000
00000000
00000100
00000000
00001000
00000000
00000000
00000100
00000000
00000000
00010000
00000000
,
00001000
00000000
00000000
00100000
00000000
00000000
01000000
00000000
10000000
00000000
00000000
00000000
00000000
00000000
00000000
00000000
,
10000000
00000000
01000000
00000000
00100000
00010000
01000000
00000000
,
00001000
00000000
00000100
00000000
00000001
00001000
00000100
00000000
,
00000001
00000000
00000000
00000100
00000000
00000000
00000010
00000000
00010000
00000000
00000000
00001000
00000000
00000000
00000100
00000000
,
00001000
00000000
00000000
00010000
00000000
00000000
01000000
00000000
10000000
00000000
00000000
00000000
00000000
00000000
00000000
00000000
,
00010000
00000000
01000000
00000000
00100000
10000000
01000000
00000000
,
00010000
00000000
00001000
00000000
00000100
00000001
00001000
00000000
,
00000001
00000100
00000000
00001000
00010000
00000000
10000000
00010000
,
01000000
00000000
01000000
00000000
01000000
00001000
00010000
00000000
,
00000010
00000000
00000000
00000001
00000000
00000000
00000100
00000000
00001000
00000000
00000000
00010000
00000000
00000000
01000000
00000000
,
11000000
00000000
11000000
00000000
00000000
00001000
00000000
00000000
,
11000000
00000000
00000000
00000000
;

//---------------dance-double - ----------------
#NOTES:
     dance-double:
     :
     Hard:
     9:
     0.660,0.619,0.391,0.000,0.185:
00000000
00000000
00000000
00000000
,
00000000
00000000
00000000
00000000
,
00000000
00000000
00000000
00000000
,
00000000
00000000
00000000
00000000
,
00000000
00000000
00000000
00000000
,
10010000
00000000
00000000
00100000
00000000
00000000
01000000
00000000
00010000
00000000
00000000
10000000
00000000
00000000
01000000
00000000
,
00010000
00000000
00000000
00001000
00000000
00000000
00000100
00000000
00000101
00000000
00000000
00000000
00000001
00000000
00000000
00000000
,
00000001
00000100
00001000
00000100
00001000
00010000
01000000
00000000
,
10000000
01000000
00010000
01000000
10000000
00010000
01000000
00000000
,
10010000
00000000
00000000
01000000
00000000
00000000
00100000
00000000
00001000
00000000
00000000
00010000
00000000
00000000
01000000
00000000
,
00010000
00000000
00000000
00001000
00000000
00000000
00000100
00000000
00000101
00000000
00000000
00000000
00000000
00000000
00000000
00000000
,
00000010
00000001
00000100
00001000
00010000
01000000
10000000
00000000
,
00100000
00010000
01000000
10000000
01000000
00010000
00100000
00000000
,
00100000
00000000
00000000
00010000
00000000
00000000
11000000
00000000
01000000
00000000
00000000
00010000
00000000
00000000
00011000
00000000
,
00001000
00000000
00000000
00000100
00000000
00000000
00000101
00000000
00000010
00000000
00000000
00001000
00000000
00000000
00001100
00000000
,
00000001
00000000
00000000
00000100
00000000
00000000
00001001
00000000
00000100
00000000
00000000
00001000
00000000
00000000
00011000
00000000
,
00100000
00000000
00000000
00010000
00000000
00000000
10010000
00000000
10000000
00000000
00000000
01000000
00000000
00000000
01010000
00000000
,
10000000
00000000
00000000
01000000
00000000
00000000
00010000
00000000
00001000
00000000
00000000
00010000
00000000
00000000
01000000
00000000
,
00010000
00000000
00000000
00001000
00000000
00000000
00000100
00000000
00000001
00000000
00000000
00001000
00000000
00000000
00000100
00000000
,
00010000
00000000
00000000
00001000
00000000
00000000
00100000
00000000
00010000
00000000
00000000
10000000
00000000
00000000
01000000
00000000
,
00010000
00000000
00000000
00001000
00000000
00000000
00000100
00000000
00001001
00000000
00000000
00000000
00000101
00000000
00000000
00000000
,
00001001
00000000
00000000
00000010
00000000
00000000
00000100
00000000
00001000
00000000
00000000
00000001
00000000
00000000
00000100
00000000
,
00001000
00000000
00000000
00010000
00000000
00000000
01000000
00000000
11000000
00000000
00000000
00000000
10000000
00000000
00000000
00000000
,
10000000
01000000
00010000
01000000
00010000
00001000
00000100
00000000
,
00000001
00000100
00001000
00000100
00000001
00001000
00000100
00000000
,
00001001
00000000
00000000
00000100
00000000
00000000
00000010
00000000
00010000
00000000
00000000
00001000
00000000
00000000
00000100
00000000
,
00001000
00000000
00000000
00010000
00000000
00000000
01000000
00000000
11000000
00000000
00000000
00000000
00000000
00000000
00000000
00000000
,
00100000
10000000
01000000
00010000
00001000
00000100
00000001
00000000
,
00000010
00000001
00000100
00001000
00000100
00000001
00000010
00000000
,
00000010
00000001
00000010
00000001
00000100
00000001
00000100
00000001
,
00000100
00001000
00000100
00001000
00010000
00001000
00010000
00001000
,
00010000
01000000
00010000
01000000
10000000
01000000
10000000
01000000
,
10000000
00100000
10000000
00100000
10010000
00000000
11000000
00000000
,
00100000
10000000
01000000
00010000
00001000
00010000
01000000
00010000
,
00001000
00000100
00000001
00000000
00001001
00000000
00000101
00000000
,
00000010
00000001
00000100
00001000
00010000
00001000
00000100
00001000
,
00010000
01000000
10000000
00000000
10010000
00000000
11000000
00000000
,
00100000
00010000
01000000
00001000
00010000
00000100
00000010
00000001
,
00000100
00000010
00001000
00000001
00000100
00001000
00010000
01000000
,
10000000
00100000
00010000
00001000
00000010
00000001
00000100
00001000
,
00000100
00000001
00000100
00001000
00010000
01000000
00100000
00010000
,
10000000
01000000
00010000
01000000
10000000
00100000
01000000
00010000
,
00100000
00001000
00010000
00001000
00000100
00000001
00000010
00000001
,
00000100
00001000
00000100
00000001
00000010
00000100
00001000
00000010
,
00010000
00001000
00100000
01000000
10000000
00010000
00100000
01000000
,
10000000
00100000
00010000
00001000
00000010
00000001
00000100
00001000
,
00000100
00000001
00000010
00001000
00010000
00100000
01000000
00010000
,
10000000
01000000
00010000
00001000
00010000
01000000
00010000
00001000
,
00000100
00000001
00000010
00000001
00000100
00001000
00000100
00000001
,
00000010
00001000
00010000
00100000
00010000
00100000
10000000
01000000
,
00100000
00010000
01000000
10000000
01000000
00010000
00100000
00001000
,
00010000
00000010
00000100
00000001
00001000
00000100
00010000
01000000
,
00100000
00010000
10000000
01000000
00010000
00001000
00011000
00000000
,
10010000
00000000
00000000
00100000
00000000
00000000
01000000
00000000
00010000
00000000
00000000
10000000
00000000
00000000
01000000
00000000
,
00010000
00000000
00000000
00001000
00000000
00000000
00000100
00000000
00000101
00000000
00000000
00000000
00000000
00000000
00000000
00000000
,
00000001
00000100
00001000
00000100
00001000
00010000
01000000
00000000
,
10000000
01000000
00010000
01000000
10000000
00010000
01000000
00000000
,
10010000
00000000
00000000
01000000
00000000
00000000
00100000
00000000
00001000
00000000
00000000
00010000
00000000
00000000
01000000
00000000
,
00010000
00000000
00000000
00001000
00000000
00000000
00000100
00000000
00000101
00000000
00000000
00000000
00000001
00000000
00000000
00000000
,
00000010
00000001
00000100
00001000
00010000
01000000
10000000
00000000
,
00100000
00010000
01000000
10000000
01000000
00010000
00100000
00000000
,
00011000
00011000
00000000
00001010
00001010
00000000
00000010
00010000
,
00001000
00010000
00001000
00000010
00000001
00000100
00001000
00000000
,
00010000
00000000
00000000
01000000
00000000
00000000
10000000
00000000
00100000
00000000
00000000
00010000
00000000
00000000
00001000
00000000
,
00001010
00000000
00001010
00000000
00000000
00011000
00000000
00000000
,
01001000
00000000
00000000
00000000
;

//---------------dance-couple - ----------------
#NOTES:
     dance-couple:
     :
     Challenge:
     8:
     0.683,1.000,1.000,0.000,0.159:
00000000
00000000
00000000
00000000
,
00000000
00000000
00000000
00000000
,
00000000
00000000
00000000
00000000
,
00000000
00000000
00000000
00000000
,
00000000
00000000
00000000
00000000
,
10000001
00100000
00100000
00100000
,
00010001
00100000
00100000
00100000
,
00000001
10000000
01000000
10000000
,
00000001
00010000
01000000
00010000
,
10001000
00000010
00000010
00000010
,
10000001
00000010
00000010
00000010
,
10000000
00001000
00000100
00001000
,
10000000
00000001
00000100
00000001
,
00100001
00000000
00000000
10000000
00000000
00000000
01000000
00000000
00010001
00000000
00000000
10000000
00000000
00000000
01000000
00000000
,
00100001
00000000
00000000
00010000
00000000
00000000
01000000
00000000
10000001
00000000
00000000
00010000
00000001
00000000
01000000
00000000
,
00010001
00000000
00000000
01000000
00000000
00000000
00100000
00000000
00010001
00000000
00000000
10000000
00000000
00000000
01000000
00000000
,
10000001
00000000
00000000
00100000
00000000
00000000
01000000
00000000
10000001
00000000
00000000
01000000
00000000
00000000
00100000
00000000
,
10000010
00000000
00000000
00001000
00000000
00000000
00000100
00000000
10000001
00000000
00000000
00001000
00000000
00000000
00000100
00000000
,
10000010
00000000
00000000
00000001
00000000
00000000
00000100
00000000
10001000
00000000
00000000
00000001
10000000
00000000
00000100
00000000
,
10000001
00000000
00000000
00000100
00000000
00000000
00000010
00000000
10000001
00000000
00000000
00001000
00000000
00000000
00000100
00000000
,
10001000
00000000
00000000
00000010
00000000
00000000
00000100
00000000
10001000
00000000
00000000
00000100
00000000
00000000
00000010
00000000
,
10000000
00000000
00000000
01000000
00000001
00000000
10000000
00000000
00010000
00000000
00000000
01000000
00000001
00000000
00100000
00000000
,
10000000
00000000
00000000
01000000
00000001
00000000
00100000
00000000
00010000
00000000
00000000
00000000
00000001
00000000
00000000
00000000
,
00010000
00000000
10000001
00000000
00000000
00010000
01000001
00000000
,
00010000
00000000
10000001
00000000
00000000
01000000
00100001
00000000
,
00001000
00000000
00000000
00000100
10000000
00000000
00001000
00000000
00000001
00000000
00000000
00000100
10000000
00000000
00000010
00000000
,
00001000
00000000
00000000
00000100
10000000
00000000
00000010
00000000
00000001
00000000
00000000
00000000
10000000
00000000
00000000
00000000
,
00000001
00000000
10001000
00000000
00000000
00000001
10000100
00000000
,
00000001
00000000
10001000
00000000
00000000
00000100
10000010
00000000
,
00010001
00000000
00010000
00000000
00010000
10000000
01000000
00000000
,
10000001
00000000
10000000
00000000
10000000
00010000
01000000
00000000
,
00010001
00000000
00010000
00000000
00010000
10000000
01000000
00000000
,
10000001
00000000
10000000
00000000
10000000
00010000
01000000
00000000
,
10000001
00000000
00000001
00000000
00000001
00001000
00000100
00000000
,
10001000
00000000
00001000
00000000
00001000
00000001
00000100
00000000
,
10000001
00000000
00000001
00000000
00000001
00001000
00000100
00000000
,
10001000
00000000
00001000
00000000
00001000
00000001
00000100
00000000
,
00100000
10010001
00100000
00100001
,
10000000
01000001
01010000
01010001
,
00000010
10001001
00000010
10000010
,
00001000
10000100
00000101
10000101
,
10000000
00000000
00010001
01000000
00100000
10000000
01000001
00000000
,
00010000
00000000
10000001
01000000
00100000
00010000
01000001
00000000
,
00000010
00000000
10001000
00000100
00000010
00000001
10000100
00000000
,
00000010
00000000
10000001
00000100
00000010
00001000
10000100
00000000
,
10000000
00100000
10000001
00100000
01000000
00100000
10000001
00100000
,
01000000
00010000
10000001
00010000
00100000
00010000
10000001
00010000
,
00100000
10000000
01000001
10000000
00010000
10000000
01000001
10000000
,
00010000
00100000
10000001
00100000
00010000
00100000
10000001
00000000
,
00001000
00000010
10001000
00000010
00000100
00000010
10001000
00000010
,
00000100
00000001
10001000
00000001
00000010
00000001
10001000
00000001
,
00000010
00001000
10000100
00001000
00000001
00001000
10000100
00001000
,
00000001
00000010
10001000
00000010
00000001
00000010
10001000
00000000
,
10000001
00000000
00000000
00100000
00000000
00000000
01000000
00000000
00010000
00000000
00000000
00100000
00000000
00000000
01000000
00000000
,
10000001
00000000
00000000
00100000
00000000
00000000
01000000
00000000
00010000
00000000
00000000
00000000
00000000
00000000
00000000
00000000
,
00010001
10000000
00010000
10000000
00100000
10000000
01000000
00000000
,
10000001
00010000
10000000
00010000
00100000
00010000
01000000
00000000
,
10001000
00000000
00000000
00000010
00000000
00000000
00000100
00000000
00000001
00000000
00000000
00000010
00000000
00000000
00000100
00000000
,
10001000
00000000
00000000
00000010
00000000
00000000
00000100
00000000
00000001
00000000
00000000
00000000
00000000
00000000
00000000
00000000
,
10000001
00001000
00000001
00001000
00000010
00001000
00000100
00000000
,
10001000
00000001
00001000
00000001
00000010
00000001
00000100
00000000
,
01010000
01010000
00000000
00001100
00001100
00000000
00100010
10000001
,
01000100
10000001
01000100
10000001
01000100
10000001
01000100
00000000
,
00100010
00000000
00000000
10001000
00000000
00000000
01000100
00000000
00100010
00000000
00000000
00010001
00000000
00000000
01000100
00000000
,
01010101
00000000
01010101
00000000
00000000
10011001
00000000
00000000
,
11001100
00000000
00000000
00000000
;

//---------------dance-solo - ----------------
#NOTES:
     dance-solo:
     :
     Easy:
     4:
     0.343,0.378,0.021,0.000,0.000:
000000
000000
000000
000000
,
000000
000000
000000
000000
,
000000
000000
000000
000000
,
000000
000000
000000
000000
,
000000
000000
000000
000000
,
000100
000100
001000
001000
,
000010
010000
000010
000000
,
001000
001000
000001
010000
,
001000
001000
100000
000010
,
000100
000001
100000
001000
,
010000
000010
010000
000000
,
000001
000010
001000
000001
,
100000
010000
001000
100000
,
000100
000100
100000
100000
,
001000
001000
010000
010000
,
000001
000001
000100
000100
,
001000
001000
000010
000010
,
100000
100000
000001
000001
,
010000
010000
001000
001000
,
100000
100000
000010
000010
,
001000
001000
001100
100001
,
000100
000100
001000
001000
,
000010
010000
000010
000000
,
001000
001000
000001
010000
,
001000
001000
100000
000010
,
000100
000001
100000
001000
,
010000
000010
010000
000000
,
000001
000010
001000
000001
,
100000
010000
001000
100000
,
000001
001000
000001
001000
,
000010
000100
000010
000100
,
001000
100000
001000
100000
,
000100
000000
010000
000000
,
100000
001000
100000
001000
,
010000
000100
010000
000100
,
001000
000001
001000
000001
,
000100
000000
000010
000000
,
000100
010000
000001
000001
,
000100
000010
100000
100000
,
000001
100000
001000
001000
,
100000
000001
001000
001000
,
010000
000000
000001
000001
,
000010
000000
100000
100000
,
000100
000000
001000
001000
,
100000
000000
000001
001000
,
000100
100000
000100
100000
,
000001
010000
000001
010000
,
000010
001000
000010
001000
,
000010
010000
000010
010000
,
000001
000001
001000
001000
,
100000
100000
001000
001000
,
010000
010000
000001
000001
,
000100
000100
000010
001000
,
000100
000100
001000
001000
,
000010
010000
000010
000000
,
001000
001000
000001
010000
,
001000
001000
100000
000010
,
000100
000001
100000
001000
,
010000
000010
010000
000000
,
000001
000010
001000
000001
,
100000
010000
001000
100000
,
000001
000001
100000
100000
,
001000
001000
010000
010000
,
000010
000000
100000
000000
,
001000
001000
000100
010000
,
100000
000000
000000
000000
;

//---------------dance-solo - ----------------
#NOTES:
     dance-solo:
     :
     Medium:
     6:
     0.465,0.481,0.148,0.000,0.106:
000000
000000
000000
000000
,
000000
000000
000000
000000
,
000000
000000
000000
000000
,
000000
000000
000000
000000
,
000000
000000
000000
000000
,
000100
000000
000000
010000
000000
000000
000001
000000
100000
000000
000000
000010
000000
000000
000100
000000
,
000001
000000
000000
010000
000000
000000
000010
000000
100000
000000
000000
000000
000000
000000
000000
000000
,
000010
000000
000010
000000
000010
100000
001000
000000
,
010000
000000
010000
000000
010000
000001
001000
000000
,
100000
000000
000000
000010
000000
000000
001000
000000
000001
000000
000000
010000
000000
000000
001000
000000
,
000100
000000
000000
000010
000000
000000
001000
000000
000001
000000
000000
000000
000000
000000
000000
000000
,
010000
000000
010000
000000
100000
000100
001000
000000
,
000010
000000
000010
000000
000001
000100
001000
000000
,
010000
000000
000001
000000
,
001000
000000
000100
010000
,
001000
000000
100000
000000
,
001000
000000
010000
001000
,
100000
000010
100000
000010
,
100000
001000
000100
000001
,
000001
010000
000001
010000
,
000100
000100
010000
001001
,
000100
000000
000000
010000
000000
000000
000001
000000
100000
000000
000000
000010
000000
000000
000100
000000
,
000001
000000
000000
010000
000000
000000
000010
000000
100000
000000
000000
000000
000000
000000
000000
000000
,
000010
000000
000010
000000
000010
100000
001000
000000
,
010000
000000
010000
000000
010000
000001
001000
000000
,
100000
000000
000000
000010
000000
000000
001000
000000
000001
000000
000000
010000
000000
000000
001000
000000
,
000100
000000
000000
000010
000000
000000
001000
000000
000001
000000
000000
000000
000000
000000
000000
000000
,
010000
000000
010000
000000
100000
000100
001000
000000
,
000010
000000
000010
000000
000001
000100
001000
000000
,
000001
000000
000001
000000
001000
000000
001000
000010
,
100000
000000
100000
000000
000001
000000
000100
000010
,
001000
000000
001000
000000
000001
000000
010000
000001
,
000100
000000
000100
000000
001000
000000
010000
000010
,
001000
000000
000001
000000
100000
000000
001000
010000
,
000001
000000
001000
000000
000100
000000
010000
001000
,
100000
000000
000001
000000
001000
000000
000010
100000
,
001000
010000
000001
100000
,
000100
000000
001010
000000
000001
100000
001000
000000
,
000001
000000
101000
000000
000001
100000
001000
000000
,
100000
000000
101000
000000
000100
000001
001000
000000
,
010000
000000
010001
000000
000010
010000
000100
000000
,
000010
000000
000010
000000
000100
000010
100000
001000
,
000100
000000
000100
000000
000001
010000
000100
001000
,
100000
000000
100000
000000
000100
001000
000100
100000
,
001000
000000
001000
000000
100000
000010
010000
001000
,
010000
010001
000100
100000
,
000100
100000
001000
010000
001000
100000
000001
000000
,
000100
101000
000001
010000
,
000100
000001
001000
000010
001000
000001
100000
000000
,
010000
001001
010000
001001
,
000100
010000
000010
100000
001000
100000
000100
000000
,
000010
101000
000010
101000
,
100000
001000
100000
010000
001000
000010
100000
000000
,
000100
000000
000000
010000
000000
000000
000001
000000
100000
000000
000000
000010
000000
000000
000100
000000
,
000001
000000
000000
010000
000000
000000
000010
000000
100000
000000
000000
000000
000000
000000
000000
000000
,
000010
000000
000010
000000
000010
100000
001000
000000
,
010000
000000
010000
000000
010000
000001
001000
000000
,
100000
000000
000000
000010
000000
000000
001000
000000
000001
000000
000000
010000
000000
000000
001000
000000
,
000100
000000
000000
000010
000000
000000
001000
000000
000001
000000
000000
000000
000000
000000
000000
000000
,
010000
000000
010000
000000
100000
000100
001000
000000
,
000010
000000
000010
000000
000001
000100
001000
000000
,
010000
010000
000000
000010
000010
000000
100000
000001
,
001000
000000
001000
000000
001000
010000
000001
000000
,
000010
000000
000000
010000
000000
000000
000001
000000
010000
000000
000000
000010
000000
000000
100000
000000
,
101000
000000
101000
000000
000000
010000
000000
000000
,
001001
000000
000000
000000
;

//---------------dance-solo - ----------------
#NOTES:
     dance-solo:
     :
     Hard:
     9:
     0.631,0.584,0.190,0.000,0.190:
000000
000000
000000
000000
,
000000
000000
000000
000000
,
000000
000000
000000
000000
,
000000
000000
000000
000000
,
000000
000000
000000
000000
,
010010
000000
000000
000100
000000
000000
100000
000000
000001
000000
000000
000100
000000
000000
001000
000000
,
100000
000000
000000
000001
000000
000000
010000
000000
000010
000000
000000
000000
001000
000000
000000
000000
,
000100
010000
000010
001000
000001
100000
001000
000000
,
000001
100000
001000
100000
000010
010000
001000
000000
,
001100
000000
000000
100000
000000
000000
001000
000000
010000
000000
000000
000010
000000
000000
001000
000000
,
000001
000000
000000
100000
000000
000000
000010
000000
001000
000000
000000
000000
000000
000000
000000
000000
,
000100
100000
001000
010000
000010
100000
001000
000000
,
000001
001000
000001
000100
001000
010000
000010
000000
,
000100
000000
000000
100000
000000
000000
001000
000000
010000
000000
000000
000010
000000
000000
100000
000000
,
000100
000000
000000
010000
000000
000001
000000
000000
010000
000000
000000
000001
000000
000000
001000
000000
,
000001
000000
000000
010000
000000
000000
000010
000000
000100
000000
000000
001000
000000
000000
100000
000000
,
000100
000000
000000
001000
000000
000000
000010
000000
000100
000000
000000
000001
000000
000000
100000
000000
,
000100
000000
000000
010000
000000
000000
000010
000000
100000
000000
000000
001000
000000
000000
010000
000000
,
000010
000000
000000
000100
000000
000000
000001
000000
010000
000000
000000
000001
000000
000000
000100
000000
,
001000
000000
000000
000010
000000
000000
010000
000000
001000
000000
000000
100000
000000
000000
000001
000000
,
000100
000000
000000
000010
000000
000000
010000
000000
100001
000000
000000
000000
010010
000000
000000
000000
,
010010
000000
000000
000100
000000
000000
100000
000000
000001
000000
000000
000100
000000
000000
001000
000000
,
100000
000000
000000
000001
000000
000000
010000
000000
000010
000000
000000
000000
001000
000000
000000
000000
,
000100
010000
000010
001000
000001
100000
001000
000000
,
000001
100000
001000
100000
000010
010000
001000
000000
,
001100
000000
000000
100000
000000
000000
001000
000000
010000
000000
000000
000010
000000
000000
001000
000000
,
000001
000000
000000
100000
000000
000000
000010
000000
001000
000000
000000
000000
000000
000000
000000
000000
,
000100
100000
001000
010000
000010
100000
001000
000000
,
000001
001000
000001
000100
001000
010000
000010
000000
,
010000
000100
010000
000100
100000
000100
100000
000100
,
100000
000001
100000
000001
001000
000001
001000
000001
,
001000
000010
001000
000010
100000
000010
100000
000010
,
100000
001000
100000
001000
100001
000000
010010
000000
,
000100
010000
000001
001000
000010
100000
001000
010000
,
000010
100000
000001
000000
001001
000000
100001
000000
,
001000
010000
000010
000100
001000
100000
000001
001000
,
000010
100000
010000
000000
100001
000000
101000
000000
,
000100
000010
000010
001000
000001
010000
010000
001000
,
100000
000100
001000
000010
010000
000001
001000
000001
,
000100
001000
001000
100000
000010
000010
000100
000001
,
100000
001000
001000
010000
000001
001000
000010
000100
,
000010
010000
010000
001000
100000
000001
001000
000100
,
010000
000010
100000
010000
001000
000001
000100
001000
,
100000
000001
001000
000010
000100
001000
010000
000010
,
000100
000001
000100
001000
100000
010000
100000
010000
,
001000
000001
000100
001000
100000
000001
001000
000010
,
000100
001000
100000
000001
001000
000010
010000
001000
,
100000
000001
000100
000100
001000
100000
010000
100000
,
000100
010000
000010
000100
000001
010000
100000
000100
,
000010
001000
010000
100000
001000
000010
000001
100000
,
001000
000100
000010
001000
010000
100000
000001
000100
,
001000
010000
000001
000100
001000
100000
000100
001000
,
000010
100000
001000
000100
000010
010000
000110
000000
,
010010
000000
000000
000100
000000
000000
100000
000000
000001
000000
000000
000100
000000
000000
001000
000000
,
100000
000000
000000
000001
000000
000000
010000
000000
000010
000000
000000
000000
001000
000000
000000
000000
,
000100
010000
000010
001000
000001
100000
001000
000000
,
000001
100000
001000
100000
000010
010000
001000
000000
,
001100
000000
000000
100000
000000
000000
001000
000000
010000
000000
000000
000010
000000
000000
001000
000000
,
000001
000000
000000
100000
000000
000000
000010
000000
001000
000000
000000
000000
000000
000000
000000
000000
,
000100
100000
001000
010000
000010
100000
001000
000000
,
000001
001000
000001
000100
001000
010000
000010
000000
,
010000
000100
000000
000010
000100
000000
000001
100000
,
001000
100000
001000
000100
000001
000100
001000
000000
,
100000
000000
000000
000100
000000
000000
001000
000000
000010
000000
000000
010000
000000
000000
001000
000000
,
100001
000000
010010
000000
000000
001000
000000
000000
,
100001
000000
000000
000000
;

//---------------dance-double - Edit by silenttype01----------------
#NOTES:
     dance-double:
     Edit by silenttype01:
     Challenge:
     9:
     0.724,0.722,0.359,0.148,0.412: // measure 1
00000000
00000000
00000000
00000000
,  // measure 2
00000000
00000000
00000000
00000000
,  // measure 3
00000000
00000000
00000000
00000000
,  // measure 4
00000000
00000000
00000000
00000000
,  // measure 5
00000000
00000000
00000000
00000000
,  // measure 6
10010000
00000000
00100000
00000000
01000000
00000000
00010000
00000000
10000000
00000000
01000000
00000000
,  // measure 7
00010000
00000000
00001000
00000000
00000100
00000000
00000202
00000000
00000000
00000303
00000000
00000000
,  // measure 8
00000001
00000100
00001000
00000100
00001000
00010000
01000000
00000000
,  // measure 9
10000000
01000000
00010000
01000000
10000000
00010000
01000000
00000000
,  // measure 10
10010000
00000000
01000000
00000000
00100000
00000000
00001000
00000000
00010000
00000000
01000000
00000000
,  // measure 11
00010000
00000000
00001000
00000000
00000100
00000000
00000202
00000000
00000000
00000303
00000000
00000000
,  // measure 12
00000010
00000001
00000100
00001000
00010000
02000000
10000000
10000000
,  // measure 13
10000000
00000000
10000000
00000000
10000000
00000000
10000000
00000000
10000000
00000000
13000000
00000000
10000000
01000000
10000000
01000000
,  // measure 14
10000000
00000000
00000000
00010000
00000000
00000000
11000000
00000000
01000000
00000000
00000000
00010000
00000000
00000000
00011000
00000000
,  // measure 15
00001000
00000000
00000000
00000100
00000000
00000000
00000101
00000000
00000010
00000000
00000000
00001000
00000000
00000000
00001100
00000000
,  // measure 16
00000001
00000000
00000000
00000100
00000000
00000000
00001001
00000000
00000100
00000000
00000000
00001000
00000000
00000000
00011000
00000000
,  // measure 17
00100000
00000000
00000000
00010000
00000000
00000000
10010000
00000000
10000000
00000000
00000000
01000000
00000000
00000000
01010000
00000000
,  // measure 18
10000000
00000000
00000000
01000000
00000000
00000000
00010000
00000000
00001000
00000000
00000000
00010000
00000000
00000000
01000000
00000000
,  // measure 19
00010000
00000000
00000000
00001000
00000000
00000000
00000100
00000000
00000001
00000000
00000000
00001000
00000000
00000000
00000100
00000000
,  // measure 20
00010000
00000000
00000000
00001000
00000000
00000000
00100000
00000000
00010000
00000000
00000000
10000000
00000000
00000000
01000000
00000000
,  // measure 21
00010000
00000000
00000000
00001000
00000000
00000000
00000100
00000001
00000100
00000000
00000001
00000100
00000001
00000000
00001000
00000000
,  // measure 22
00001001
00000000
00000010
00000000
00000100
00000000
00001000
00000000
00000001
00000000
00000100
00000000
,  // measure 23
00001000
00000000
00000000
00000000
00010000
00000000
00000000
00000000
01000000
00000000
00000000
00000000
22000000
00000000
00000000
00000000
00000000
00000000
00000000
00000000
00000000
33000000
00000000
00000000
,  // measure 24
00000000
01000000
00010000
01000000
00000000
00010000
00001000
00000100
,  // measure 25
00000000
00000001
00000100
00001000
00000000
00000100
00000001
00001000
,  // measure 26
00001001
00000000
00000100
00000000
00000010
00000000
00010000
00000000
00001000
00000000
00000100
00000000
,  // measure 27
00001000
00000000
00000000
00000000
00010000
00000000
00000000
00000000
01000000
00000000
00000000
00000000
11000000
00000000
00000000
10000000
00000000
00000000
00100000
00000000
00000000
10000000
00000000
00000000
,  // measure 28
01000000
00010000
00001000
00000100
00000001
00000010
00001000
00000010
,  // measure 29
00001010
00000000
00000000
00000000
00000011
00000000
00000000
00000000
00000010
00001000
00000010
00001000
00000010
00001000
00000010
00001000
,  // measure 30
00000010
00000001
00000010
00000001
00000100
00000001
00000100
00000001
,  // measure 31
00000100
00000000
00001000
00000000
00001000
00000000
00001000
00000000
00010000
00001000
00010000
00001000
00000000
00000000
00001000
00000000
,  // measure 32
00010000
01000000
00010000
01000000
10000000
01000000
10000000
01000000
,  // measure 33
10000000
00000000
00100000
00000000
20000000
00000000
00000000
00000000
30100000
00000000
00000000
10010000
00000000
00000000
11000000
00000000
,  // measure 34
00100000
10000000
01000000
00010000
00001000
00010000
01000000
00010000
,  // measure 35
00001000
00000000
00000100
00000000
00000100
00000000
00000100
00000000
00000001
00001000
00000001
00001000
00000000
00000000
00000100
00000000
,  // measure 36
00000010
00000001
00000100
00001000
00010000
00001000
00000100
00001000
,  // measure 37
00010000
00000000
01000000
00000000
20000000
00000000
00000000
00000000
30100000
00000000
00000000
10010000
00000000
00000000
11000000
00000000
,  // measure 38
00100000
00010000
01000000
00001000
00010000
00000100
00000010
00000001
,  // measure 39
00000100
00000010
00001000
00000001
00000100
00001000
00010000
01000000
,  // measure 40
10000000
00100000
00010000
00001000
00000010
00000001
00000100
00001000
,  // measure 41
00000100
00000001
00000100
00001000
00010000
01000000
00100000
00010000
,  // measure 42
10000000
01000000
00010000
01000000
10000000
00100000
01000000
00010000
,  // measure 43
00100000
00001000
00010000
00001000
00000100
00000001
00000010
00000001
,  // measure 44
00000100
00001000
00000100
00000001
00000010
00000100
00001000
00000010
,  // measure 45
00010000
00000000
00010000
00000000
00010000
00000000
00010000
00000000
00010000
00000000
00010000
00001000
00010000
00001000
00010000
00001000
,  // measure 46
00010000
00100000
00010000
00001000
00000010
00000001
00000100
00001000
,  // measure 47
00000100
00000000
00000001
00000000
00000010
00000000
00001000
00000000
00010000
00000000
00100000
00000000
01000000
00010000
01000000
00010000
,  // measure 48
01000000
00100000
00010000
00001000
00010000
01000000
00010000
00001000
,  // measure 49
00000100
00000001
00000010
00000001
00000100
00001000
00000100
00000001
,  // measure 50
00000010
00001000
00010000
00100000
00010000
00100000
10000000
01000000
,  // measure 51
00100000
00000000
00010000
00000000
01000000
00000000
10000000
00000000
01000000
00000000
00010000
00000000
00100000
00001000
00100000
00001000
,  // measure 52
00100000
00001000
00000100
00000001
00001000
00000100
00010000
01000000
,  // measure 53
00100000
00010000
10000000
01000000
00010000
00001000
00011000
00000000
,  // measure 54
10010000
00000000
00100000
00000000
01000000
00000000
00010000
00000000
10000000
00000000
01000000
00000000
,  // measure 55
00010000
00000000
00001000
00000000
00000100
00000000
00000202
00000000
00000000
00000303
00000000
00000000
,  // measure 56
00000001
00000100
00001000
00000100
00001000
00010000
01000000
10000000
,  // measure 57
01000000
00010000
01000000
10000000
00010000
01000000
00100000
10000000
,  // measure 58
10010000
00000000
01000000
00000000
00100000
00000000
00001000
00000000
00010000
00000000
01000000
00000000
,  // measure 59
00010000
00000000
00001000
00000000
00000100
00000000
00000202
00000000
00000000
00000303
00000000
00000000
,  // measure 60
00000010
00000001
00000100
00001000
00010000
02000000
10000000
10000000
,  // measure 61
10000000
00000000
10000000
00000000
10000000
00000000
10000000
00000000
10000000
00000000
13000000
00000000
10000000
01000000
10000000
00000000
,  // measure 62
10010000
10010000
00000000
00110000
00110000
00000000
00100000
00001000
,  // measure 63
00010000
00001000
00010000
00100000
10000000
01000000
00010000
00001000
,  // measure 64
00000100
00000000
00000001
00000000
00000010
00000000
00001000
00000000
00010000
00000000
00100000
00000000
,  // measure 65
00110000
00000000
00000000
00000000
00110000
00000000
00000000
00000000
00000000
00000000
00010010
00000000
00000000
00000000
00010000
00000010
,  // measure 66
00010000
00000000
00000000
00000000
;

//---------------dance-single - Copied from----------------
#NOTES:
     dance-single:
     Copied from:
     Challenge:
     9:
     0.666,0.722,0.307,0.000,0.312:
0000
0000
0000
0000
,
0000
0000
0000
0000
,
0000
0000
0000
0000
,
0000
0000
0000
0000
,
0000
0000
0000
0000
,
0010
0000
1000
0000
1100
0000
1000
0000
0001
0000
0101
0000
,
0010
0000
1000
0000
0001
0000
0101
0000
0000
0000
0000
0000
,
0001
1000
0001
1000
0010
1000
0100
0000
,
1000
0001
1000
0001
0010
0001
0100
0000
,
1000
0000
0100
0000
0110
0000
1000
0000
0001
0000
0101
0000
,
1000
0000
0001
0000
0100
0000
0110
0000
0000
0000
0000
0000
,
0010
1000
0001
0010
0100
0010
0001
0000
,
0010
0001
1000
0010
0100
0010
1000
0000
,
0010
0000
0000
1000
0000
0000
0100
0000
0001
0000
0000
1000
0000
0000
0100
0000
,
0010
0000
0000
0001
0000
0000
0100
0000
1000
0000
0000
0001
0000
0000
0100
0000
,
0001
0000
0000
0100
0000
0000
0010
0000
0001
0000
0000
1000
0000
0000
0100
0000
,
1000
0000
0000
0010
0000
0000
0100
0000
1000
0000
0000
0100
0000
0000
0010
0000
,
1000
0000
0001
1000
0000
0001
1000
0000
0100
0000
0010
0100
0000
0010
0100
0000
,
1000
0000
0100
1000
0000
0100
1000
0000
0001
0000
0100
0001
0000
0100
0001
0000
,
0010
0000
0001
0010
0000
0001
0010
0000
0100
0000
1000
0100
0000
1000
0100
0000
,
1000
0000
0001
1000
0000
0001
1000
0000
0110
0000
0000
0000
0110
0000
0000
0000
,
1000
0010
1000
0100
1000
0010
1000
0100
,
0001
0010
0001
0100
0001
0010
0001
0100
,
1000
0001
1000
0100
1000
0001
1000
0100
,
0001
1000
0001
0100
0001
1000
0001
0100
,
0010
1000
0010
0001
0010
1000
0010
0001
,
0100
1000
0100
0001
0100
1000
0100
0001
,
1000
0010
1000
0001
1000
0100
1000
0010
,
1000
0001
1000
0000
0101
0000
1001
0000
,
0010
0000
0000
1000
0000
0000
0100
0000
1000
0000
0000
0000
0000
0000
0100
0000
,
0100
0000
1000
0000
0001
0000
0000
0000
0101
0000
0000
1001
0000
0000
0000
0000
,
0010
0000
0000
0001
0000
0000
0100
0000
0001
0000
0000
0000
0000
0000
0100
0000
,
0100
0000
0001
0000
1000
0000
0000
0000
0100
0000
0000
0010
0000
0000
0101
0000
,
0100
0000
0000
1000
0000
0000
0010
0000
1000
0000
0000
0000
0000
0000
0001
0000
,
0001
0000
1000
0000
0001
0000
0000
0000
0011
0000
0000
1001
0000
0000
0000
0000
,
0100
0000
0000
0001
0000
0000
0010
0000
0001
0000
0000
0000
0000
0000
1000
0000
,
1000
0000
0001
0000
1000
0000
0000
0000
0010
0000
0000
0100
0000
0000
1001
0000
,
0010
0100
0001
0100
0010
0100
0001
0100
,
0010
0001
1000
0001
0100
0001
1000
0001
,
0100
0010
1000
0010
0001
0010
1000
0010
,
0001
1000
0100
1000
0010
1000
0100
1000
,
0010
0100
0010
0100
1000
0100
0010
0100
,
1000
0010
1000
0010
0100
0010
1000
0010
,
0100
0001
1000
0001
0010
0001
1000
0001
,
0010
1000
0100
1000
0001
1000
0100
1000
,
0001
0010
1000
0010
0001
0010
1000
0010
,
0100
0001
1000
0001
0010
0001
1000
0001
,
0010
0100
0001
0100
0010
0100
0001
0100
,
0010
1000
0100
1000
0001
1000
0100
1000
,
0001
0010
0100
0010
0001
0010
0100
0010
,
0001
1000
0100
1000
0010
1000
0100
1000
,
0010
0001
1000
0001
0100
0001
1000
0001
,
0100
0010
0001
0010
1000
0010
1001
0000
,
0010
0000
1000
0000
1100
0000
1000
0000
0001
0000
0101
0000
,
0010
0000
1000
0000
0001
0000
0101
0000
0000
0000
0000
0000
,
0001
1000
0001
1000
0010
1000
0100
0000
,
1000
0001
1000
0001
0010
0001
0100
0000
,
1000
0000
0100
0000
0110
0000
1000
0000
0001
0000
0101
0000
,
1000
0000
0001
0000
0100
0000
0110
0000
0000
0000
0000
0000
,
0010
1000
0001
0010
0100
0010
0001
0000
,
0010
0001
1000
0010
0100
0010
1000
0000
,
1001
1001
0000
1100
1100
0000
0010
0001
,
0100
0001
1000
0100
0010
0001
0100
0000
,
0010
0000
1000
0000
1000
0000
0001
0000
0100
0000
0100
0000
,
1001
0000
0000
0000
1001
0000
0000
0000
0000
0000
0010
0000
0000
0000
1000
0001
,
1000
0000
0000
0000
;

//---------------dance-double - ----------------
#NOTES:
     dance-double:
     :
     Edit:
     9:
     0.660,0.619,0.391,0.000,0.291:
00000000
00000000
00000000
00000000
,
00000000
00000000
00000000
00000000
,
00000000
00000000
00000000
00000000
,
00000000
00000000
00000000
00000000
,
00000000
00000000
00000000
00000000
,
10010000
00000000
00100000
00000000
01000000
00000000
00010000
00000000
10000000
00000000
01000000
00000000
,
00010000
00000000
00001000
00000000
00000100
00000000
00000101
00000000
00000000
00000001
00000000
00000000
,
00000001
00000100
00001000
00000100
00001000
00010000
01000000
00000000
,
10000000
01000000
00010000
01000000
10000000
00010000
01000000
00000000
,
10010000
00000000
01000000
00000000
00100000
00000000
00001000
00000000
00010000
00000000
01000000
00000000
,
00010000
00000000
00001000
00000000
00000100
00000000
00000101
00000000
00000000
00000000
00000000
00000000
,
00000010
00000001
00000100
00001000
00010000
01000000
10000000
00000000
,
00100000
00010000
01000000
10000000
01000000
00010000
00100000
00000000
,
00100000
00000000
00000000
00010000
00000000
00000000
11000000
00000000
01000000
00000000
00000000
00010000
00000000
00000000
00011000
00000000
,
00001000
00000000
00000000
00000100
00000000
00000000
00000101
00000000
00000010
00000000
00000000
00001000
00000000
00000000
00001100
00000000
,
00000001
00000000
00000000
00000100
00000000
00000000
00001001
00000000
00000100
00000000
00000000
00001000
00000000
00000000
00011000
00000000
,
00100000
00000000
00000000
00010000
00000000
00000000
10010000
00000000
10000000
00000000
00000000
01000000
00000000
00000000
01010000
00000000
,
10000000
00000000
00000000
01000000
00000000
00000000
00010000
00000000
00001000
00000000
00000000
00010000
00000000
00000000
01000000
00000000
,
00010000
00000000
00000000
00001000
00000000
00000000
00000100
00000000
00000001
00000000
00000000
00001000
00000000
00000000
00000100
00000000
,
00010000
00000000
00000000
00001000
00000000
00000000
00100000
00000000
00010000
00000000
00000000
10000000
00000000
00000000
01000000
00000000
,
00010000
00000000
00000000
00001000
00000000
00000000
00000100
00000000
00001001
00000000
00000000
00000000
00000101
00000000
00000000
00000000
,
00001001
00000000
00000010
00000000
00000100
00000000
00001000
00000000
00000001
00000000
00000100
00000000
,
00001000
00000000
00010000
00000000
01000000
00000000
11000000
00000000
00000000
10000000
00000000
00000000
,
10000000
01000000
00010000
01000000
00010000
00001000
00000100
00000000
,
00000001
00000100
00001000
00000100
00000001
00001000
00000100
00000000
,
00001001
00000000
00000100
00000000
00000010
00000000
00010000
00000000
00001000
00000000
00000100
00000000
,
00001000
00000000
00010000
00000000
01000000
00000000
11000000
00000000
00000000
00000000
00000000
00000000
,
00100000
10000000
01000000
00010000
00001000
00000100
00000001
00000000
,
00000010
00000001
00000100
00001000
00000100
00000001
00000010
00000000
,
00000010
00000001
00000010
00000001
00000100
00000001
00000100
00000001
,
00000100
00001000
00000100
00001000
00010000
00001000
00010000
00001000
,
00010000
01000000
00010000
01000000
10000000
01000000
10000000
01000000
,
10000000
00100000
10000000
00100000
10010000
00000000
11000000
00000000
,
00100000
10000000
01000000
00010000
00001000
00010000
01000000
00010000
,
00001000
00000100
00000001
00000000
00001001
00000000
00000101
00000000
,
00000010
00000001
00000100
00001000
00010000
00001000
00000100
00001000
,
00010000
01000000
10000000
00000000
10010000
00000000
11000000
00000000
,
00100000
00010000
01000000
00001000
00010000
00000100
00000010
00000001
,
00000100
00000010
00001000
00000001
00000100
00001000
00010000
01000000
,
10000000
00100000
00010000
00001000
00000010
00000001
00000100
00001000
,
00000100
00000001
00000100
00001000
00010000
01000000
00100000
00010000
,
10000000
01000000
00010000
01000000
10000000
00100000
01000000
00010000
,
00100000
00001000
00010000
00001000
00000100
00000001
00000010
00000001
,
00000100
00001000
00000100
00000001
00000010
00000100
00001000
00000010
,
00010000
00001000
00100000
01000000
10000000
00010000
00100000
01000000
,
10000000
00100000
00010000
00001000
00000010
00000001
00000100
00001000
,
00000100
00000001
00000010
00001000
00010000
00100000
01000000
00010000
,
10000000
01000000
00010000
00001000
00010000
01000000
00010000
00001000
,
00000100
00000001
00000010
00000001
00000100
00001000
00000100
00000001
,
00000010
00001000
00010000
00100000
00010000
00100000
10000000
01000000
,
00100000
00010000
01000000
10000000
01000000
00010000
00100000
00001000
,
00010000
00000010
00000100
00000001
00001000
00000100
00010000
01000000
,
00100000
00010000
10000000
01000000
00010000
00001000
00011000
00000000
,
10010000
00000000
00100000
00000000
01000000
00000000
00010000
00000000
10000000
00000000
01000000
00000000
,
00010000
00000000
00001000
00000000
00000100
00000000
00000101
00000000
00000000
00000000
00000000
00000000
,
00000001
00000100
00001000
00000100
00001000
00010000
01000000
00000000
,
10000000
01000000
00010000
01000000
10000000
00010000
01000000
00000000
,
10010000
00000000
01000000
00000000
00100000
00000000
00001000
00000000
00010000
00000000
01000000
00000000
,
00010000
00000000
00001000
00000000
00000100
00000000
00000101
00000000
00000000
00000001
00000000
00000000
,
00000010
00000001
00000100
00001000
00010000
01000000
10000000
00000000
,
00100000
00010000
01000000
10000000
01000000
00010000
00100000
00000000
,
00011000
00011000
00000000
00001010
00001010
00000000
00000010
00010000
,
00001000
00010000
00001000
00000010
00000001
00000100
00001000
00000000
,
00010000
00000000
01000000
00000000
10000000
00000000
00100000
00000000
00010000
00000000
00001000
00000000
,
00001010
00000000
00001010
00000000
00000000
00011000
00000000
00000000
,
01001000
00000000
00000000
00000000
;
