#TITLE:FREAKY;
#SUBTITLE:;
#ARTIST:DE LITE & MC YOUNG;
#TITLETRANSLIT:;
#SUBTITLETRANSLIT:;
#ARTISTTRANSLIT:;
#CREDIT:;
#BANNER:FREAKY.png;
#BACKGROUND:FREAKY-bg.png;
#LYRICSPATH:;
#CDTITLE:Dance Dance Revolution Solo.png;
#MUSIC:FREAKY.ogg;
#OFFSET:0.000;
#SAMPLESTART:1.499;
#SAMPLELENGTH:15.000;
#SELECTABLE:YES;
#DISPLAYBPM:160.000;
#BPMS:0.000=160.078;
#STOPS:;
#BGCHANGES:;

//---------------dance-single - ----------------
#NOTES:
     dance-single:
     :
     Easy:
     4:
     0.279,0.327,0.050,0.000,0.000:
0000
0000
0000
0000
,
0000
0000
0000
0000
,
0000
0000
0000
0000
,
0000
0000
0000
0000
,
0000
0000
0000
0000
,
0010
0001
0010
1000
,
0001
0100
1000
0100
,
0010
0001
0010
1000
,
0001
0001
0001
1000
,
0001
0010
0001
0000
,
1000
0000
0100
0000
,
1000
0010
1000
0000
,
0001
0000
0100
0000
,
0001
0000
0100
0000
,
0010
1000
0010
1000
,
0010
0000
1000
0000
,
0010
0001
0010
0001
,
0001
0000
0010
0001
0010
0000
0000
0000
,
1000
0000
0001
0000
,
1000
0000
0010
1000
0010
0000
0000
0000
,
0001
0000
1000
0000
,
0001
0010
0100
1000
,
0100
0001
0100
0010
,
0100
1000
0100
0001
,
0010
0010
0010
0010
,
0100
0010
1000
0010
,
0000
0001
0000
0010
,
1000
0000
1000
0000
,
0001
0010
1000
0010
,
0000
0010
0100
0001
,
0000
0010
0100
1000
,
0001
0000
0010
0000
,
1000
0010
0001
0010
,
0100
0010
0001
0000
,
1000
0000
0100
0000
,
0100
0010
1000
0000
,
0001
0000
0100
0000
,
0001
0000
1000
0000
,
0110
1000
0010
1000
,
0010
0000
0001
0000
,
0110
0001
0010
0001
,
0100
0000
0001
0100
0001
0000
0000
0000
,
1000
0000
0001
0000
,
0100
0000
1000
0100
1000
0000
0000
0000
,
0001
0000
1000
0000
,
0100
0010
0100
0001
,
0100
1000
0100
0010
,
0100
0001
0100
1000
,
0010
0001
0100
1000
,
0001
0010
1000
0010
,
0000
0100
0000
0010
,
0001
0000
1000
0000
,
1001
0100
0001
0100
,
0000
1000
0100
0010
,
0000
0100
0001
0100
,
1000
0000
0001
0000
,
0010
0010
0001
1000
,
0010
0100
0001
0100
,
0000
0010
0000
0010
,
1000
0010
1000
0001
,
0100
0001
0100
0001
,
0000
0000
1000
0010
,
1000
0000
0001
0010
,
0001
0000
0100
0000
,
0010
1000
0001
0100
,
0000
0110
0000
1001
;

//---------------dance-single - ----------------
#NOTES:
     dance-single:
     :
     Medium:
     5:
     0.357,0.425,0.179,0.000,0.000:
0000
0000
0000
0000
,
0000
0000
0000
0000
,
0000
0000
0000
0000
,
0000
0000
0000
0000
,
0000
0000
0000
0000
,
0010
0000
0001
0100
0100
0000
0000
0000
,
0001
1000
0100
0100
,
0010
0000
1000
0100
0100
0000
0000
0000
,
0011
0110
1100
0001
,
0100
0000
0010
0100
0010
0000
0000
0000
,
1000
0000
1000
0000
0001
1000
0001
0000
,
0100
0000
0010
0100
0010
0000
0000
0000
,
0001
0000
0001
0000
1000
0001
1000
0000
,
0010
1000
0100
0000
,
0010
0000
0100
0000
1000
0010
1000
0000
,
0010
1000
0100
0000
,
0010
0000
0001
0000
1000
0100
1000
0000
,
0001
0000
0010
0001
0010
0000
0000
0000
,
0001
1000
0100
1000
,
0100
0010
0010
0000
,
0001
1000
0100
1000
,
0000
1000
1000
0000
0010
0000
0100
0000
,
0000
0001
0001
0000
0010
0000
0100
0000
,
0000
1000
0001
0000
0000
0001
1000
0000
,
1001
0110
1001
0110
,
0001
0010
0100
0000
,
1000
0010
0100
0000
,
0100
0000
0000
0001
1000
0000
0000
0000
,
0100
1000
0001
0010
,
0000
0000
0001
0010
0001
0000
0100
0000
,
0000
0000
0010
1000
0010
0000
0100
0000
,
0000
0001
1000
0100
,
1000
0001
0100
0001
,
0010
0000
0100
0010
0100
0000
0000
0000
,
1000
0000
1000
0000
0001
1000
0001
0000
,
0010
0000
0100
0010
0100
0000
0000
0000
,
1000
0000
1000
0000
0001
1000
0001
0000
,
0010
0001
0100
0000
,
0010
0000
0100
0000
0001
0010
0001
0000
,
0010
0100
1000
0000
,
0010
0000
0100
0000
0001
0010
0001
0000
,
0100
0000
0010
0100
0001
0000
0000
0000
,
0010
0100
1000
1000
,
0100
0000
0010
0100
1000
0000
0000
0000
,
0010
0100
0001
0100
,
0000
0110
1000
0110
,
0001
1010
0001
0110
,
1000
0110
0001
0110
,
1000
1100
0001
0100
,
0001
0010
0100
0000
,
1000
0010
0100
0000
,
0100
0000
0000
0001
1000
0000
0000
0000
,
0010
0001
0010
0100
,
0000
0000
0001
0010
0001
0000
0100
0000
,
0000
0000
0010
1000
0010
0000
0100
0000
,
0000
0001
0000
1000
,
0001
0100
1000
0100
,
0000
0011
1000
0100
,
0000
0110
0001
0010
,
0010
0001
1000
0001
,
1000
0001
0100
0100
,
0000
0000
0000
0000
1000
0010
1000
0000
,
0001
0000
0000
0000
0100
0010
1000
0000
,
0001
0000
0100
0100
,
1010
0001
0110
0001
,
0000
1000
1000
0000
0000
0001
0100
0000
;

//---------------dance-single - ----------------
#NOTES:
     dance-single:
     :
     Hard:
     7:
     0.509,0.524,1.000,0.000,0.000:
0000
0000
0000
0000
,
0000
0000
0000
0000
,
0000
0000
0000
0000
,
0000
0000
0000
0000
,
0000
0000
0000
0000
,
0010
0010
0010
0000
1001
0000
0000
0000
,
0010
0010
0010
0000
1001
0000
0000
0000
,
0010
0010
0010
0000
1001
0000
0000
0000
,
1010
0000
1001
0000
0110
0100
0100
0000
,
1001
0000
0010
1000
0110
0000
0000
0000
,
1100
0000
0101
0000
0010
0100
1001
0000
,
1001
0000
0001
0010
0100
0000
0000
0000
,
1010
0000
0101
0000
1000
0010
0100
0000
,
1010
0011
0110
0000
,
1000
0000
0001
0000
0100
0010
1001
0000
,
0100
0001
1100
0000
,
0110
0000
1001
0000
0010
0010
1001
0000
,
1001
0000
0100
0100
1001
0000
0000
0000
,
0001
1000
0001
0010
,
1000
0001
1000
0000
,
0110
1001
0110
1100
,
0000
1000
0010
0000
1001
0000
0110
0000
,
0000
0001
0010
0000
1001
0000
0110
0000
,
0000
0001
0010
0000
0000
1000
0010
0000
,
1100
1001
0110
1001
,
0110
0001
0110
1000
,
0100
1010
1001
0100
,
0100
0000
0000
0101
1100
0000
0000
0000
,
0001
0110
1000
0101
,
0000
0000
0010
1000
0101
0000
0100
0000
,
0000
0000
0010
0001
1100
0000
0100
0000
,
0000
0110
1100
0101
,
0011
1000
0110
0001
,
1001
0000
0010
1000
0110
0000
0000
0000
,
1100
0000
0101
0000
0010
0100
1001
0000
,
1001
0000
0001
0010
0100
0000
0000
0000
,
1010
0000
0101
0000
1000
0010
0100
0000
,
1010
0011
0110
0000
,
1000
0000
0001
0000
0100
0010
1001
0000
,
0100
0001
1100
0000
,
0110
0000
1001
0000
0010
0010
1001
0000
,
1001
0000
0100
0100
1001
0000
0000
0000
,
0001
1000
0001
0010
,
1000
0001
1000
0000
,
0110
1001
0110
1100
,
0000
0000
0010
1000
0001
0000
0010
0001
,
0100
0000
0100
0100
1000
0000
1000
1000
,
0010
0000
0010
0010
0001
0000
0001
0001
,
0100
0000
0100
0100
1001
0000
0100
0000
,
0011
1001
1010
1001
,
0100
1010
1001
0100
,
0100
0000
0000
1001
0110
0000
0000
0000
,
0001
0110
1000
0101
,
0000
0000
1000
1000
0101
0000
1100
0000
,
0010
0000
0001
0001
1100
0000
0101
0000
,
1000
0110
1100
0101
,
0011
1000
0110
0001
,
0000
1010
0101
0011
,
1100
0110
0001
0010
,
1001
0100
1001
0110
,
1001
1100
0010
0010
,
0000
0000
0000
0000
1010
1000
0001
0000
,
0100
0000
0000
0000
0011
0001
1000
0000
,
0100
0000
0000
0000
0001
1000
0000
0000
,
0001
1000
0110
1001
,
0000
1001
1001
0000
0000
0100
0110
0000
;

//---------------dance-solo - ----------------
#NOTES:
     dance-solo:
     :
     Easy:
     5:
     0.290,0.393,0.090,0.000,0.000:
000000
000000
000000
000000
,
000000
000000
000000
000000
,
000000
000000
000000
000000
,
000000
000000
000000
000000
,
000000
000000
000000
000000
,
000010
000001
010000
100000
,
000010
001000
010000
001000
,
000010
000001
010000
100000
,
000001
000001
000001
100000
,
000010
000100
000001
000000
,
100000
000000
001000
000000
,
010000
000100
100000
000000
,
000001
000000
001000
000000
,
000010
000000
000010
000000
,
000100
010000
000100
100000
,
010000
000000
010000
000000
,
000100
000010
000100
000001
,
000001
000000
000010
000001
000010
000000
000000
000000
,
100000
000000
000001
000000
,
100000
000000
010000
100000
010000
000000
000000
000000
,
000001
000000
100000
000000
,
000010
000100
010000
100000
,
001000
000001
000010
000100
,
010000
100000
001000
000001
,
001100
100001
001100
100001
,
000010
000100
010000
000100
,
000000
000001
000000
000100
,
100000
000000
000000
000100
100000
000000
000000
000000
,
000010
000100
010000
000100
,
000000
000100
000010
000001
,
000000
000100
010000
100000
,
000001
000000
000100
000000
,
010000
000100
000010
000100
,
001000
000010
000001
000000
,
100000
000000
001000
000000
,
001000
010000
100000
000000
,
000001
000000
001000
000000
,
000010
000000
010000
000000
,
010100
100000
000100
100000
,
010000
000000
000010
000000
,
000110
000001
000100
000001
,
001000
000000
000001
001000
000001
000000
000000
000000
,
100000
000000
000001
000000
,
001000
000000
100000
001000
100000
000000
000000
000000
,
000001
000000
100000
000000
,
010000
000100
000010
000001
,
001000
100000
010000
000100
,
000010
000001
001000
100000
,
000100
000001
001000
100000
,
000010
000100
010000
000100
,
000000
001000
000000
000100
,
000010
000000
000000
010000
000001
000000
000000
000000
,
010001
001000
000001
001000
,
000000
100000
010000
000100
,
000000
000010
000001
001000
,
010000
000000
000010
000000
,
000100
000100
000001
100000
,
010000
001000
000010
001000
,
000000
000100
000000
000100
,
110000
000100
100000
000100
,
000011
000100
000001
000100
,
000000
000000
010000
010000
,
100000
000000
000010
000010
,
000001
000000
001000
000000
,
000100
000010
010000
001000
,
000000
000100
010000
000000
000000
100000
000010
000000
;

//---------------dance-solo - ----------------
#NOTES:
     dance-solo:
     :
     Medium:
     6:
     0.360,0.425,0.199,0.000,0.000:
000000
000000
000000
000000
,
000000
000000
000000
000000
,
000000
000000
000000
000000
,
000000
000000
000000
000000
,
000000
000000
000000
000000
,
000100
000000
000001
001000
001000
000000
000000
000000
,
000010
010000
001000
001000
,
000100
000000
100000
001000
001000
000000
000000
000000
,
000110
001100
010100
000010
,
001000
000000
000100
001000
000100
000000
000000
000000
,
100000
000000
100000
000000
000001
100000
000001
000000
,
001000
000000
000100
001000
000100
000000
000000
000000
,
000001
000000
000001
000000
100000
000001
100000
000000
,
000010
000001
001000
000000
,
000100
000000
000010
000000
000001
000010
000001
000000
,
010000
100000
001000
000000
,
000100
000000
010000
000000
100000
010000
100000
000000
,
000010
000000
000100
000010
000100
000000
000000
000000
,
000010
010000
001000
100000
,
010000
000100
000100
000000
,
010000
000010
001000
000001
,
000000
100000
100000
000000
010000
000000
000010
000000
,
000000
000001
000001
000000
000010
000000
010000
000000
,
000000
000001
100000
000000
000000
000001
100000
000000
,
100001
001010
100001
011000
,
000001
000010
100000
000000
,
100000
010000
000001
000000
,
001000
000000
000000
000010
010000
000000
000000
000000
,
000100
000001
000100
100000
,
000000
000000
000010
000010
000001
000000
001000
000000
,
000000
000000
010000
010000
100000
000000
001000
000000
,
000000
000010
010000
001000
,
000011
001000
110000
001000
,
000100
000000
001000
000100
001000
000000
000000
000000
,
100000
000000
100000
000000
000001
010000
000001
000000
,
000100
000000
001000
000100
001000
000000
000000
000000
,
000001
000000
000001
000000
100000
000010
100000
000000
,
000010
000001
001000
000000
,
000100
000000
000010
000000
000001
000010
000001
000000
,
010000
100000
001000
000000
,
000100
000000
010000
000000
100000
010000
100000
000000
,
000010
000000
000100
000010
000001
000000
000000
000000
,
000010
010000
001000
100000
,
010000
000000
000100
010000
100000
000000
000000
000000
,
010000
000010
001000
000001
,
000000
010100
100000
000110
,
000001
010100
000001
000110
,
100000
010100
000010
000110
,
010000
010100
001000
001000
,
000001
000010
100000
000000
,
100000
010000
000001
000000
,
001000
000000
000000
000010
010000
000000
000000
000000
,
000100
000001
000100
100000
,
000000
000000
000010
000010
000001
000000
001000
000000
,
000000
000000
010000
010000
100000
000000
001000
000000
,
000000
000001
000000
100000
,
000010
001000
010000
001000
,
000000
010100
100000
000100
,
000000
000110
000001
000100
,
000100
100000
000010
010000
,
000001
100000
001000
001000
,
000000
000000
000000
000000
010000
000100
100000
000000
,
000001
000000
000000
000000
000010
000100
000001
000000
,
100000
000000
001000
001000
,
000110
100000
010100
000001
,
000000
000001
000001
000000
000000
010000
001000
000000
;

//---------------dance-solo - ----------------
#NOTES:
     dance-solo:
     :
     Hard:
     8:
     0.526,0.524,1.000,0.000,0.000:
000000
000000
000000
000000
,
000000
000000
000000
000000
,
000000
000000
000000
000000
,
000000
000000
000000
000000
,
000000
000000
000000
000000
,
000100
000100
000100
000000
010010
000000
000000
000000
,
000100
000100
000100
000000
100001
000000
000000
000000
,
000100
000100
000100
000000
010010
000000
000000
000000
,
100010
000000
010001
000000
001100
001000
001000
000000
,
100001
000000
000010
010000
001100
000000
000000
000000
,
011000
000000
001010
000000
000010
010000
100001
000000
,
010010
000000
000001
000100
001000
000000
000000
000000
,
100010
000000
010001
000000
100000
000100
001000
000000
,
100100
000101
001100
000000
,
010000
000000
000010
000000
001000
000100
100001
000000
,
001000
000010
011000
000000
,
001100
000000
100001
000000
000100
000100
010010
000000
,
010010
000000
001000
001000
100001
000000
000000
000000
,
000011
100000
000010
000010
,
110000
000001
010000
000000
,
001100
100001
001010
011000
,
000000
110000
010000
000000
010010
000000
001010
000000
,
000000
000011
000010
000000
010010
000000
011000
000000
,
000000
000001
000010
000000
000000
100000
010000
000000
,
011000
100001
001010
100001
,
000110
000001
010100
100000
,
001000
100010
010001
001000
,
001000
000000
000000
001010
011000
000000
000000
000000
,
000011
011000
110000
001010
,
000000
000000
010000
100000
001001
000000
001000
000000
,
000000
000000
000010
000001
101000
000000
001000
000000
,
000000
001100
011000
001010
,
000110
100000
010100
000001
,
100001
000000
000010
010000
001100
000000
000000
000000
,
011000
000000
001010
000000
000010
010000
100001
000000
,
010010
000000
000001
000100
001000
000000
000000
000000
,
100010
000000
010001
000000
100000
000100
001000
000000
,
100100
000101
001100
000000
,
010000
000000
000010
000000
001000
000100
100001
000000
,
001000
000010
011000
000000
,
001100
000000
100001
000000
000100
000100
010010
000000
,
010010
000000
001000
001000
100001
000000
000000
000000
,
000011
100000
000010
000010
,
110000
000001
010000
000000
,
001100
100001
001010
011000
,
000000
000000
010000
010000
000010
000000
000010
000010
,
001000
000000
001000
001000
100000
000000
100000
100000
,
000100
000000
000100
000100
000001
000000
000001
000001
,
001000
000000
001000
001000
100001
000000
001000
000000
,
000101
010010
100100
010010
,
001000
100010
010001
001000
,
001000
000000
000000
010010
001100
000000
000000
000000
,
000011
011000
110000
001010
,
000000
000000
100000
100000
001010
000000
011000
000000
,
000010
000000
000001
000001
011000
000000
001010
000000
,
010000
001100
101000
001001
,
000110
100000
010100
000001
,
000000
010100
001001
000110
,
101000
001100
000010
010000
,
100001
100000
010010
001010
,
010010
011000
000100
000100
,
000000
000000
000000
000000
010100
000100
000001
000000
,
001000
000000
000000
000000
000110
000100
100000
000000
,
001000
000000
000000
000000
000010
010000
000000
000000
,
000011
110000
001100
100001
,
000000
100001
010010
000000
000000
001000
001100
000000
;

//---------------dance-double - Edit by silenttype01----------------
#NOTES:
     dance-double:
     Edit by silenttype01:
     Easy:
     6:
     0.257,0.327,0.040,0.000,0.000: // measure 1
00000000
00000000
00000000
00000000
,  // measure 2
00000000
00000000
00000000
00000000
,  // measure 3
00000000
00000000
00000000
00000000
,  // measure 4
00000000
00000000
00000000
00000000
,  // measure 5
00000000
00000000
00000000
00000000
,  // measure 6
00000000
00000000
00000000
00000000
,  // measure 7
00000000
00000000
00000000
00000000
,  // measure 8
00000000
00000000
00000000
00000000
,  // measure 9
00000000
00000000
00000000
00000000
,  // measure 10
10000000
01000000
10000000
00000000
,  // measure 11
00010000
00000000
00100000
00000000
,  // measure 12
00001000
00010000
00100000
00000000
,  // measure 13
00010000
00000000
00001000
00000000
,  // measure 14
00000010
00000100
00000010
00000000
,  // measure 15
00000100
00000001
00000100
00000001
,  // measure 16
00000100
00000100
00001000
00000000
,  // measure 17
00000001
00000010
00000100
00010000
,  // measure 18
00010000
00000000
00001000
00010000
00001000
00000000
00000000
00000000
,  // measure 19
00010000
00000000
00100000
00000000
,  // measure 20
10000000
00000000
00010000
10000000
00010000
00000000
00000000
00000000
,  // measure 21
00001000
00000000
00000001
00000000
,  // measure 22
00001000
00000100
00000010
00000001
,  // measure 23
00000010
00001000
00100000
01000000
,  // measure 24
00100000
00010000
00100000
10000000
,  // measure 25
01000000
01000000
01000000
01000000
,  // measure 26
00100000
01000000
00010000
01000000
,  // measure 27
00000000
00001000
00000000
00000100
,  // measure 28
00000001
00000000
00000001
00000000
,  // measure 29
00001000
00000100
00000001
00000100
,  // measure 30
00000000
00000100
00000010
00001000
,  // measure 31
00000000
01000000
00100000
10000000
,  // measure 32
00010000
00000000
00000100
00000000
,  // measure 33
00000001
00000100
00001000
00010000
,  // measure 34
00100000
01000000
10000000
00000000
,  // measure 35
00010000
00000000
00100000
00000000
,  // measure 36
00100000
01000000
00010000
00000000
,  // measure 37
00001000
00000000
00000010
00000000
,  // measure 38
00001000
00000100
00000001
00000000
,  // measure 39
00000010
00000000
00000100
00000000
,  // measure 40
00001000
00010000
00001000
00000000
,  // measure 41
00011000
01000000
00010000
01000000
,  // measure 42
00100000
00000000
10000000
00100000
10000000
00000000
00000000
00000000
,  // measure 43
00010000
00000000
00001000
00000000
,  // measure 44
00000001
00000000
00000100
00000010
00000100
00000000
00000000
00000000
,  // measure 45
00001000
00000000
00010000
00000000
,  // measure 46
00100000
01000000
00100000
10000000
,  // measure 47
00100000
00010000
00100000
01000000
,  // measure 48
00100000
10000000
00100000
00010000
,  // measure 49
00100000
10000000
00100000
00010000
,  // measure 50
00001000
00000100
00000001
00000100
,  // measure 51
00000000
00000010
00000000
00000100
,  // measure 52
00001000
00000000
00010000
00000000
,  // measure 53
00011000
00000010
00001000
00000010
,  // measure 54
00000000
00100000
00001000
00100000
,  // measure 55
00000000
01000000
10000000
00100000
,  // measure 56
00010000
00000000
00001000
00000000
,  // measure 57
00000100
00000100
00001000
00010000
,  // measure 58
00000100
00000010
00001000
00000010
,  // measure 59
00000000
00000001
00000000
00000100
,  // measure 60
00000001
00000100
00000001
00001000
,  // measure 61
00000010
00001000
00000010
00010000
,  // measure 62
00000000
00000000
00001000
01000000
,  // measure 63
00001000
00000000
00100000
00001000
,  // measure 64
00100000
00000000
01000000
00000000
,  // measure 65
00100000
10000000
00010000
01000000
,  // measure 66
00000000
01100000
00000000
10010000
;

//---------------dance-double - Edit by silenttype01----------------
#NOTES:
     dance-double:
     Edit by silenttype01:
     Medium:
     7:
     0.336,0.425,0.149,0.000,0.000: // measure 1
00000000
00000000
00000000
00000000
,  // measure 2
00000000
00000000
00000000
00000000
,  // measure 3
00000000
00000000
00000000
00000000
,  // measure 4
00000000
00000000
00000000
00000000
,  // measure 5
00000000
00000000
00000000
00000000
,  // measure 6
00000000
00000000
00000000
00000000
,  // measure 7
00000000
00000000
00000000
00000000
,  // measure 8
00000000
00000000
00000000
00000000
,  // measure 9
00000000
00000000
00000000
00000000
,  // measure 10
00100000
00000000
01000000
00100000
01000000
00000000
00000000
00000000
,  // measure 11
00010000
00000000
00010000
00000000
10000000
00010000
10000000
00000000
,  // measure 12
00100000
00000000
01000000
00100000
01000000
00000000
00000000
00000000
,  // measure 13
00010000
00000000
00010000
00000000
10000000
00010000
10000000
00000000
,  // measure 14
01000000
10000000
00100000
00000000
,  // measure 15
00010000
00000000
00001000
00000000
00010000
00001000
00010000
00000000
,  // measure 16
00000100
00000000
00001000
00000010
00001000
00000000
00000000
00000000
,  // measure 17
00000100
00000000
00000001
00000000
00001000
00000010
00001000
00000000
,  // measure 18
00000001
00000000
00000100
00000001
00000100
00000000
00000000
00000000
,  // measure 19
00000001
00001000
00000010
00010000
,  // measure 20
00000010
00000000
00000100
00000010
00000100
00000000
00000000
00000000
,  // measure 21
00000001
00001000
00000010
00001000
,  // measure 22
00000000
00000001
00000001
00000000
00000100
00000000
00000010
00000000
,  // measure 23
00000000
00001000
00001000
00000000
00000100
00000000
00000010
00000000
,  // measure 24
00000000
00000001
00001000
00000000
00000000
00001000
00000001
00000000
,  // measure 25
00001001
00000110
00001001
00000110
,  // measure 26
00001000
00000100
00000010
00000000
,  // measure 27
00000001
00000100
00000010
00000000
,  // measure 28
00010000
00000000
00000000
00001000
00010000
00000000
00000000
00000000
,  // measure 29
00100000
10000000
01000000
00100000
,  // measure 30
00000000
00000000
00001000
00100000
00001000
00000000
00010000
00000000
,  // measure 31
00000000
00000000
00001000
01000000
00001000
00000000
00010000
00000000
,  // measure 32
00000000
00000001
00001000
00000010
,  // measure 33
00001000
00000001
00000010
00000001
,  // measure 34
00000100
00000000
00000010
00000100
00000010
00000000
00000000
00000000
,  // measure 35
00001000
00000000
00001000
00000000
00010000
10000000
00010000
00000000
,  // measure 36
01000000
00000000
00100000
01000000
00100000
00000000
00000000
00000000
,  // measure 37
10000000
00000000
10000000
00000000
00010000
10000000
00010000
00000000
,  // measure 38
00100000
00000000
00010000
00100000
00010000
00000000
00000000
00000000
,  // measure 39
01000000
00000000
10000000
00000000
00100000
01000000
00100000
00000000
,  // measure 40
00010000
00000000
00001000
00010000
00001000
00000000
00000000
00000000
,  // measure 41
00000100
00000000
00000010
00000000
00000001
00000100
00000001
00000000
,  // measure 42
00000010
00000000
00001000
00010000
00001000
00000000
00000000
00000000
,  // measure 43
00100000
01000000
10000000
10000000
,  // measure 44
01000000
00000000
00010000
01000000
00010000
00000000
00000000
00000000
,  // measure 45
01000000
00100000
10000000
00100000
,  // measure 46
00000000
00011000
00100000
00011000
,  // measure 47
01000000
00011000
00000010
00011000
,  // measure 48
00000100
00011000
00100000
00011000
,  // measure 49
00000100
00011000
00010000
00000010
,  // measure 50
00001000
00000100
00000010
00000000
,  // measure 51
00000001
00000100
00000010
00000000
,  // measure 52
00000010
00000000
00000000
00001000
00000001
00000000
00000000
00000000
,  // measure 53
00000100
00001000
01000000
00100000
,  // measure 54
00000000
00000000
10000000
01000000
10000000
00000000
00100000
00000000
,  // measure 55
00000000
00000000
01000000
00010000
01000000
00000000
00100000
00000000
,  // measure 56
00000000
10000000
00000000
00010000
,  // measure 57
10000000
00100000
00010000
00100000
,  // measure 58
00000000
11000000
00010000
00100000
,  // measure 59
00000000
01100000
00001000
00010000
,  // measure 60
00010000
00001000
00000001
00001000
,  // measure 61
00000001
00001000
00000010
00000010
,  // measure 62
00000000
00000000
00000000
00000000
00000001
00000100
00000001
00000000
,  // measure 63
00001000
00000000
00000000
00000000
00000010
00000100
00000001
00000000
,  // measure 64
00001000
00000000
00000010
00000010
,  // measure 65
00000101
00001000
00000110
00010000
,  // measure 66
00000000
00001000
00001000
00000000
00000000
00010000
00100000
00000000
;

//---------------dance-double - Edit by silenttype01----------------
#NOTES:
     dance-double:
     Edit by silenttype01:
     Hard:
     8:
     0.476,0.524,1.000,0.000,0.000: // measure 1
00000000
00000000
00000000
00000000
,  // measure 2
00000000
00000000
00000000
00000000
,  // measure 3
00000000
00000000
00000000
00000000
,  // measure 4
00000000
00000000
00000000
00000000
,  // measure 5
00000000
00000000
00000000
00000000
,  // measure 6
00000000
00000000
00000000
00000000
,  // measure 7
00000000
00000000
00000000
00000000
,  // measure 8
00000000
00000000
00000000
00000000
,  // measure 9
00000000
00000000
00000000
00000000
,  // measure 10
00001001
00000000
00000100
00000001
00000110
00000000
00000000
00000000
,  // measure 11
00000101
00000000
00001100
00000000
00000001
00000100
00001010
00000000
,  // measure 12
00001010
00000000
00010000
00001000
00010000
00000000
00000000
00000000
,  // measure 13
00001010
00000000
00110000
00000000
00010000
01000000
00100000
00000000
,  // measure 14
01010000
11000000
01100000
00000000
,  // measure 15
00010000
00000000
10000000
00000000
00100000
01000000
10010000
00000000
,  // measure 16
00100000
10000000
00110000
00000000
,  // measure 17
01100000
00000000
00011000
00000000
00000100
00000100
00001001
00000000
,  // measure 18
00001001
00000000
00000010
00000100
00001001
00000000
00000000
00000000
,  // measure 19
00001000
00000001
00001000
01000000
,  // measure 20
00010000
10000000
00010000
00000000
,  // measure 21
01100000
10010000
01100000
00110000
,  // measure 22
00000000
00010000
10000000
00000000
01100000
00000000
00011000
00000000
,  // measure 23
00000000
00001000
00000001
00000000
00000110
00000000
00011000
00000000
,  // measure 24
00000000
00001000
00000100
00000000
00000000
00000001
00000100
00000000
,  // measure 25
00000011
00001001
00000110
00011000
,  // measure 26
00000110
00000001
00000110
00001000
,  // measure 27
00000010
00000101
00001001
00000010
,  // measure 28
00000010
00000000
00000000
00001010
00000011
00000000
00000000
00000000
,  // measure 29
00001000
00011000
00010000
10100000
,  // measure 30
00000000
00000000
01000000
00010000
10100000
00000000
00100000
00000000
,  // measure 31
00000000
00000000
01000000
10000000
00110000
00000000
00100000
00000000
,  // measure 32
00000000
01100000
00110000
10100000
,  // measure 33
11000000
00010000
00011000
00000010
,  // measure 34
00000011
00000000
00000100
00000001
00000110
00000000
00000000
00000000
,  // measure 35
00000011
00000000
00001010
00000000
00000100
00000010
00001001
00000000
,  // measure 36
00001001
00000000
00001000
01000000
00100000
00000000
00000000
00000000
,  // measure 37
01010000
00000000
10100000
00000000
00010000
01000000
00100000
00000000
,  // measure 38
01010000
11000000
01100000
00000000
,  // measure 39
10000000
00000000
00010000
00000000
00000010
00000100
00001001
00000000
,  // measure 40
00000010
00001000
00000011
00000000
,  // measure 41
00000110
00000000
00001001
00000000
00000100
00000100
00011000
00000000
,  // measure 42
00011000
00000000
00100000
01000000
10010000
00000000
00000000
00000000
,  // measure 43
10000000
00010000
10000000
01000000
,  // measure 44
00010000
10000000
00010000
00000000
,  // measure 45
00011000
00000110
00001001
00000011
,  // measure 46
00000000
00000000
00000100
00000001
00001000
00000000
00000100
00001000
,  // measure 47
00000010
00000000
00000010
00000010
00000001
00000000
00000001
00000001
,  // measure 48
00000100
00000000
00000100
00000100
00010000
00000000
00010000
00010000
,  // measure 49
00001000
00000000
00100000
00100000
10010000
00000000
00100000
00000000
,  // measure 50
11000000
10010000
01001000
00110000
,  // measure 51
10000000
01010000
10010000
00100000
,  // measure 52
00100000
00000000
00000000
10010000
01100000
00000000
00000000
00000000
,  // measure 53
00001000
00000110
00000001
00001010
,  // measure 54
00000000
00000000
00000001
00000001
00001010
00000000
00000011
00000000
,  // measure 55
00000100
00000000
00001000
00001000
00000011
00000000
00001010
00000000
,  // measure 56
00010000
00000110
00000011
00001010
,  // measure 57
00001100
00010000
01100000
10000000
,  // measure 58
00000000
01010000
10100000
11000000
,  // measure 59
00101000
01100000
10000000
01000000
,  // measure 60
10010000
00100000
10010000
01100000
,  // measure 61
10010000
00101000
01000000
01000000
,  // measure 62
00000000
00000000
00000000
00000000
01010000
00010000
10000000
00000000
,  // measure 63
00100000
00000000
00000000
00000000
11000000
10000000
00010000
00000000
,  // measure 64
00100000
00000000
00000000
00010000
00001000
00000000
00000000
00000000
,  // measure 65
00001000
00000001
00000110
00011000
,  // measure 66
00000000
10010000
10010000
00000000
00000000
00100000
01100000
00000000
;

//---------------dance-double - Edit by silenttype01----------------
#NOTES:
     dance-double:
     Edit by silenttype01:
     Challenge:
     9:
     0.624,0.655,0.189,1.000,0.070: // measure 1
00000000
00000000
00000000
00000000
,  // measure 2
00000000
00000000
00000000
00000000
,  // measure 3
00000000
00000000
00000000
00000000
,  // measure 4
00000000
00000000
00000000
00000000
,  // measure 5
00000000
00000000
00000000
00000000
,  // measure 6
00000200
00000000
00010300
00001000
00000100
00000000
00000000
00000000
,  // measure 7
00000000
00000000
00000000
00000000
,  // measure 8
02000000
00000000
03001000
00010000
01000000
00000000
00000000
00000000
,  // measure 9
10100000
00000000
00000000
10000000
00100000
00000000
00000000
00100000
00010000
00000000
00001000
00000000
00011000
00000000
00000000
00000000
,  // measure 10
00000000
00000100
00000010
00001000
00000001
00001000
00000002
00000000
,  // measure 11
00000003
00000010
00000100
00000000
00000100
00010000
00000020
00000000
,  // measure 12
00000030
00000100
00001000
00000100
00002000
00000000
00003000
00010000
,  // measure 13
00200000
00000000
01300000
00010000
10000000
00010000
20000000
00000000
,  // measure 14
30000000
01000000
10000000
00010000
00200000
00000000
00300000
01000000
,  // measure 15
00100000
10000000
00100000
01000000
00100000
00001000
00200000
00000000
,  // measure 16
00300000
00000010
00001000
00000001
00000200
00000000
00000300
00000010
,  // measure 17
00000100
00000010
00000001
00000010
00000100
00000010
00002000
00000000
,  // measure 18
00003001
00000100
00000001
00000100
00001000
00010000
00001000
00010000
,  // measure 19
01000000
10000000
01000000
10000000
00010000
00100000
00010000
00100000
,  // measure 20
00001000
00010000
00001000
00010000
00000010
00001000
00000010
00001000
,  // measure 21
00000001
00000100
00000001
00000100
00001000
00010000
00001000
00010000
,  // measure 22
00001000
01000000
00100000
01000000
00100000
01000000
00100000
00000000
,  // measure 23
00000000
10000000
00010000
01000000
00100000
01000000
00100000
00000000
,  // measure 24
00000000
01000000
00100000
00000000
00000000
01000000
00100000
00000000
,  // measure 25
10010000
00000000
00000000
00000000
01100000
00000000
00000000
00000000
10000000
00000000
10000000
00000000
00100000
01000000
00000000
01000000
,  // measure 26
00020000
20030000
30200000
00320000
,  // measure 27
00032000
00023000
00130000
00200000
,  // measure 28
01300000
02000000
03002000
00023000
,  // measure 29
00030200
00000320
00002030
00023000
,  // measure 30
00032000
00003020
00000031
00000002
,  // measure 31
00002003
00003020
00010030
00020000
,  // measure 32
00032000
00023000
00032000
00003200
,  // measure 33
00000302
00000023
00002030
00023000
,  // measure 34
00030000
01000000
00100000
00010000
20000000
00000000
30000000
10000000
,  // measure 35
00100000
00010000
00001000
00010000
01000000
10000000
00200000
00000000
,  // measure 36
00300000
00100000
00010000
00001000
00000200
00000000
00000300
00000100
,  // measure 37
00001000
00000100
00000000
00000100
00000001
00000000
00000010
00000000
00000001
00000000
00000010
00000000
00002000
00000000
00000000
00000000
,  // measure 38
00003000
00001000
00010000
00001000
00000020
00000000
00000000
00000030
,  // measure 39
00000010
00000100
00000000
00000100
00000000
00000000
00000100
00000000
00010000
00000000
00001000
00000000
00020000
00000000
00000000
00000000
,  // measure 40
00030000
00010000
00100000
10000000
00020000
00000000
00030000
00010000
,  // measure 41
00110000
00000000
00000000
00000000
10100000
00000000
00000000
10000000
00100000
00000000
00100000
00000000
00010000
00100000
00010000
00100000
,  // measure 42
00010000
00100000
01000000
00100000
00010000
10000000
00100000
01000000
,  // measure 43
00100000
10000000
01000000
00010000
01000000
00010000
00001000
00000010
,  // measure 44
00001000
00000010
00000001
00000010
00000100
00000010
00000001
00001000
,  // measure 45
00001000
00000010
00000010
00000100
00000100
00000010
00000010
00002000
,  // measure 46
00000000
00003000
00000011
00000000
00000101
00000000
00001100
00000000
,  // measure 47
00011000
00110000
10100000
11000000
,  // measure 48
01010000
00011000
00001010
00000011
,  // measure 49
00000101
00000000
00000000
00000000
00001100
00000000
00000000
00001000
00010000
00000000
00001000
00000000
00010000
00001000
00000000
00001000
,  // measure 50
00020000
00230000
00320000
00032000
,  // measure 51
00003020
00002030
00023000
00000100
,  // measure 52
00001000
00030010
00002000
01000000
,  // measure 53
00010000
00203000
02300000
03200000
,  // measure 54
00302000
00023000
00030020
00000230
,  // measure 55
00000320
00000032
00000023
00000230
,  // measure 56
00002300
00023000
00230000
20300000
,  // measure 57
32000000
23000000
30020000
00230000
,  // measure 58
02300000
03020000
00032000
00003020
,  // measure 59
00002030
00023000
00032000
00000100
,  // measure 60
00000001
00000010
00023000
01000000
,  // measure 61
10000000
00100000
00032000
00023000
,  // measure 62
00032000
00023000
02030000
23000000
,  // measure 63
30200000
00320000
02030000
23000000
,  // measure 64
30200000
00320000
00032000
00003200
,  // measure 65
00000302
00000023
00002030
00003200
,  // measure 66
00000302
00000023
00002030
00003000
;

//---------------dance-single - Edit by silenttype01----------------
#NOTES:
     dance-single:
     Edit by silenttype01:
     Challenge:
     9:
     0.654,0.685,0.657,0.199,0.289:
0000
0000
0000
0000
,
0000
0000
0000
0000
,
0000
0000
0000
0000
,
0000
0000
0000
0000
,
0000
0000
0000
0000
,
0020
0000
0031
1000
0100
0000
0000
0000
,
0000
0000
0000
0000
,
0020
0000
1030
0001
0100
0000
0000
0000
,
1010
0000
0000
1000
0010
0000
0000
0010
0100
0000
0001
0000
1000
0001
0000
0000
,
0000
0100
0010
1000
0001
1000
0002
0000
,
0003
0010
0100
0000
0100
1000
0020
0000
,
0030
0100
0001
0100
2000
0000
3000
0100
,
0020
0000
0130
0001
1000
0001
2000
0000
,
3000
0100
1000
0001
0020
0000
0030
0100
,
0010
1000
0010
0100
0010
1000
0010
0000
,
0000
0010
1000
0001
0200
0000
0300
0010
,
0100
0010
0001
0010
0100
0010
0002
0000
,
1003
0100
0001
0100
1000
0001
1000
0001
,
0100
1000
0100
1000
0001
0010
0001
0010
,
1000
0001
1000
0001
0010
0001
0010
0001
,
1000
0100
1000
0100
0010
0001
0010
0001
,
1000
0100
0010
0100
0010
0100
0010
0000
,
0000
0001
1000
0100
0010
0100
0010
0000
,
0000
0100
0010
0000
0000
0100
0010
0000
,
1001
0000
0000
0000
0110
0000
0000
0010
1000
0000
1000
0000
0010
0100
0000
0100
,
0001
0000
0000
0101
0000
0000
1001
0000
1001
0000
0000
0000
0000
0000
0001
0000
,
0100
0000
0000
1000
0000
0000
0100
0000
0001
0000
0000
1000
0000
0000
0100
0000
,
1100
0000
0000
1100
0000
0000
1001
0000
1001
0000
0000
0000
0000
0000
0000
0000
,
0001
0100
0001
0000
0010
0000
0100
0000
1000
0000
1000
0000
1001
0000
0000
0000
,
0110
0000
0000
0110
0000
0000
1001
0000
1001
0000
0000
0000
0000
0000
1000
0000
,
0100
0000
0000
0001
0000
0000
0100
0000
1000
0000
0000
0001
0000
0000
0100
0000
,
0110
0000
0000
0110
0000
0000
1001
0000
1001
0000
0000
0000
0000
0000
0001
0001
,
0000
1000
1000
0000
0001
0100
0000
0000
0000
0000
0001
0000
1000
0100
0010
0100
,
1000
0100
0010
0100
2000
0000
3000
1000
,
0001
0010
0001
0100
0001
1000
0020
0000
,
0030
0010
1000
0001
0200
0000
0300
0100
,
0010
1000
0000
1000
0010
0000
0100
0000
1000
0000
0100
0000
0020
0000
0000
0000
,
0030
0010
0001
0010
2000
0000
0000
3000
,
0001
0100
0000
0100
0000
0000
0100
0000
0001
0000
1000
0000
0002
0000
0000
0000
,
0003
0001
0010
0100
2000
0000
3000
1000
,
1010
0000
0000
0000
0011
0000
0000
0001
0010
0000
0010
0000
1000
0010
1000
0010
,
1000
0000
0010
0000
0100
0000
0010
0000
1000
0000
0001
0000
0010
0000
0100
0010
,
0100
0000
1000
0001
0000
1000
0001
0000
0010
0000
0100
0000
0010
0000
0001
0000
,
0100
1000
0100
0001
0010
0001
0100
0010
,
0010
1000
1000
0001
0001
0010
0010
0200
,
0000
0300
1100
0000
1010
0000
0011
0000
,
0101
1100
1010
0011
,
0101
1100
1010
0011
,
0101
0000
0000
0000
1100
0000
0000
1000
0001
0000
1000
0000
0001
1000
0000
1000
,
0001
0000
0000
0011
0000
0000
1001
0000
1001
0000
0000
0000
0000
0000
0001
0000
,
0010
0000
0000
1000
0000
0000
0010
0000
0001
0000
0000
1000
0000
0000
0010
0000
,
1010
0000
0000
1010
0000
0000
1001
0000
1001
0000
0000
0000
0000
0000
0000
0000
,
1000
0010
1000
0000
0100
0000
0010
0000
0001
0000
0001
0000
1001
0000
0000
0000
,
0110
0000
0000
0110
0000
0000
1001
0000
1001
0000
0000
0001
0000
0000
1000
0000
,
0010
0000
0000
0001
0000
0000
0010
0000
1000
0000
0000
0001
0000
0000
0010
0000
,
0110
0000
0000
0110
0000
0000
1001
0000
1001
0000
0000
0000
0000
0000
0000
0000
,
0000
1000
1000
0000
0001
0000
0100
0000
0001
0000
0010
0000
0100
0000
0010
0000
,
0001
0000
0000
0011
0000
0000
1100
0000
1100
0000
0000
1000
0000
0000
0001
0000
,
0010
0000
0000
1000
0000
0000
0010
0000
0001
0000
0000
1000
0000
0000
0010
0000
,
1010
0000
0000
1010
0000
0000
0101
0000
0101
0000
0000
0000
0000
0000
0000
0000
,
0001
0010
0001
0000
1000
0000
0010
0000
0100
0000
0100
0000
1001
0000
0000
0000
,
0110
0000
0000
0110
0000
0000
1001
0000
0110
0000
0000
0001
0000
0000
1000
0000
,
0010
0000
0000
0001
0000
0000
0010
0000
1000
0000
0000
0001
0000
0000
0010
0000
,
0110
0000
0000
0110
0000
0000
1001
0000
0110
0000
0000
0000
0000
0000
1000
1000
,
0002
0000
0000
0000
1003
0100
1000
0000
0002
0000
0000
0000
1003
0100
1000
0000
,
0001
0010
0010
0010
0010
0000
0000
0000
;
