#TITLE:EternuS;
#SUBTITLE:;
#ARTIST:Sanxion7;
#TITLETRANSLIT:;
#SUBTITLETRANSLIT:;
#ARTISTTRANSLIT:;
#CREDIT:;
#BANNER:EternuS.png;
#BACKGROUND:EternuS-bg.png;
#LYRICSPATH:;
#CDTITLE:./CDTITLES/Dance Dance Revolution SuperNOVA 2.png;
#MUSIC:EternuS.mp3;
#OFFSET:-1.129;
#SAMPLESTART:64.529;
#SAMPLELENGTH:15.000;
#SELECTABLE:YES;
#BPMS:0.000=140.000;
#STOPS:;
#BGCHANGES:;

//---------------dance-single - ----------------
#NOTES:
     dance-single:
     :
     Beginner:
     1:
     0.110,0.168,0.042,0.000,0.000:
0000
0000
0000
0000
,
0000
0000
0000
0000
,
1000
0000
0000
0000
,
0001
0000
0000
0000
,
0010
0000
0000
0000
,
0100
0000
0100
0000
,
1000
0000
0000
0000
,
0001
0000
0000
0000
,
0010
0000
0000
0000
,
1000
0000
1000
0000
,
0100
0000
0000
0000
,
0001
0000
0000
0000
,
0010
0000
0000
0000
,
0100
0000
0100
0000
,
0001
0000
0000
0000
,
1000
0000
0000
0000
,
0010
0000
0000
0000
,
0100
0000
0100
0000
,
0010
0000
0000
0000
,
1000
0000
0000
0000
,
1000
0000
0001
0000
,
1001
0000
0000
0000
,
0000
0000
0000
0000
,
0110
0000
0000
0000
,
0000
0000
0000
0000
,
1000
0000
0000
0000
,
0001
0000
0000
0000
,
0010
0000
0000
0000
,
0010
0000
0000
0000
,
0010
0000
0010
0000
,
0100
0000
0000
0000
,
1000
0000
1000
0000
,
0001
0000
0000
0000
,
0010
0000
0010
0000
,
0100
0000
0100
0000
,
1000
0000
0001
0000
,
1001
0000
0000
0000
,
0010
0000
0010
0000
,
0100
0000
0100
0000
,
0001
0000
1000
0000
,
0001
0000
0000
0000
,
0100
0000
0100
0000
,
0010
0000
0010
0000
,
1000
0000
0100
0000
,
1000
0000
0001
0000
,
0010
0000
0000
0000
,
1000
0000
0000
0000
,
0001
0000
0000
0000
,
0100
0000
0000
0000
,
0100
0000
0000
0000
,
0010
0000
0010
0000
,
0100
0000
0000
0000
,
0001
0000
1000
0000
,
1001
0000
0000
0000
;

//---------------dance-single - ----------------
#NOTES:
     dance-single:
     :
     Easy:
     4:
     0.257,0.252,0.011,0.063,0.000:
0000
0000
0000
0000
,
0000
0000
0000
0000
,
0002
0000
0003
0001
,
2000
0000
3000
1000
,
0001
0100
0000
0010
,
0001
1000
0000
0100
,
1000
0010
0001
1000
,
0010
0001
1000
0100
,
1000
0001
0000
0010
,
0100
0001
0000
1000
,
0001
0100
0000
0010
,
1000
0100
0001
1000
,
0100
0010
0000
0001
,
1000
0100
0000
0001
,
1000
0010
0100
1000
,
0010
0100
1000
0010
,
0100
0001
0000
0010
,
1000
0100
0000
1000
,
0010
0001
0000
0001
,
0010
1000
0000
0001
,
2000
0000
3000
0000
,
0100
0000
0010
0000
,
0010
0000
0010
0001
,
1000
0000
0010
0010
,
0100
0001
1000
0100
,
0100
0000
0010
0000
,
0010
0000
0010
1000
,
0001
0000
0100
0100
,
0001
0100
0010
1000
,
0001
0000
0100
0000
,
0100
0000
0100
0001
,
0010
0000
1000
1000
,
0010
1000
0001
0100
,
0001
1000
0100
0000
,
1000
0100
1000
0000
,
0010
0100
0001
0010
,
0100
0100
0100
0100
,
0010
0001
1000
0100
,
0010
0001
0010
0000
,
1000
0100
0001
0000
,
1000
0001
1000
0001
,
1000
0010
0100
0001
,
0100
1000
0010
0100
,
0002
0003
2000
3000
,
0020
0030
0010
0010
,
1000
0100
0000
0001
,
0100
0010
0000
0010
,
1000
0100
1000
0001
,
1000
1000
0100
1000
,
0010
0001
0000
0010
,
1000
0100
0000
0100
,
0001
0010
0000
1000
,
0010
0100
0001
1000
,
1001
0000
0000
0000
;

//---------------dance-single - ----------------
#NOTES:
     dance-single:
     :
     Medium:
     6:
     0.438,0.457,0.338,0.264,0.259:
0000
0000
0000
0000
,
0000
0000
0000
0000
,
0010
0100
0001
1000
,
0100
0100
0100
0100
,
0110
0000
0010
0100
0000
0000
1000
0000
0000
0100
0000
0000
,
0010
0000
0001
0100
0000
0000
0010
0000
0000
0100
0000
0000
,
0001
0000
0010
0001
0000
0010
0100
0000
0000
1000
0000
0000
,
0010
0000
1000
0010
0000
0100
0010
0000
0000
1010
0000
0000
,
0101
0000
0001
1000
0000
0000
0100
0000
0000
0010
0000
0000
,
0100
0000
1000
0001
0000
0000
0100
0000
0000
0010
0000
0000
,
0100
0000
0001
0010
0000
0001
0100
0000
0000
0010
0000
0000
,
0100
0000
0010
1000
0000
0100
1000
0000
0000
1100
0000
0000
,
0012
0000
0000
0100
0000
0000
1000
0000
0000
0103
0000
0001
,
1000
0000
0000
0010
0000
0000
0100
0000
0001
0010
0000
0100
,
2000
0000
0000
0100
0000
0000
0001
0000
0000
3100
0000
1000
,
0001
0000
0000
0010
0000
0100
1000
0000
0000
0010
0000
0100
,
0002
0000
0000
1000
0000
0000
0010
0000
0000
1003
0000
0100
,
2000
0010
0001
3010
,
0001
0000
0100
0001
0000
0000
1000
0000
0100
1000
0000
0000
,
0110
0000
0000
1001
0000
0000
0110
0000
0000
1000
0001
2000
,
0002
0000
0000
3003
,
1000
0100
0010
0001
,
1000
0100
0010
0001
,
1000
0010
0001
0010
,
1000
0001
0100
0010
,
1000
0100
1000
0010
,
0001
0100
0001
0010
,
1000
0001
0010
0100
,
1100
0110
0011
1001
,
1010
0000
1000
0020
0000
0000
0000
0000
0000
0030
0000
0000
,
0011
0000
0001
0020
0000
0000
0000
0000
0000
0030
0000
0000
,
1001
0000
0100
0020
0000
0000
0230
0000
0000
0302
0000
0000
,
2003
3200
0320
0031
,
0101
0000
0001
0020
0000
0000
0000
0000
0000
0030
0000
0000
,
1100
0000
1000
0020
0000
0000
0000
0000
0000
0030
0000
0000
,
1001
0000
0010
0200
0000
0000
0000
0000
0000
0300
0000
0000
,
1001
0000
0000
0000
,
0011
0100
1000
0010
,
0100
0000
0001
1000
0000
0002
0000
0000
0000
1003
0000
0000
,
1010
0000
0000
0100
0000
0000
0001
0000
1000
0200
0000
0010
,
0000
0000
0001
0000
0000
0010
0000
0000
1300
0000
0000
0000
,
0100
0101
1000
1100
,
0010
0000
0000
0011
0000
0000
1000
0000
0000
1001
0000
0001
,
0100
0110
1000
0101
,
2001
3200
0320
0032
,
1003
0000
0100
0010
0000
0000
0001
0000
0000
0010
0000
0000
,
0100
0000
1000
0010
0000
0000
0100
0000
0000
0010
0000
0000
,
1000
0000
0100
1000
0000
0100
0010
0000
0000
0001
0000
0000
,
0100
0000
0001
0100
0000
0010
0100
0000
0000
0101
0000
0000
,
1010
0000
1000
0001
0000
0000
0010
0000
0000
0100
0000
0000
,
0010
0000
0001
1000
0000
0000
0010
0000
0000
0100
0000
0000
,
0010
0000
1000
0100
0000
1000
0010
0000
0000
0100
0000
0000
,
0010
0000
0100
0001
0000
0010
0001
0000
0000
0011
0000
0000
,
2200
0000
0000
0000
,
3300
0000
0000
0000
;

//---------------dance-single - ----------------
#NOTES:
     dance-single:
     :
     Hard:
     9:
     0.594,0.588,0.085,0.180,0.899:
0000
0000
0000
0000
,
0000
0000
0000
0000
,
0001
0100
1000
0100
,
0001
0000
0010
0001
0000
0001
0100
0000
0100
0010
1000
0010
,
1000
0000
0001
0100
0001
0100
0010
0000
1000
0100
0000
0100
,
0010
0000
0010
0001
0010
0001
0100
0000
0001
1000
0000
1000
,
0001
0000
0100
0010
0100
0001
0010
0000
0010
0100
0000
0100
,
1000
0000
1000
0010
0000
0010
0001
0000
0010
1000
0010
1000
,
0100
0000
1000
0001
1000
0001
0100
0000
0010
0100
0000
0100
,
0001
0000
0001
1000
0001
0010
0100
0000
0100
0010
0000
0010
,
0001
0000
0001
0100
0001
0100
0010
0000
0100
0010
0100
0010
,
1000
0000
1000
0100
0010
0100
1000
0000
0100
1000
0000
1000
,
0010
0000
0010
1000
0010
1000
0001
0000
0001
1000
0000
1000
,
0100
0000
0100
1000
0010
0100
0001
0000
0001
0100
0000
0100
,
0010
0000
0010
1000
0100
1000
0100
0000
0100
1000
0000
1000
,
0010
0000
0010
0100
0001
0100
0001
0000
0001
0010
0001
0010
,
0100
0000
0100
1000
0000
1000
0010
0000
0010
0100
0001
0100
,
1000
0000
1000
0100
0000
0100
0001
0000
0001
0010
0100
1000
,
0001
0000
0001
1000
0010
0100
0001
0000
0001
1000
0001
1000
,
0001
0000
0001
0100
0000
0100
0010
0000
0010
1000
0100
1000
,
0001
0000
0000
0000
0000
0000
0000
0000
0000
0001
0100
0010
,
1000
0100
0001
0010
,
0100
0000
0000
1000
0000
0000
0010
0000
0000
1000
0000
0001
,
1000
0100
0010
1000
,
0001
0000
0000
0100
0000
0000
1000
0000
0000
0001
1000
0100
,
0010
0000
0000
1000
0000
0000
0001
0000
0000
0100
0010
1000
,
0100
0000
0000
0001
0000
0000
0100
0000
0000
1000
0000
0010
,
0100
0001
0010
0100
,
0001
0000
0000
1000
0000
0000
1000
0100
0010
0001
1000
0100
,
0001
1000
0010
0001
,
0100
0000
0000
0001
0000
0000
1000
0000
0000
0010
0000
1000
,
1001
0010
0100
0001
,
1000
0000
0000
0010
0000
0000
0100
0000
0000
0001
0100
0010
,
1000
0000
0000
0001
0000
0000
0010
0000
0000
1000
0100
0010
,
0001
0000
0000
1000
0000
0000
0100
0000
0000
0010
0000
0100
,
1100
0001
1000
0100
,
1001
0000
0000
1001
0000
0000
0001
0010
0100
1000
0001
0010
,
0200
0320
0032
0203
,
0301
0000
0001
0100
0000
0010
0000
0000
0000
2000
0000
0000
,
3200
0000
0000
0320
0000
0000
0031
0000
0001
1000
0000
0110
,
0000
0000
0011
0000
0000
1010
0000
0000
0110
0000
0000
0100
,
0002
0000
0000
2003
0000
0000
3010
0000
0010
2000
0000
0000
,
3002
0000
0000
0023
0000
0000
0230
0000
0000
1300
0000
1000
,
0020
0230
0302
2003
,
3001
0000
0001
1000
0000
1000
0100
0010
0100
1000
0010
0100
,
0001
0000
1000
0100
1000
0100
0010
0000
0010
0001
0010
0001
,
1000
0000
1000
0010
0000
0010
0100
0000
0100
0001
0100
0010
,
1000
0000
1000
0001
1000
0001
0010
0000
0010
0001
0010
0100
,
1000
0000
1000
0010
0100
0010
1000
0000
1000
0100
0000
0100
,
0010
0000
0010
0001
1000
0100
0010
0000
0010
0100
0000
0100
,
1000
0000
0001
1000
0001
0010
0100
0000
0100
0010
0100
0010
,
0001
0000
0001
1000
0010
1000
0100
0000
1000
0010
0100
0001
,
0010
0000
0001
1000
0010
0100
0010
0000
1000
0100
0000
0001
,
0100
0000
0000
0000
;

//---------------dance-double - ----------------
#NOTES:
     dance-double:
     :
     Easy:
     4:
     0.257,0.252,0.011,0.063,0.000:
00000000
00000000
00000000
00000000
,
00000000
00000000
00000000
00000000
,
00020000
00000000
00030000
00010000
,
00002000
00000000
00003000
00001000
,
00010000
01000000
00000000
10000000
,
00100000
10000000
00000000
01000000
,
00100000
00010000
00100000
00001000
,
00010000
00000010
00001000
00000100
,
00000010
00000001
00000000
00000100
,
00000001
00000100
00000000
00000010
,
00001000
00000100
00000000
00001000
,
00000010
00000100
00000010
00001000
,
00000100
00010000
00000000
00001000
,
00010000
00001000
00000000
01000000
,
00010000
00100000
01000000
10000000
,
00100000
01000000
00010000
00100000
,
00001000
00010000
00000000
00000100
,
00001000
00000010
00000000
00000100
,
00000001
00001000
00000000
00000100
,
00001000
00000001
00000000
00000100
,
00000020
00000000
00000030
00000000
,
00001000
00000000
00010000
00000000
,
00010000
00000000
00010000
01000000
,
10000000
00000000
00010000
00010000
,
01000000
00100000
10000000
01000000
,
01000000
00000000
00010000
00000000
,
00010000
00000000
00001000
00000100
,
00000001
00000000
00001000
00001000
,
00000001
00000100
00000010
00001000
,
00000100
00000000
00010000
00000000
,
00010000
00000000
00010000
01000000
,
00100000
00000000
00010000
00010000
,
01000000
00100000
10000000
00010000
,
10000000
01000000
01000000
00000000
,
00010000
00001000
00010000
00000000
,
00001000
00000100
00000001
00000010
,
00000100
00000100
00000100
00000100
,
00001000
00000001
00001000
00000001
,
00000100
00000010
00001000
00000000
,
00010000
00001000
00010000
00001000
,
00100000
00010000
10000000
00100000
,
01000000
00010000
01000000
00010000
,
10000000
01000000
00100000
00000000
,
00020000
00030000
02000000
03000000
,
00002000
00003000
00010000
00010000
,
00001000
00000100
00000000
00000010
,
00000100
00000001
00000000
00000010
,
00000100
00001000
00000100
00000010
,
00001000
00001000
00010000
00001000
,
00100000
00010000
00000000
01000000
,
00010000
00100000
00000000
01000000
,
10000000
00100000
00000000
00010000
,
00001000
00000100
00001000
00010000
,
00011000
00000000
00000000
00000000
;

//---------------dance-double - ----------------
#NOTES:
     dance-double:
     :
     Medium:
     6:
     0.450,0.457,0.243,0.381,0.264:
00000000
00000000
00000000
00000000
,
00000000
00000000
00000000
00000000
,
00100000
10000000
01000000
00010000
,
00001000
00010000
00001000
00010000
,
00011000
00000000
00010000
00001000
00000000
00000000
00000100
00000000
00000000
00000001
00000000
00000000
,
00000010
00000000
00000001
00000100
00000000
00000000
00001000
00000000
00000000
00010000
00000000
00000000
,
00001000
00000000
00100000
00001000
00000000
00010000
00001000
00000000
00000000
00010000
00000000
00000000
,
00010000
00000000
00000100
00010000
00000000
00001000
00010000
00000000
00000000
00001000
00000000
00000000
,
00100000
00000000
00010000
01000000
00000000
00000000
00100000
00000000
00000000
10000000
00000000
00000000
,
00100000
00000000
01000000
00010000
00000000
00000000
00100000
00000000
00000000
00001000
00000000
00000000
,
00010000
00000000
00000100
00001000
00000000
00001000
00000001
00000000
00000000
00001000
00000000
00000000
,
00000010
00000000
00000100
00000001
00000000
00000001
00001000
00000000
00000000
00001100
00000000
00000000
,
00020100
00000000
00000000
00001000
00000000
00000000
00000100
00000000
00000000
00031000
00000000
00010000
,
00001000
00000000
00000000
00100000
00000000
00000000
00010000
00000000
01000000
00010000
00000000
01000000
,
00002000
00000000
00000000
00010000
00000000
00000000
01000000
00000000
00000000
00013000
00000000
00001000
,
00010000
00000000
00000000
01000000
00000000
10000000
00010000
00000000
00000000
01000000
00000000
00100000
,
20000000
00000000
00000000
32000000
00000000
00000000
03020000
00000000
00000000
00031000
00000000
00010000
,
00002000
00003200
00000302
00001003
,
00000100
00000000
00010000
00001000
00000000
00000000
01000000
00000000
00001000
00010000
00000000
00000000
,
00010100
00000000
00000000
00011000
00000000
00000000
01001000
00000000
00000000
01000000
00010000
10000000
,
00020000
00000000
00000000
00030000
,
10000000
01000000
00010000
00001000
,
00000010
00000000
00000000
00000001
00000000
00000000
00000100
00000000
00000000
00001000
00000000
00010000
,
00001000
00010000
00100000
00010000
,
00001000
00010000
01000000
10000000
,
00010000
01000000
00001000
00010000
,
00000010
00010000
00001000
00100000
,
00010000
01000000
00001000
00010000
,
00000200
00002300
00003002
00000013
,
00001001
00000000
00000001
00000200
00000000
00000000
00000000
00000000
00000000
00000300
00000000
00000000
,
00001100
00000000
00001000
00020000
00000000
00000000
00000000
00000000
00000000
00030000
00000000
00000000
,
00011000
00000000
00001000
00020000
00000000
00000000
02030000
00000000
00000000
03200000
00000000
00000000
,
02300000
23000000
30200000
00310000
,
00011000
00000000
00010000
00000200
00000000
00000000
00000000
00000000
00000000
00000300
00000000
00000000
,
00011000
00000000
00001000
00200000
00000000
00000000
00000000
00000000
00000000
00300000
00000000
00000000
,
00011000
00000000
00000010
00002000
00000000
00000000
00003002
00000000
00000000
00000203
00000000
00000000
,
00000320
00002030
00003200
00000310
,
00001001
00000100
00001000
00000010
,
00000100
00000000
00000001
00001000
00000000
00000002
00000000
00000000
00000000
00000013
00000000
00000000
,
00001100
00000000
00000000
00000100
00000000
00000000
00010000
00000000
00001000
00020000
00000000
00000100
,
00000000
00000000
00001000
00000000
00000000
00000010
00000000
00000000
00031000
00000000
00000000
00000000
,
01000000
01010000
10000000
10100000
,
00010000
00000000
00000000
00011000
00000000
00000000
00001000
00000000
00000000
00001010
00000000
00000010
,
00000100
00000101
00001000
00001100
,
00001002
00000203
00000320
00002030
,
00003100
00000000
00001000
00010000
00000000
00000000
00100000
00000000
00000000
10000000
00000000
00000000
,
01000000
00000000
10000000
00100000
00000000
00000000
00010000
00000000
00000000
00001000
00000000
00000000
,
00010000
00000000
00000010
00010000
00000000
00001000
00010000
00000000
00000000
00001000
00000000
00000000
,
00001000
00000000
01000000
00001000
00000000
00010000
00001000
00000000
00000000
00010000
00000000
00000000
,
00000010
00000000
00001000
00000100
00000000
00000000
00000010
00000000
00000000
00000001
00000000
00000000
,
00000100
00000000
00000010
00001000
00000000
00000000
00000100
00000000
00000000
00010000
00000000
00000000
,
00001000
00000000
00100000
00010000
00000000
00010000
10000000
00000000
00000000
00010000
00000000
00000000
,
01000000
00000000
00100000
10000000
00000000
10000000
00010000
00000000
00000000
00110000
00000000
00000000
,
22000000
00000000
00000000
00000000
,
33000000
00000000
00000000
00000000
;

//---------------dance-double - ----------------
#NOTES:
     dance-double:
     :
     Hard:
     9:
     0.594,0.645,0.211,0.011,0.925:
00000000
00000000
00000000
00000000
,
00000000
00000000
00000000
00000000
,
00000010
00000101
00000010
00001100
,
00000010
00000000
00001000
00000100
00000000
00010000
00001000
00000000
01000000
00010000
00100000
01000000
,
10000000
00000000
00000000
00100000
00000000
00000000
00010000
00000000
00000000
00001000
00010000
00000010
,
00000100
00000000
00000000
00000001
00000000
00000000
00000010
00000000
00000000
00000100
00010000
00001000
,
00000100
00000000
00000000
00000001
00000000
00000000
00000010
00000000
00000000
00000100
00000000
00010000
,
00001000
00000000
00010000
01000000
00000000
10000000
00100000
00000000
00010000
00001000
00010000
00000010
,
00000100
00000000
00000000
00000001
00000000
00000000
00000010
00000000
00000000
00000100
00000001
00000100
,
00010000
00000000
00000000
00000010
00000000
00000000
00010000
00000000
00000000
00001000
00100000
01000000
,
00010000
00000000
00000000
01000000
00000000
00000000
10000000
00000000
00000000
00010000
00000000
01000000
,
00100000
00000000
10000000
01000000
00000000
00100000
00001000
00000000
00010000
00000100
00000010
00000001
,
00000100
00000000
00000010
00010000
00000000
00010000
00001000
00000000
00001000
00100000
01000000
10000000
,
00100000
00000000
01000000
00001000
00000000
00001000
00010000
00000000
00010000
00000100
00000010
00000001
,
00001000
00000000
00000010
00010000
00000000
00010000
00000100
00000000
00000100
00000010
00000001
00000100
,
00001000
00000000
00010000
01000000
00000000
01000000
00100000
00000000
00100000
00001000
00010000
00000010
,
00000100
00000000
00000001
00000010
00000000
00000010
00001000
00000000
00001000
00100000
00010000
01000000
,
00100000
00000000
00100000
10000000
00000000
10000000
01000000
00000000
00100000
00001000
00010000
00001000
,
00010000
00000000
00000100
00000010
00000001
00000010
00000001
00000000
00000100
00001000
00010000
00001000
,
00010000
00000000
01000000
00100000
00010000
00100000
00010000
00000000
10000000
00100000
01000000
00100000
,
02000000
00000000
00000000
03000000
,
00010000
10000000
01000000
00010000
,
00001000
00000000
00000000
00100000
00000000
00000000
01000000
00000000
00000000
00010000
00000000
00001000
,
00010000
00001000
00000100
00000001
,
00000010
00000000
00000000
00001000
00000000
00000000
00010000
00000000
00000000
00000010
00001000
00000010
,
00010000
00000000
00000000
00001000
00000000
00000000
00100000
00000000
00000000
00010000
01000000
00010000
,
10000000
00000000
00000000
00100000
00000000
00000000
10000000
00000000
00000000
01000000
00000000
00100000
,
01000000
00010000
00001000
00000100
,
00000010
00001000
00000010
00001000
00000001
00000100
00000001
00000100
00000001
00000010
00000001
00000010
,
00000100
00000000
00000000
00010000
00000000
00000000
00001000
00000000
00000000
00100000
00000000
00010000
,
01000000
00000000
00000000
00100000
00000000
00000000
10000000
00000000
00000000
01000000
00000000
00010000
,
00001000
00000010
00000001
00001000
,
00000100
00000000
00000000
00000010
00000000
00000000
00000001
00000000
00000000
00000100
00000001
00000100
,
00000110
00000000
00000000
00001010
00000000
00000000
00010010
00000000
00000000
00001000
00010000
00001000
,
00011000
00000000
00000000
00101000
00000000
00000000
00110000
00000000
00000000
01000000
00000000
10000000
,
10100000
01000000
00010000
00100000
,
00010000
00100000
00010000
00100000
01000000
10000000
01000000
10000000
00100000
10000000
00100000
01000000
,
00010000
00000000
10000000
01000000
00000000
00010000
00001000
00000000
00000010
00000001
00000000
00000010
,
00001000
00000000
00010000
00100000
00000000
01100000
00000000
00000000
00000000
01010000
00000000
00000000
,
10100000
00000000
00000000
11000000
00000000
00000000
01000000
00000000
00010000
00001000
00000000
00000100
,
00000000
00000000
00001100
00000000
00000000
00000110
00000000
00000000
00000101
00000000
00000000
00000100
,
00001000
00000000
00001000
00010000
00000000
00010000
01000000
00000000
01000000
10000000
00000000
10000000
,
01000000
00000000
00010000
00001000
00000000
00000010
00000001
00000000
00000000
00000100
00000000
00001000
,
00010000
00011000
00101000
01100000
,
00100000
10000000
00100000
10000000
01000000
10000000
01000000
00010000
01000000
00010000
00001000
00010000
,
00001000
00000000
00000100
00000010
00000100
00000010
00001000
00000000
00000001
00000010
00000001
00000100
,
00001000
00000000
00010000
00001000
00010000
00001000
00100000
00000000
01000000
10000000
00100000
10000000
,
00010000
00000000
01000000
00010000
00100000
00001000
00010000
00000000
00000010
00001000
00000100
00000010
,
00000001
00000000
00000001
00000010
00000100
00001000
00000010
00000000
00000100
00000001
00000100
00001000
,
00010000
00000000
00001000
00100000
00010000
01000000
00100000
00000000
10000000
00100000
00010000
00100000
,
01000000
00000000
00010000
10000000
01000000
00010000
00001000
00000000
00010000
00000010
00001000
00000100
,
00001000
00000010
00000001
00000010
00000100
00000001
00000010
00000100
00010000
00001000
00000100
00000010
,
00010000
00001000
00100000
01000000
00100000
00010000
10000000
00100000
00010000
00001000
00100000
01000000
,
11000000
00000000
00000000
00000000
;

//---------------dance-double - ----------------
#NOTES:
     dance-double:
     :
     Challenge:
     10:
     0.662,0.701,0.116,0.328,1.000: // measure 1
00000000
00000000
00000000
00000000
,  // measure 2
00000000
00000000
00000000
00000000
,  // measure 3
00000000
00000000
00000000
00000000
,  // measure 4
00000000
00000000
00000000
00000000
,  // measure 5
10000000
00000000
10000000
00100000
00000000
00100000
00010000
00000000
00010000
00001000
00000000
00001000
,  // measure 6
00000100
00000000
00000100
00000001
00000000
00000001
00000010
00000000
00000010
00000100
00000000
00000100
,  // measure 7
00010000
00000000
00010000
00001000
00000000
00001000
00000010
00000000
00000010
00000100
00000000
00000100
,  // measure 8
00010000
00000000
00010000
01000000
00000000
01000000
10000000
00000000
10000000
00100000
00000000
00100000
,  // measure 9
00010000
00000000
00010000
00001000
00000000
00001000
00000010
00000000
00000010
00000100
00000000
00000100
,  // measure 10
00010000
00000000
00010000
00000010
00000000
00000010
00010000
00000000
00010000
00001000
00000000
00001000
,  // measure 11
00010000
00000000
00010000
01000000
00000000
01000000
10000000
00000000
10000000
00010000
00000000
00010000
,  // measure 12
00100000
00000000
00100000
01000000
00000000
01000000
00001000
00000000
00001000
00000100
00000010
00000001
,  // measure 13
00000100
00000000
00000010
00010000
00000000
00010000
00001000
00000000
00001000
00100000
01000000
10000000
,  // measure 14
00100000
00000000
01000000
00001000
00000000
00001000
00010000
00000000
00010000
00000100
00000010
00000001
,  // measure 15
00001000
00000000
00000010
00010000
00000000
00010000
00000100
00000000
00000100
00000010
00000001
00000100
,  // measure 16
00001000
00000000
00010000
01000000
00000000
01000000
00100000
00000000
00100000
00001000
00010000
00000010
,  // measure 17
00000100
00000000
00000001
00000010
00000000
00000010
00001000
00000000
00001000
00100000
00010000
01000000
,  // measure 18
00100000
00000000
00100000
10000000
00000000
10000000
01000000
00000000
00100000
00001000
00010000
00001000
,  // measure 19
00010000
00000000
00000100
00000010
00000001
00000010
00000001
00000000
00000100
00001000
00010000
00001000
,  // measure 20
00010000
00000000
01000000
00100000
00010000
00100000
00010000
00000000
10000000
00100000
01000000
00100000
,  // measure 21
02000000
00000000
00100000
00000000
00100000
00000000
00100000
00000000
00000000
00000000
00000000
00000000
,  // measure 22
03020000
20030000
32000000
03020000
,  // measure 23
00032000
00000000
00000000
00203000
00000000
00000000
02300000
00000000
00000000
03010000
00000000
00001000
,  // measure 24
00020000
00032000
00003020
00000032
,  // measure 25
00000023
00000000
00000000
00002030
00000000
00000000
00023000
00000000
00000000
00030010
00001000
00000010
,  // measure 26
00020000
00000000
00000000
00032000
00000000
00000000
02003000
00000000
00000000
03010000
00100000
00010000
,  // measure 27
00200000
00000000
00000000
00320000
00000000
00000000
20030000
00000000
00000000
30100000
00000000
00100000
,  // measure 28
00020000
00032000
00003200
00000302
,  // measure 29
00001003
00000010
00001000
00000010
00000100
00000001
00000100
00000001
00001000
00000010
00001000
00000010
,  // measure 30
00000100
00000000
00001000
00020000
00000000
00001000
00000000
00001000
00000000
00031000
00000000
00000000
,  // measure 31
00100000
00000000
00010000
02000000
00000000
00010000
00000000
00010000
00000000
03010000
00000000
00000000
,  // measure 32
10100000
00000000
01000000
00020000
00000000
01000000
00000000
01000000
00000000
01030000
00000000
00000000
,  // measure 33
00000000
00000000
00000000
00000000
,  // measure 34
00001010
00000000
00000001
00002000
00000000
00000001
00000000
00000001
00000000
00003001
00000000
00000000
,  // measure 35
00000110
00000000
00000001
00000200
00000000
00000001
00000000
00000001
00000000
00000301
00000000
00000000
,  // measure 36
00000101
00000000
00000100
00000020
00000000
00000100
00000000
00000100
00000000
00000130
00000000
00000000
,  // measure 37
00001010
00000010
00010000
00001000
00010000
00001000
00010000
00001000
00100000
00001000
00100000
00010000
,  // measure 38
01000000
00000000
00100000
10000000
00000000
01000000
00010000
00000000
00001000
00000010
00000000
00000001
,  // measure 39
00000100
00000000
00001000
00010000
00000000
00110000
00000000
00000000
00100000
00010000
00000000
00001000
,  // measure 40
00000100
00000000
00000001
00000010
00000000
00001000
00010000
00000000
01000000
10000000
00000000
10010000
,  // measure 41
00000000
00000000
01010000
00000000
00000000
00001010
00000000
00000000
00000011
00000000
00000000
00001000
,  // measure 42
00010000
00000000
00100000
01000000
00000000
00010000
01000000
00000000
00100000
10000000
00000000
00010000
,  // measure 43
01000000
00000000
00001000
00000100
00000000
00000001
00000100
00000000
00001000
00000100
00000000
00000010
,  // measure 44
00000100
00000000
00001000
00010000
00000000
00010000
01000000
00000000
01000000
10000000
00000000
10000000
,  // measure 45
01000000
00010000
00001000
00000010
00000001
00000010
00001000
00010000
01000000
10000000
01000000
00010000
,  // measure 46
00001000
00000000
00000100
00000010
00000100
00000010
00001000
00000001
00000010
00000001
00000100
00001000
,  // measure 47
00010000
00001000
00010000
00001000
00100000
01000000
10000000
00100000
10000000
00010000
01000000
00010000
,  // measure 48
00100000
00001000
00010000
00000010
00001000
00000100
00000010
00000001
00000010
00000100
00001000
00000010
,  // measure 49
00000100
00000001
00000100
00001000
00010000
00001000
00100000
00010000
01000000
00100000
10000000
00100000
,  // measure 50
00010000
00100000
01000000
00010000
10000000
01000000
00010000
00001000
00010000
00000010
00001000
00000100
,  // measure 51
00001000
00000010
00000001
00000010
00000100
00000001
00000010
00000100
00010000
00001000
00000100
00000010
,  // measure 52
00010000
00001000
00100000
01000000
00100000
00010000
10000000
00100000
00010000
00001000
00100000
01000000
,  // measure 53
10000000
00100000
00010000
00001000
00000100
00000001
00000100
00001000
00010000
00100000
10000000
01000000
,  // measure 54
11000000
00000000
00000000
00000000
;
