#TITLE:era (nostalmix);
#SUBTITLE:;
#ARTIST:TaQ;
#TITLETRANSLIT:;
#SUBTITLETRANSLIT:;
#ARTISTTRANSLIT:;
#CREDIT:;
#BANNER:era (nostalmix).png;
#BACKGROUND:era (nostalmix)-bg.png;
#LYRICSPATH:;
#CDTITLE:Dance Dance Revolution 4th Mix.png;
#MUSIC:era (nostalmix).ogg;
#OFFSET:0.000;
#SAMPLESTART:65.333;
#SAMPLELENGTH:15.000;
#SELECTABLE:YES;
#DISPLAYBPM:90.000:180.000;
#BPMS:0.000=180.000,132.000=90.000,164.000=180.000,228.000=90.000;
#STOPS:;
#BGCHANGES:;

//---------------dance-single - ----------------
#NOTES:
     dance-single:
     :
     Beginner:
     2:
     0.136,0.181,0.011,0.000,0.000:
0000
0000
0000
0000
,
0000
0000
0000
0000
,
0000
0000
0000
0000
,
0000
0000
0000
0000
,
0000
0000
0000
0000
,
0010
0000
0000
0000
,
0100
0000
0000
0000
,
0010
0000
0000
0000
,
0100
0000
0000
0000
,
0001
0001
0000
0000
,
1000
1000
0000
0000
,
0001
0001
0000
0000
,
1000
1000
0000
0000
,
0010
0010
0000
0000
,
0100
0100
0000
0000
,
0001
0000
0000
0000
,
1000
1000
1000
0000
,
0001
0000
0000
0000
,
1000
1000
0000
0000
,
0001
0000
0000
0000
,
1000
1000
0000
0000
,
0010
0000
0000
0000
,
0100
0100
0000
0000
,
0010
0000
0000
0000
,
0100
0100
0000
0000
,
0001
0001
0001
0000
,
0001
0000
0000
0000
,
1000
1000
1000
0000
,
1000
0000
0000
0000
,
0010
0000
0000
0000
,
0100
0000
0000
0000
,
0010
0000
0000
0000
,
0100
0100
0100
0000
,
0000
0010
0000
0100
,
0000
0001
0000
1000
,
0000
0001
0000
1000
,
0000
0010
0000
0100
,
0000
0001
0000
0001
,
0000
1000
0000
1000
,
0000
0010
0000
0010
,
0000
0100
0000
0100
,
0000
0010
0010
0000
,
0000
0010
0010
0000
,
0000
0100
0100
0000
,
0000
0100
0100
0000
,
0000
0001
0001
0000
,
0000
1000
1000
0000
,
0000
0000
0010
0000
,
0000
0000
0100
0000
,
0000
0000
0100
0000
,
0000
0000
0100
0000
,
0000
0000
0100
0000
,
0000
0000
0100
0000
,
0010
0010
0000
0000
,
0100
0100
0000
0000
,
0010
0010
0000
0000
,
0100
0100
0000
0000
,
1001
0000
0000
0000
;

//---------------dance-single - ----------------
#NOTES:
     dance-single:
     :
     Easy:
     3:
     0.189,0.215,0.000,0.000,0.000:
0000
0000
0000
0000
,
0000
0000
0000
0000
,
0000
0000
0000
0000
,
0000
0000
0000
0000
,
0000
0000
0000
0000
,
0000
1000
0000
0000
0000
0000
0000
0000
,
0000
0001
0000
0000
0000
0000
0000
0000
,
0000
1000
0000
0000
0000
0000
0000
0000
,
0000
0001
0000
0000
0000
0000
0001
0000
,
0000
0000
1000
0000
0000
1000
0000
0000
,
0000
0000
0001
0000
0000
0001
0000
0000
,
0000
0000
0010
0000
0000
0010
0000
0000
,
0000
0000
0100
0000
0000
0100
0000
0000
,
0000
0000
1000
0000
0000
1000
0000
0000
,
0000
0000
0001
0000
0000
0001
0000
0000
,
0000
0000
0100
0000
0000
0100
0000
0000
,
0000
0000
0010
0000
0000
0010
0000
0000
,
1000
1000
0000
0001
,
0000
0100
0000
1000
,
0000
0100
0000
0010
,
0000
0001
0000
1000
,
0100
0100
0000
0010
,
0000
0001
0000
1000
,
0000
0010
0000
0100
,
0000
0001
0000
1000
,
0100
0000
0100
0000
0000
0010
0000
0000
,
0001
0001
0001
0000
,
1000
0000
1000
0000
0000
0010
0000
0000
,
0100
0100
0100
0000
,
0001
0000
0001
0000
0000
0010
0000
0000
,
0100
0100
0100
0000
,
1000
0000
1000
0000
0000
0010
0000
0000
,
0100
0000
0100
0000
0000
0001
0000
0000
,
1000
1000
1000
0000
,
0100
0000
0100
0000
,
0010
0010
0010
0000
,
0001
0000
0001
0000
,
0100
0100
0100
0000
,
0010
0000
0010
0000
,
1000
1000
1000
0000
,
0001
0000
0001
0000
,
0010
0010
0010
0100
,
1000
0000
0000
0001
,
0100
0000
0000
1000
,
0100
0000
0000
0010
,
0001
0001
0001
1000
,
0100
0000
0000
0001
,
0010
0000
0000
0100
,
0010
0000
0000
1000
,
0100
0100
0100
0010
,
0001
0000
0000
1000
,
0010
0000
0000
0100
,
0001
0000
0000
0010
,
0100
0100
0100
1000
,
0001
0000
0000
0100
,
0010
0000
0000
1000
,
0100
0000
0000
0010
,
0001
0000
0000
0000
,
0000
1000
0000
0000
;

//---------------dance-single - ----------------
#NOTES:
     dance-single:
     :
     Medium:
     6:
     0.355,0.369,0.000,0.000,0.000:
0000
0000
0000
0000
,
0000
0000
0000
0000
,
0000
0000
0000
0000
,
0000
0000
0000
0000
,
0000
0000
0000
0000
,
0000
1000
0000
0100
0000
0010
0000
0001
,
0000
0001
0000
0100
0000
0010
0000
1000
,
0000
1000
0000
0001
0000
0100
0000
0010
,
0000
1000
0000
0100
0000
0010
0001
0000
,
1000
0000
1000
0000
0010
0100
0000
0000
,
0001
0000
0001
0000
0010
0100
1000
0000
,
0010
0000
0010
0000
0100
0001
0000
0000
,
1000
0000
1000
0000
0100
0010
0001
0000
,
0100
0000
0100
0000
0010
1000
0000
0000
,
0001
0000
0001
0000
0010
0100
1000
0000
,
0001
0000
0001
0000
0100
0010
0000
0000
,
1000
0000
1000
0000
0100
0010
0001
0000
,
1000
0000
1000
0000
0000
0100
0000
0000
,
0010
0000
0010
0000
0000
0001
0000
0000
,
1000
0000
1000
0000
0000
0010
0000
0000
,
0100
0000
0100
0000
0000
0001
0000
0000
,
0010
0000
0010
0000
0000
0100
0000
0000
,
1000
0000
1000
0000
0000
0001
0000
0000
,
0100
0100
0010
0010
,
1000
0100
0010
0001
,
0100
0010
0100
0000
0001
0000
0001
0000
,
1000
0100
1000
0000
0010
0000
0010
0000
,
0100
0001
0100
0000
0010
0000
0010
0000
,
1000
0100
1000
0000
0001
0000
0100
0000
,
0010
1000
0010
0000
0100
0000
0100
0000
,
0001
0010
0001
0000
1000
0000
1000
0000
,
0010
0100
0010
0000
1000
0000
1000
0000
,
0001
0100
0001
0000
0010
0000
0010
0000
,
0100
0000
1000
0000
0010
0010
0100
0000
,
0001
0000
1000
0000
0100
0100
0010
0000
,
0001
0000
0100
0000
0010
0010
1000
0000
,
0001
0000
0010
0000
0100
0100
1000
0000
,
0010
0000
0100
0000
0001
0001
1000
0000
,
0010
0000
0100
0000
0001
0001
0010
0000
,
0100
0000
1000
0000
0010
0010
0100
0000
,
0001
0000
1000
0000
0100
0100
0000
0000
,
0001
0000
0001
0000
0010
0100
0010
0000
,
0000
0000
1000
0000
0001
0100
0001
0000
,
1000
0000
1000
0000
0100
0010
0100
0000
,
0000
0000
0001
0000
1000
0100
1000
0000
,
0001
0000
0100
0000
0010
1000
0010
0000
,
0000
0000
0001
0000
0010
0100
0010
0000
,
0001
0000
1000
0000
0010
0100
0010
0000
,
0000
0000
1000
0000
0100
0010
0100
0000
,
1000
0000
0001
0000
0100
0010
1000
0000
,
0100
0010
0001
0000
0100
0000
0010
0000
,
1000
0000
0100
0000
0010
0001
0100
0000
,
0010
1000
0100
0000
0010
0000
0001
0000
,
0100
0000
0010
0000
1000
0100
0010
0000
,
0001
0100
0010
0000
1000
0001
0100
0000
,
0010
0000
1000
0000
0100
0010
0001
0000
,
1000
0010
0100
0001
,
1000
0000
0000
0000
,
0000
0100
0000
0000
;

//---------------dance-single - ----------------
#NOTES:
     dance-single:
     :
     Hard:
     8:
     0.537,0.523,0.000,0.000,0.085:
0000
0000
0000
0000
,
0000
0000
0000
0000
,
0000
0000
0000
0000
,
0000
0000
0000
0000
,
0000
0000
0000
0000
,
0000
1000
0000
0000
0000
1000
0000
0000
,
0000
0001
0100
0000
0010
0000
0000
0000
,
0000
1000
0000
0000
0000
1000
0000
0000
,
0000
0100
0010
0000
0001
0000
1000
0000
,
0010
0100
0001
1000
0100
0010
0000
0000
,
0001
1000
0010
0100
0001
1000
0000
0000
,
0100
0010
0001
0100
0010
1000
0000
0000
,
0001
0100
0010
1000
0100
0010
0000
0000
,
0001
1000
0010
0100
0001
1000
0000
0000
,
0100
0010
0001
0100
0010
1000
0001
0000
,
0010
0100
1000
0010
0100
0001
1000
0100
,
0010
0001
1000
0010
0100
0001
1000
0000
,
0010
0100
0001
0000
0010
0100
1000
0000
,
0001
0100
0010
1000
0001
0010
0100
0000
,
1000
0010
0100
0000
0001
0010
0100
0000
,
1000
0010
0100
0001
0010
0100
1000
0000
,
0001
0100
0010
0000
1000
0100
0010
0000
,
0001
1000
0100
0010
0001
0100
0010
0000
,
1000
0100
1000
0000
0001
0100
0001
0000
,
1000
0010
1000
0000
0001
0010
0001
0000
,
1000
0100
0010
0001
0100
0010
0010
0000
,
1000
0001
0100
0010
1000
0100
0100
0000
,
0010
0001
0100
0010
1000
0100
0100
0010
,
0001
1000
0010
0100
0001
1000
1000
0000
,
0010
0100
0001
0010
0100
1000
1000
0000
,
0010
0100
0001
1000
0100
0010
0010
0000
,
0001
1000
0010
0100
0001
0010
0100
1000
,
0001
0100
0010
1000
0100
0010
0001
0000
,
0100
0000
0100
0000
0010
0000
0000
1000
0100
1000
0001
0000
0100
0000
0000
0000
,
0010
0000
0010
0000
1000
0000
0000
0100
0010
0100
1000
0000
0001
0000
0000
0000
,
0100
0000
0100
0000
0010
0000
0000
1000
0001
0100
0010
0000
1000
0000
0000
0000
,
0001
0000
0001
0000
0010
0000
0000
0100
1000
0001
0100
0000
0010
0000
0000
0000
,
1000
0000
1000
0000
0001
0000
0000
0010
0100
1000
0010
0000
0100
0000
0000
0000
,
0001
0000
0001
0000
1000
0000
0000
0100
0010
0001
0100
0000
0010
0000
0000
0000
,
1000
0000
1000
0000
0100
0000
0000
0010
0001
1000
0010
0000
0100
0000
0000
0000
,
0001
0000
0001
0000
0010
0000
0000
0100
1000
0001
0100
0000
0000
0000
0000
0000
,
0010
0010
1000
0001
0010
0100
1000
0000
,
0001
0001
0100
0010
1000
0100
0010
0000
,
0001
0001
1000
0100
0010
0001
0100
0000
,
0010
0010
1000
0100
0010
0001
0100
0000
,
0010
0010
1000
0100
0010
0001
1000
0000
,
0100
0100
0010
0001
0100
0010
1000
0000
,
0001
0001
0010
0100
1000
0010
0100
0000
,
0001
0001
1000
0100
0010
0001
1000
0000
,
0010
0010
0100
0001
1000
0100
0010
0001
,
0001
0001
0100
0010
1000
0100
0010
0001
,
0001
0001
1000
0010
0100
0001
0010
0100
,
0100
0100
1000
0010
0100
0001
1000
0100
,
0100
0100
0010
0001
1000
0010
0100
0001
,
0001
0001
1000
0100
0010
0001
0100
0010
,
0010
0010
1000
0001
0100
0010
1000
0100
,
0100
0100
0010
0001
0100
0010
1000
0000
,
0001
0000
0000
0000
,
0000
0100
0000
0000
;

//---------------dance-double - ----------------
#NOTES:
     dance-double:
     :
     Easy:
     4:
     0.214,0.246,0.000,0.000,0.000: // measure 1
00000000
00000000
00000000
00000000
,  // measure 2
00000000
00000000
00000000
00000000
,  // measure 3
00000000
00000000
00000000
00000000
,  // measure 4
00000000
00000000
00000000
00000000
,  // measure 5
00000000
00000000
00000000
00000000
,  // measure 6
00010000
00000000
00001000
00000000
,  // measure 7
00100000
00000000
00010000
00000000
,  // measure 8
01000000
00000000
00001000
00000000
,  // measure 9
00010000
00000000
00000010
00000010
,  // measure 10
00001000
00000001
00000100
00000000
,  // measure 11
00000010
00000000
00010000
00000000
,  // measure 12
00001000
00100000
01000000
00000000
,  // measure 13
10000000
00000000
00010000
00000000
,  // measure 14
01000000
00001000
00010000
00000000
,  // measure 15
00000010
00000000
00000100
00000000
,  // measure 16
00000001
00001000
00000100
00000000
,  // measure 17
00010000
00000000
00001000
00000000
,  // measure 18
00100000
00010000
10000000
00000000
,  // measure 19
01000000
00100000
00001000
00010000
,  // measure 20
00000010
00001000
00000001
00000000
,  // measure 21
00000010
00000100
00010000
00001000
,  // measure 22
00100000
00010000
10000000
00000000
,  // measure 23
00100000
01000000
00001000
00010000
,  // measure 24
00000010
00000000
00001000
00000000
,  // measure 25
00000001
00000000
00000000
00000000
,  // measure 26
00000010
00000100
00010000
00001000
,  // measure 27
00100000
00010000
10000000
00000000
,  // measure 28
00100000
01000000
00001000
00010000
,  // measure 29
00000010
00001000
00000001
00000000
,  // measure 30
00000010
00000100
00001000
00000001
,  // measure 31
00000100
00000010
00001000
00000000
,  // measure 32
00000100
00010000
00001000
00100000
,  // measure 33
00010000
10000000
01000000
00000000
,  // measure 34
00100000
00100000
00100000
00000000
,  // measure 35
00001000
00000000
00001000
00000000
,  // measure 36
00010000
00010000
00010000
00000000
,  // measure 37
00000100
00000000
00000100
00000000
,  // measure 38
00000010
00000001
00001000
00000000
,  // measure 39
00000010
00000000
00000010
00000000
,  // measure 40
00010000
00001000
00100000
00000000
,  // measure 41
00010000
00000000
10000000
00000000
,  // measure 42
01000000
00100000
00001000
00000000
,  // measure 43
00010000
00000100
00000010
00000000
,  // measure 44
00000001
00001000
00000100
00000000
,  // measure 45
00010000
00001000
00100000
00000000
,  // measure 46
00010000
01000000
00001000
00000000
,  // measure 47
00010000
00000010
00001000
00000000
,  // measure 48
00000100
00010000
00001000
00000000
,  // measure 49
00100000
00010000
10000000
00000000
,  // measure 50
01000000
00000000
00001000
00000000
,  // measure 51
00000000
00000000
00000100
00000000
,  // measure 52
00000010
00000000
00000000
00000000
,  // measure 53
00000000
00000001
00000100
00000010
,  // measure 54
00010000
00000000
00001000
00000000
,  // measure 55
00000000
00000000
00000000
00000000
,  // measure 56
00100000
00010000
10000000
00000000
,  // measure 57
01000000
00010000
00001000
00000000
,  // measure 58
00000100
00000000
00000000
00000000
,  // measure 59
00000000
00100000
00000000
00000000
;

//---------------dance-double - ----------------
#NOTES:
     dance-double:
     :
     Medium:
     6:
     0.346,0.338,0.127,0.000,0.000: // measure 1
00000000
00000000
00000000
00000000
,  // measure 2
00000000
00000000
00000000
00000000
,  // measure 3
00000000
00000000
00000000
00000000
,  // measure 4
00000000
00000000
00000000
00000000
,  // measure 5
00000000
00000000
00000000
00000000
,  // measure 6
10000000
00000000
10000000
00000000
,  // measure 7
10000000
00000000
00000000
00010000
00000000
00010000
00000000
00000000
,  // measure 8
01000000
00000000
01000000
00000000
,  // measure 9
01000000
00000000
00000000
00001000
00000000
00001000
00000000
00000000
,  // measure 10
00010000
00000000
00001000
00000000
00010000
00000010
00001000
00000000
,  // measure 11
00000001
00000001
00000010
00000010
,  // measure 12
00000100
00000000
00010000
00000000
00001000
00100000
00010000
00000000
,  // measure 13
10000000
10000000
01000000
01000000
,  // measure 14
00100000
00000000
00010000
00000000
01000000
00001000
00010000
00000000
,  // measure 15
00000010
00000010
00001000
00001000
,  // measure 16
00000001
00000000
00000010
00000000
00000100
00010000
00001000
00000000
,  // measure 17
00100000
00100000
00010000
00010000
,  // measure 18
10010000
00000000
00000000
00000000
11000000
00000000
00000000
00110000
,  // measure 19
00000000
00000000
00000000
00001000
00000000
00010000
00000000
00000000
,  // measure 20
00001001
00000000
00000000
00000000
00000011
00000000
00000000
00001100
,  // measure 21
00000000
00000000
00000000
00010000
00000000
00001000
00000000
00000000
,  // measure 22
00110000
00000000
00000000
00000000
11000000
00000000
00000000
00101000
,  // measure 23
00000000
00000000
00000000
00010000
00000000
00000100
00000000
00000000
,  // measure 24
00001001
00000000
00000110
00000000
,  // measure 25
00001001
00000000
00000000
00000000
,  // measure 26
00000100
00000000
00010000
00000000
00001000
00100000
00010000
00000000
,  // measure 27
10000000
00000000
01000000
00000000
00100000
00010000
01000000
00000000
,  // measure 28
00001000
00000000
00010000
00000000
00000010
00001000
00000001
00000000
,  // measure 29
00000010
00000000
00000100
00000000
00010000
00001000
00100000
00000000
,  // measure 30
00010000
00000000
10000000
00000000
00100000
01000000
00010000
00000000
,  // measure 31
00100000
00000000
00001000
00000000
00010000
00000100
00001000
00000000
,  // measure 32
00000001
00000000
00000100
00000000
00000010
00001000
00000100
00000000
,  // measure 33
00010000
00000000
00001000
00000000
00100000
00010000
10000000
00000000
,  // measure 34
01000000
00000000
00100000
00000000
00001000
00010000
00000100
00000000
,  // measure 35
00001000
00000000
00000010
00000000
00010000
00001000
01000000
00000000
,  // measure 36
00010000
00000000
00100000
00000000
00001000
00010000
00000100
00000000
,  // measure 37
00001000
00000000
00000010
00000000
00010000
00001000
01000000
00000000
,  // measure 38
00010000
00000000
10000000
00000000
01000000
00100000
00001000
00000000
,  // measure 39
00010000
00000000
00000100
00000000
00000010
00000001
00001000
00000000
,  // measure 40
00000010
00000000
00010000
00000000
00001000
01000000
00010000
00000000
,  // measure 41
10000000
00000000
01000000
00100000
00010000
00000000
00000000
00000000
,  // measure 42
01000000
00000000
00001000
00000000
00010000
00000010
00001000
00000000
,  // measure 43
00000001
00000000
00000010
00000000
00000100
00010000
00001000
00000000
,  // measure 44
00100000
00000000
01000000
00000000
10000000
00100000
01000000
00000000
,  // measure 45
00001000
00000000
00010000
00000000
00000010
00001000
00000001
00000000
,  // measure 46
00000010
00000000
00000100
00000000
00010000
00001000
00100000
00000000
,  // measure 47
00010000
00000000
10000000
00000000
01000000
00100000
00001000
00000000
,  // measure 48
00010000
00000000
00000010
00000000
00001000
00000001
00000010
00000000
,  // measure 49
00000100
00000000
00010000
00000000
00001000
00100000
00010000
00000000
,  // measure 50
10000000
00000000
01000000
00000000
,  // measure 51
00100000
00010000
01000000
00000000
00001000
00010000
00000010
00000000
,  // measure 52
00001000
00000000
00000001
00000000
,  // measure 53
00000010
00000100
00001000
00000000
00000010
00000100
00000001
00000000
,  // measure 54
00001000
00000000
00000100
00000000
,  // measure 55
00010000
00001000
00100000
00000000
00010000
10000000
01000000
00000000
,  // measure 56
00100000
00000000
00001000
00000000
,  // measure 57
00010000
00000010
00001000
00000000
00000001
00000010
00000100
00000000
,  // measure 58
00010000
00000000
00000000
00000000
,  // measure 59
00000000
10000000
00000000
00000000
;

//---------------dance-double - ----------------
#NOTES:
     dance-double:
     :
     Hard:
     8:
     0.500,0.523,0.000,0.000,0.037: // measure 1
00000000
00000000
00000000
00000000
,  // measure 2
00000000
00000000
00000000
00000000
,  // measure 3
00000000
00000000
00000000
00000000
,  // measure 4
00000000
00000000
00000000
00000000
,  // measure 5
00000000
00000000
00000000
00000000
,  // measure 6
10000000
01000000
00100000
00000000
,  // measure 7
00001000
00000000
00001000
00000000
,  // measure 8
00010000
00000100
00000010
00000000
,  // measure 9
00000001
00000000
00000001
00000000
,  // measure 10
00000010
00000000
00000100
00010000
00001000
00100000
00000000
00000000
,  // measure 11
00100000
00000000
00010000
10000000
00100000
01000000
00010000
00000000
,  // measure 12
00010000
00000000
00100000
00001000
00010000
00000100
00000000
00000000
,  // measure 13
00000100
00000000
00001000
00000001
00000100
00000010
00001000
00000000
,  // measure 14
00001000
00000000
00000100
00010000
00001000
00100000
00000000
00000000
,  // measure 15
00100000
00000000
00010000
10000000
01000000
00100000
00010000
00000000
,  // measure 16
00010000
00000000
01000000
00001000
00010000
00000010
00000000
00000000
,  // measure 17
00000010
00000000
00001000
00000001
00000010
00000100
00001000
00000000
,  // measure 18
00000010
00010000
00001000
00100000
00010000
10000000
00000000
10000000
,  // measure 19
00100000
01000000
00010000
00100000
00001000
00010000
00000000
00010000
,  // measure 20
00000100
00001000
00000001
00000100
00000010
00010000
00000000
00010000
,  // measure 21
00001000
00100000
00010000
10000000
00100000
01000000
00000000
01000000
,  // measure 22
00010000
00100000
00001000
00010000
00000100
00001000
00000000
00001000
,  // measure 23
00000001
00000100
00000010
00001000
00000100
00010000
00000000
00010000
,  // measure 24
00001000
00100000
00010000
00000000
10000000
00100000
01000000
00000000
,  // measure 25
00010000
00100000
00001000
00000000
00010000
00000100
00000100
00000000
,  // measure 26
00001000
00000001
00000100
00000010
00001000
00000100
00000100
00000000
,  // measure 27
00010000
00001000
00100000
00010000
10000000
01000000
01000000
00000000
,  // measure 28
00100000
00001000
00010000
00000100
00001000
00000001
00000001
00000000
,  // measure 29
00000100
00000010
00001000
00000100
00010000
00001000
00001000
00000000
,  // measure 30
00100000
00010000
10000000
01000000
00100000
00010000
00010000
00000000
,  // measure 31
01000000
00001000
00010000
00000010
00001000
00000001
00000001
00000000
,  // measure 32
00000010
00000100
00001000
00000010
00010000
00001000
00001000
00000000
,  // measure 33
00100000
00010000
10000000
01000000
00100000
00010000
00010000
00000000
,  // measure 34
01000000
00000000
01000000
00000000
00001000
00000000
00010000
00000000
00000100
00001000
00000001
00000000
00000100
00000000
00000000
00000000
,  // measure 35
00000010
00000000
00000010
00000000
00010000
00000000
00001000
00000000
00100000
00010000
10000000
00000000
01000000
00000000
00000000
00000000
,  // measure 36
00100000
00000000
00100000
00000000
00001000
00000000
00010000
00000000
00000100
00001000
00000001
00000000
00000010
00000000
00000000
00000000
,  // measure 37
00000100
00000000
00000100
00000000
00010000
00000000
00001000
00000000
01000000
00010000
10000000
00000000
00100000
00000000
00000000
00000000
,  // measure 38
01000000
00000000
01000000
00000000
00001000
00000000
00010000
00000000
00000100
00001000
00000010
00000000
00000100
00000000
00000000
00000000
,  // measure 39
00000001
00000000
00000001
00000000
00001000
00000000
00000100
00000000
00010000
00001000
00100000
00000000
00010000
00000000
00000000
00000000
,  // measure 40
10000000
00000000
10000000
00000000
01000000
00000000
00100000
00000000
00001000
00010000
00000100
00000000
00001000
00000000
00000000
00000000
,  // measure 41
00000001
00000001
00000010
00000100
00010000
00000000
00000000
00000000
,  // measure 42
00001000
00000000
00100000
00010000
10000000
00000000
01000000
00000000
,  // measure 43
00100000
00010000
01000000
00001000
00010000
00000010
00001000
00000000
,  // measure 44
00000001
00000000
00000010
00000100
00001000
00000000
00000010
00000000
,  // measure 45
00010000
00001000
00100000
00010000
10000000
01000000
00100000
00000000
,  // measure 46
00010000
00000000
01000000
00001000
00010000
00000000
00000010
00000000
,  // measure 47
00001000
00000001
00000010
00000100
00001000
00000010
00010000
00000000
,  // measure 48
00001000
00000000
00100000
00010000
10000000
00000000
01000000
00000000
,  // measure 49
00100000
00001000
00010000
00000100
00001000
00000001
00000100
00000000
,  // measure 50
00000010
00001000
00000100
00000000
00010000
00001000
00100000
00010000
,  // measure 51
10000000
01000000
00100000
00000000
00010000
01000000
00001000
00010000
,  // measure 52
00000010
00001000
00000001
00000000
00000010
00000100
00001000
00000010
,  // measure 53
00010000
00001000
00100000
00000000
00010000
01000000
00100000
10000000
,  // measure 54
01000000
00100000
00010000
00000000
01000000
00001000
00010000
00000100
,  // measure 55
00001000
00000001
00000100
00000000
00000010
00001000
00000100
00010000
,  // measure 56
00001000
00100000
00010000
00000000
10000000
01000000
00100000
00010000
,  // measure 57
01000000
00001000
00010000
00000000
00000010
00001000
00000001
00000010
,  // measure 58
00000100
00000000
00000000
00000000
,  // measure 59
00000000
00100000
00000000
00000000
;

//---------------dance-couple - ----------------
#NOTES:
     dance-couple:
     :
     Challenge:
     7:
     0.558,0.831,0.919,0.000,0.042:
00000000
00000000
00000000
00000000
,
00000000
00000000
00000000
00000000
,
00000000
00000000
00000000
00000000
,
00000000
00000000
00000000
00000000
,
00000000
00000000
00000000
00000000
,
00000000
10000001
00000000
01000100
00000000
00100010
00000000
00011000
,
00000000
00011000
00000000
01000100
00000000
00100010
00000000
10000001
,
00000000
10000001
00000000
00011000
00000000
01000100
00000000
00100010
,
00000000
10000001
00000000
01000100
00000000
00100010
00011000
00000000
,
10000000
00000000
10000001
00000000
00100000
01000000
00000000
00000000
,
00010000
00000000
00010001
00000000
00100000
01000000
10000000
00000000
,
00100000
00000000
00100001
00000000
01000000
00010000
00000000
00000000
,
10000000
00000000
10000001
00000000
01000000
00100000
00010000
00000000
,
00000100
00000000
10000100
00000000
00000010
00001000
00000000
00000000
,
00000001
00000000
10000001
00000000
00000010
00000100
00001000
00000000
,
00000001
00000000
10000001
00000000
00000100
00000010
00000000
00000000
,
00001000
00000000
10001000
00000000
00000100
00000010
00000001
00000000
,
10000000
10000000
00000000
00010001
,
00000000
01000000
00000000
10000001
,
00000000
01000000
00000000
00100001
,
00000000
00010000
00000000
10000001
,
00000100
00000100
00000000
10000010
,
00000000
00000001
00000000
10001000
,
00000000
00000010
00000000
10000100
,
00000000
00000001
00000000
10001000
,
01000000
00100000
01000000
00000000
10000000
00000000
10000000
00000000
,
00000100
00000010
00000100
00000000
00001000
00000000
00001000
00000000
,
00010000
01000000
00010000
00000000
00100000
00000000
00100000
00000000
,
00000001
00000100
00000001
00000000
00000010
00000000
00000010
00000000
,
10000000
00100000
10000000
00000000
00010000
00000000
00010000
00000000
,
00001000
00000010
00001000
00000000
00000001
00000000
00000001
00000000
,
00100000
01000000
00100000
00000000
00010000
00000000
00010000
00000000
,
00000010
00000100
00000010
00000000
00000001
00000000
00000001
00000000
,
01000100
00000000
00010000
00000000
00100100
00100000
01000000
00000000
,
10000100
00000000
00010000
00000000
01000100
01000000
00100000
00000000
,
10000001
00000000
00000100
00000000
10000010
00000010
00001000
00000000
,
10000001
00000000
00000010
00000000
10000100
00000100
00001000
00000000
,
10000001
00000000
10000000
00000000
00010000
00000000
00000000
00100000
01000001
10000000
00100000
00000000
01000000
00000000
00000000
00000000
,
00010001
00000000
00010000
00000000
10000000
00000000
00000000
01000000
00100001
00010000
01000000
00000000
00100000
00000000
00000000
00000000
,
10001000
00000000
00001000
00000000
00000100
00000000
00000000
00000010
10000001
00001000
00000010
00000000
00000100
00000000
00000000
00000000
,
10000001
00000000
00000001
00000000
00000010
00000000
00000000
00000100
10001000
00000001
00000100
00000000
00000010
00000000
00000000
00000000
,
00100100
00100000
10000000
00010000
00100000
01000000
10000001
00000000
,
00011000
00010000
01000000
00100000
10000000
01000000
00100100
00000000
,
00010010
00010000
10000000
01000000
00100000
00010000
01000001
00000000
,
00101000
00100000
10000000
01000000
00100000
00010000
01000100
00000000
,
00100010
00000010
00000001
00001000
00000010
00000100
10000001
00000000
,
01001000
00001000
00000100
00000010
00000001
00000100
00100010
00000000
,
00011000
00001000
00000001
00000100
00000010
00001000
01000100
00000000
,
00100010
00000010
00000001
00000100
00000010
00001000
10000100
00000000
,
00100001
00100000
01000000
00010000
10000000
01000000
00100000
00010000
,
00010001
00010000
01000000
00100000
10000000
01000000
00100000
00010000
,
00010001
00010000
10000000
00100000
01000000
00010000
00100000
01000000
,
10000100
00000100
00001000
00000010
00000100
00000001
00001000
00000100
,
10000100
00000100
00000010
00000001
00001000
00000010
00000100
00000001
,
10000001
00000001
00001000
00000100
00000010
00000001
00000100
00000010
,
00100010
00100010
10001000
00010001
01000100
00100010
10001000
01000100
,
01000100
01000100
00100010
00010001
01000100
00100010
10001000
00000000
,
00010001
00000000
00000000
00000000
,
00000000
01000100
00000000
00000000
;

//---------------dance-solo - ----------------
#NOTES:
     dance-solo:
     :
     Easy:
     3:
     0.189,0.215,0.011,0.000,0.000:
000000
000000
000000
000000
,
000000
000000
000000
000000
,
000000
000000
000000
000000
,
000000
000000
000000
000000
,
000000
000000
000000
000000
,
000000
010000
000000
000000
000000
000000
000000
000000
,
000000
000010
000000
000000
000000
000000
000000
000000
,
000000
010000
000000
000000
000000
000000
000000
000000
,
000000
000010
000000
000000
000000
000000
000001
000000
,
000000
000000
100000
000000
000000
100000
000000
000000
,
000000
000000
000001
000000
000000
000001
000000
000000
,
000000
000000
010000
000000
000000
010000
000000
000000
,
000000
000000
000010
000000
000000
000010
000000
000000
,
000000
000000
100000
000000
000000
001000
000000
000000
,
000000
000000
000100
000000
000000
000001
000000
000000
,
000000
000000
010000
000000
000000
000100
000000
000000
,
000000
000000
000010
000000
000000
000100
000000
000000
,
100000
100000
000000
000001
,
000000
001000
000000
000100
,
000000
100000
000000
000010
,
000000
010000
000000
000001
,
001000
001000
000000
000100
,
000000
100000
000000
000010
,
000000
010000
000000
001000
,
000000
000100
000000
000001
,
001000
000000
001000
000000
000000
000100
000000
000000
,
100000
000010
100000
000000
,
000001
000000
000001
000000
000000
000100
000000
000000
,
001000
010000
001000
000000
,
000100
000000
000100
000000
000000
000001
000000
000000
,
010000
000010
010000
000000
,
000001
000000
000001
000000
000000
000100
000000
000000
,
001000
000000
001000
000000
000000
100000
000000
000000
,
000001
000001
000001
000000
,
001000
000000
001000
000000
,
000010
000010
000010
000000
,
100000
000000
100000
000000
,
000100
000100
000100
000000
,
010000
000000
010000
000000
,
000001
000001
000001
000000
,
000100
000000
000100
000000
,
001000
001000
001000
010000
,
000100
000000
000000
000010
,
000100
000000
000000
010100
,
000000
000000
000000
000010
,
001000
001000
001000
000001
,
100000
000000
000000
000010
,
010000
000000
000000
000001
,
100000
000000
000000
010000
,
001000
001000
001000
000100
,
000001
000000
000000
010000
,
001000
000000
000000
000100
,
000001
000000
000000
010000
,
000010
000010
000010
100000
,
000100
000000
000000
001000
,
000010
000000
000000
100000
,
000100
000000
000000
001000
,
000010
000000
000000
000000
,
000000
010000
000000
000000
;

//---------------dance-solo - ----------------
#NOTES:
     dance-solo:
     :
     Medium:
     6:
     0.355,0.369,0.000,0.000,0.000:
000000
000000
000000
000000
,
000000
000000
000000
000000
,
000000
000000
000000
000000
,
000000
000000
000000
000000
,
000000
000000
000000
000000
,
000000
100000
000000
001000
000000
010000
000000
000001
,
000000
000100
000000
001000
000000
010000
000000
000001
,
000000
100000
000000
000100
000000
001000
000000
000010
,
000000
100000
000000
001000
000000
000100
000001
000000
,
010000
000000
010000
000000
000100
001000
000000
000000
,
000010
000000
000010
000000
000100
001000
010000
000000
,
000001
000000
000001
000000
100000
000010
000000
000000
,
010000
000000
010000
000000
000001
000100
001000
000000
,
010000
000000
010000
000000
000001
100000
000000
000000
,
000010
000000
000010
000000
010000
000001
000100
000000
,
001000
000000
001000
000000
010000
000001
000000
000000
,
100000
000000
100000
000000
000100
001000
000010
000000
,
100000
000000
100000
000000
000000
001000
000000
000000
,
010000
000000
010000
000000
000000
000001
000000
000000
,
000100
000000
000100
000000
000000
000010
000000
000000
,
001000
000000
001000
000000
000000
000100
000000
000000
,
100000
000000
100000
000000
000000
000010
000000
000000
,
010000
000000
010000
000000
000000
000001
000000
000000
,
000100
000100
001000
001000
,
010000
000001
001000
000100
,
100000
001000
100000
000000
000001
000000
000001
000000
,
010000
000010
010000
000000
000100
000000
000100
000000
,
100000
000010
100000
000000
001000
000000
001000
000000
,
010000
000001
010000
000000
000010
000000
100000
000000
,
000100
001000
000100
000000
000010
000000
000010
000000
,
100000
000001
100000
000000
001000
000000
001000
000000
,
010000
000001
010000
000000
000010
000000
000010
000000
,
100000
000100
100000
000000
001000
000000
001000
000000
,
010000
000000
000001
000000
000100
000100
001000
000000
,
100000
000000
000001
000000
001000
001000
000010
000000
,
100000
000000
000100
000000
010000
010000
000010
000000
,
000100
000000
000001
000000
001000
001000
000010
000000
,
100000
000000
000100
000000
001000
001000
000010
000000
,
100000
000000
000001
000000
010000
010000
001000
000000
,
000100
000000
000001
000000
010000
010000
000010
000000
,
100000
000000
000100
000000
001000
001000
000000
000000
,
000010
000000
000010
000000
100000
001000
100000
000000
,
000000
000000
000001
000000
010000
000100
010000
000000
,
001000
000000
001000
000000
000100
000001
000100
000000
,
000000
000000
000010
000000
010000
000100
010000
000000
,
001000
000000
100000
000000
000001
010000
000001
000000
,
000000
000000
001000
000000
000010
100000
000010
000000
,
010000
000000
000001
000000
000100
001000
000100
000000
,
000000
000000
000001
000000
010000
000010
010000
000000
,
000100
000000
100000
000000
000010
010000
000001
000000
,
000100
000010
010000
000000
000100
000000
100000
000000
,
001000
000000
000100
000000
000001
010000
000010
000000
,
100000
000100
001000
000000
000010
000000
100000
000000
,
000001
000000
010000
000000
001000
000100
000001
000000
,
010000
000010
000100
000000
000001
100000
001000
000000
,
000100
000000
000001
000000
010000
000010
000100
000000
,
000001
001000
000100
100000
,
000010
000000
000000
000000
,
000000
010000
000000
000000
;

//---------------dance-solo - ----------------
#NOTES:
     dance-solo:
     :
     Hard:
     8:
     0.525,0.523,0.000,0.000,0.085:
000000
000000
000000
000000
,
000000
000000
000000
000000
,
000000
000000
000000
000000
,
000000
000000
000000
000000
,
000000
000000
000000
000000
,
000000
000010
000000
000010
000000
000010
000000
000000
,
000100
000001
000000
010000
000000
010000
000000
000000
,
000000
000010
000000
000010
000000
000010
000000
000000
,
000000
100000
000001
000000
001000
000000
001000
000000
,
000010
100000
000001
010000
001000
000100
000000
000000
,
000001
100000
000100
001000
000010
100000
000000
000000
,
001000
010000
000001
001000
000010
100000
000000
000000
,
000001
010000
001000
000100
000001
100000
000000
000000
,
000100
001000
000010
100000
000001
010000
000000
000000
,
001000
000100
000001
010000
000010
100000
000001
000000
,
000100
001000
010000
000001
001000
000010
100000
001000
,
000100
000001
010000
000010
001000
000100
100000
000000
,
000001
010000
001000
000000
000100
000001
010000
000000
,
000100
100000
000010
010000
001000
000100
000001
000000
,
010000
000010
001000
000000
000100
100000
000010
000000
,
010000
001000
000100
000001
100000
000100
001000
000000
,
000010
100000
001000
000000
000100
000001
010000
000000
,
000100
001000
000001
100000
000010
001000
000100
000000
,
100000
000010
100000
000000
001000
010000
001000
000000
,
000100
000001
000100
000000
000010
010000
000010
000000
,
100000
000100
001000
000010
100000
000001
000001
000000
,
010000
001000
000100
000001
100000
000100
000100
000000
,
001000
000010
100000
000001
000100
001000
001000
010000
,
000001
001000
000100
100000
000010
010000
010000
000000
,
001000
000100
000001
010000
000010
100000
100000
000000
,
000100
001000
000001
100000
001000
010000
010000
000000
,
000001
001000
000100
100000
000010
010000
001000
000100
,
000001
001000
000100
100000
000010
010000
001000
000000
,
000100
000000
000100
000000
000001
000000
000000
010000
000010
100000
000100
000000
001000
000000
000000
000000
,
000010
000000
000010
000000
100000
000000
000000
000001
010000
001000
000100
000000
000001
000000
000000
000000
,
100000
000000
100000
000000
000010
000000
000000
001000
000100
100000
001000
000000
010000
000000
000000
000000
,
000001
000000
000001
000000
000100
000000
000000
001000
010000
000001
100000
000000
000010
000000
000000
000000
,
001000
000000
001000
000000
000100
000000
000000
100000
001000
010000
000001
000000
001000
000000
000000
000000
,
000010
000000
000010
000000
100000
000000
000000
001000
000100
000001
001000
000000
000010
000000
000000
000000
,
100000
000000
100000
000000
000100
000000
000000
001000
000001
100000
001000
000000
010000
000000
000000
000000
,
000001
000000
000001
000000
000100
000000
000000
000010
010000
000100
100000
000000
000000
000000
000000
000000
,
001000
001000
010000
000001
100000
000100
001000
000000
,
000010
000010
100000
001000
010000
000001
000100
000000
,
000010
000010
010000
000100
100000
001000
000100
000000
,
000001
000001
010000
000010
001000
000100
100000
000000
,
001000
001000
010000
000001
100000
000010
001000
000000
,
000100
000100
100000
000010
010000
000100
001000
000000
,
000010
000010
100000
000001
010000
001000
000100
000000
,
000001
000001
100000
000100
001000
000010
100000
000000
,
001000
010000
000001
000000
100000
000010
001000
000000
,
000100
100000
000010
010000
000001
000100
001000
000000
,
010000
000001
100000
000000
000010
001000
000100
000000
,
100000
000010
010000
000001
000100
001000
010000
000000
,
000001
001000
000010
000000
100000
000001
010000
000000
,
001000
000100
000001
010000
000010
100000
000100
000000
,
001000
000001
100000
000000
001000
010000
000001
000000
,
000100
000010
001000
000001
000100
001000
010000
000000
,
000001
000000
000000
000000
,
000000
100000
000000
000000
;

//---------------dance-single - Edit by silenttype01----------------
#NOTES:
     dance-single:
     Edit by silenttype01:
     Challenge:
     9:
     0.690,1.000,0.000,0.000,0.343:
0000
0000
0000
0000
,
0000
0000
0000
0000
,
0000
0000
0000
0000
,
0001
0000
0000
0000
0100
0000
0000
0010
,
0000
0000
0000
1000
0000
0100
0000
0000
,
0010
0000
0001
0000
,
0100
0000
0000
0010
0000
1000
0000
0000
,
0100
0000
0000
0000
0010
0000
0000
0001
,
0000
0000
0000
0100
0000
0010
0000
0000
,
1000
0001
0100
0010
1000
0001
0000
0000
,
1000
0010
0100
0001
1000
0010
0010
0000
,
1000
0100
1000
0001
0010
1000
0000
0000
,
0010
0001
1000
0100
1000
0001
0010
0000
,
0001
0000
0100
0000
0010
0000
1000
0001
1000
0000
0010
0000
0100
0000
0000
0100
,
0010
0000
1000
0000
0001
0000
1000
0100
1000
0000
0001
0000
0010
0000
0000
0010
,
0001
0000
1000
0000
0010
0000
0100
0001
0100
0000
0010
0000
1000
0000
0000
1000
,
0010
0000
0100
0000
0001
0000
0010
0100
0010
0000
0100
0000
1000
0001
1000
0001
,
0100
0010
1000
0100
0010
0001
1000
0100
,
0010
0001
1000
0100
0010
0001
1000
0001
,
0010
0100
1000
0001
0010
0100
1000
0001
,
0010
0100
1000
0001
0010
0100
1000
0001
,
1000
0100
0010
0001
1000
0100
0010
0001
,
1000
0100
0010
0001
1000
0010
0100
0010
,
0001
0010
0100
1000
0001
0010
0100
1000
,
0001
0010
0100
1000
0100
0001
0010
0100
,
1000
0100
0010
0100
1000
0100
0010
0100
,
1000
0100
0010
0100
1000
0100
0010
0100
,
1000
0001
0100
0001
1000
0001
0100
0010
,
0001
0010
0100
0010
1000
0010
0100
0010
,
1000
0100
1000
0001
0010
0100
1000
0010
,
0100
0001
0100
0010
1000
0100
0001
0100
,
1000
0010
0100
0001
0010
0100
1000
0001
,
1000
0100
0001
1000
0100
0001
1000
0100
,
0001
0100
1000
0010
0100
0001
1000
0010
0100
0001
1000
0100
0010
0100
1000
0001
,
0010
0100
0010
0001
0100
1000
0100
1000
0001
0010
0001
0010
1000
0010
1000
0010
,
0100
0001
1000
0001
0010
0100
1000
0100
0001
0100
1000
0010
0100
0001
1000
0100
,
0010
1000
0010
0001
0100
0010
1000
1000
0010
0100
0100
0001
0010
0010
0100
1000
,
0001
1000
0000
0001
0010
0100
1000
0010
0100
0001
1000
1000
1000
0000
0001
0100
,
0010
1000
0100
0100
0100
0000
0010
0001
1000
0100
0001
0001
0001
0000
0100
1000
,
0001
0100
0010
0010
0010
0000
1000
0100
0010
0001
1000
1000
1000
0000
0001
0010
,
0100
1000
0001
0001
0001
0000
1000
0100
0001
0100
1000
0000
1000
0000
1000
0000
,
0010
0100
0001
0010
1000
0010
0100
0001
,
0100
1000
0010
0100
0001
1000
0100
0010
,
0001
0010
1000
0010
0100
1000
0010
1000
,
0100
0010
0001
0100
0010
1000
0100
0010
,
0001
0100
1000
0100
0001
0010
1000
0010
,
0100
0001
0100
1000
0010
0001
0010
1000
,
0010
0100
0001
0100
1000
0100
0001
0010
,
0100
1000
0010
0100
0001
0100
0010
1000
,
0100
0100
0100
0010
0010
0010
0001
0001
,
0001
1000
1000
1000
1000
0001
0100
0010
,
1000
1000
1000
0100
0100
0100
0010
0010
,
0010
0001
0001
0001
0001
0100
0010
1000
,
0001
0001
0001
0010
0010
0010
0100
0100
,
0100
1000
1000
1000
1000
0100
0010
0001
,
1000
1000
1000
0100
0100
0100
0010
0010
,
0010
0000
0001
0000
0100
0000
1000
0000
0100
0000
0001
0000
0001
0000
0001
0100
,
1000
0000
0000
0000
,
0000
0000
0001
0001
0000
0000
0000
0000
;

//---------------dance-double - Edit by silenttype01----------------
#NOTES:
     dance-double:
     Edit by silenttype01:
     Challenge:
     9:
     0.640,1.000,0.000,0.063,0.338: // measure 1
00000000
00000000
00000000
00000000
,  // measure 2
00000000
00000000
00000000
00000000
,  // measure 3
00000000
00000000
00000000
00000000
,  // measure 4
00000100
00000000
00000000
00000000
00001000
00000000
00000000
00000001
,  // measure 5
00000000
00000000
00000000
00000100
00000000
00000010
00000000
00000000
,  // measure 6
00000100
00000000
00001000
00000000
,  // measure 7
00010000
00000000
00000000
01000000
00000000
00100000
00000000
00000000
,  // measure 8
01000000
00000000
00000000
00000000
10000000
00000000
00000000
00010000
,  // measure 9
00000000
00000000
00000000
01000000
00000000
00100000
00000000
00000000
,  // measure 10
10000000
01000000
00100000
00010000
01000000
00100000
00000000
00000000
,  // measure 11
01000000
00100000
00010000
00001000
00100000
00010000
00100000
00000000
,  // measure 12
00100000
01000000
00010000
00001000
00010000
00000010
00000000
00000000
,  // measure 13
00001000
00000100
00000010
00000001
00000100
00000010
00001000
00000000
,  // measure 14
00000100
00000000
00010000
00000000
00001000
00000000
01000000
00010000
01000000
00000000
00010000
00000000
00100000
00000000
00000000
01000000
,  // measure 15
00100000
00000000
00010000
00000000
01000000
00000000
00010000
01000000
00010000
00000000
10000000
00000000
00100000
00000000
00000000
10000000
,  // measure 16
01000000
00000000
00010000
00000000
01000000
00000000
00100000
00010000
00100000
00000000
00001000
00000000
00010000
00000000
00000000
00001000
,  // measure 17
00010000
00000000
00000010
00000000
00001000
00000000
00000100
00001000
00000100
00000000
00001000
00000000
00000001
00000100
00000001
00000100
,  // measure 18
00000001
00000100
00000001
00000100
00000001
00000010
00000001
00000010
,  // measure 19
00001000
00010000
00001000
00010000
00100000
10000000
01000000
00100000
,  // measure 20
01000000
10000000
01000000
10000000
00100000
10000000
00100000
00010000
,  // measure 21
00001000
00000010
00000001
00001000
00000100
00010000
00000010
00001000
,  // measure 22
00000001
00000010
00000001
00000010
00001000
00010000
00001000
00010000
,  // measure 23
01000000
00100000
00001000
01000000
00010000
10000000
01000000
00100000
,  // measure 24
00010000
01000000
01000000
00100000
00100000
00001000
00001000
00000010
,  // measure 25
00000010
00010000
00010000
00000100
00000100
00000010
00000001
00000100
,  // measure 26
00000010
00001000
00000100
00010000
00001000
01000000
00100000
10000000
,  // measure 27
01000000
00100000
00010000
01000000
00001000
00010000
00000100
00000010
,  // measure 28
00000001
00000100
00000010
00001000
00000100
00010000
00001000
00100000
,  // measure 29
01000000
10000000
00010000
01000000
00100000
10000000
01000000
00100000
,  // measure 30
00010000
01000000
00010000
01000000
00100000
10000000
00100000
10000000
,  // measure 31
01000000
00010000
01000000
00010000
00001000
00000010
00001000
00000010
,  // measure 32
00000001
00000100
00000001
00000100
00000010
00001000
00000010
00001000
,  // measure 33
00000001
00000100
00001000
00010000
01000000
10000000
00010000
01000000
,  // measure 34
10000000
01000000
10000000
01000000
00010000
00000000
10000000
01000000
00100000
00010000
00100000
00010000
10000000
00000000
00100000
01000000
,  // measure 35
00001000
00010000
00001000
00010000
00000100
00000000
00000010
00000001
00000100
00000001
00000100
00000001
00001000
00000000
00000010
00000100
,  // measure 36
00001000
00010000
00001000
00010000
00100000
00000000
10000000
01000000
00010000
01000000
00010000
01000000
00100000
00000000
00001000
00010000
,  // measure 37
00000100
00000000
00000010
00000000
00000001
00000000
00000100
00000000
00000001
00000000
00000000
00000000
00000100
00000000
00001000
00000000
00010000
00000000
00100000
00000000
00010000
00000000
00001000
00000000
00000100
00000000
00000000
00000000
00001000
00000000
00000100
00000001
,  // measure 38
00000100
00000000
00000010
00000000
00001000
00000000
00000100
00000000
00000010
00000000
00000000
00000000
00000001
00000000
00001000
00000100
00001000
00000000
00000010
00000000
00000100
00000000
00000001
00000000
00001000
00000000
00000000
00000000
00000100
00000000
00010000
00001000
,  // measure 39
00010000
00000000
00001000
00000000
00100000
00000000
00010000
00000000
01000000
00000000
00000000
00000000
00001000
00000000
00010000
00001000
00010000
00000000
00000010
00000000
00001000
00000000
00000100
00000000
00010000
00000000
00000000
00000000
00001000
00000000
01000000
00010000
,  // measure 40
01000000
00000000
00100000
00000000
10000000
00000000
01000000
00000000
00100000
00000000
00000000
00000000
00010000
00000000
10000000
00100000
10000000
00000000
00010000
00000000
00100000
00000000
01000000
00000000
10000000
00000000
00000000
00000000
01000000
00000000
00010000
00001000
,  // measure 41
00010000
00000000
01000000
00000000
10000000
00000000
01000000
00000000
10000000
00000000
00000000
00000000
01000000
00000000
00010000
00001000
00010000
00000000
00001000
00000000
00010000
00000000
02000000
00000000
00000000
00000000
00000000
00000000
03000000
00000000
00000000
00000000
,  // measure 42
01000000
00000000
00000000
01000000
00000000
00000000
00010000
00000000
,  // measure 43
00001000
00000000
00000000
00001000
00000000
00000000
00000010
00000000
,  // measure 44
00000001
00000000
00000000
00000001
00000000
00000000
00000100
00000000
,  // measure 45
00001000
00000000
00000000
00001000
00000000
00000000
00010000
00000000
,  // measure 46
00100000
00000000
00000000
00100000
00000000
00000000
10000000
00000000
,  // measure 47
01000000
00000000
00000000
01000000
00000000
00000000
10000000
00000000
,  // measure 48
00010000
00000000
00000000
00010000
00000000
00000000
10000000
00000000
,  // measure 49
00100000
00000000
00000000
01000000
00000000
00100000
00010000
00001000
,  // measure 50
00000010
00000001
00000100
00000001
00001000
00000100
00000010
00001000
,  // measure 51
00010000
00000010
00001000
00000100
00010000
00001000
00100000
10000000
,  // measure 52
00100000
00010000
10000000
01000000
00010000
00001000
00100000
01000000
,  // measure 53
00010000
00000010
00002000
00000001
00003002
00000010
00000023
00000100
,  // measure 54
00000130
00001000
00000001
00000100
00000010
00000100
00000001
00001000
,  // measure 55
00000001
00000010
00001000
00010000
01000000
10000000
00010000
00100000
,  // measure 56
01000000
00010000
01000000
10000000
00010000
01000000
00100000
01000000
,  // measure 57
00001000
00010000
00000100
00001000
00000001
00000010
00001000
00010000
,  // measure 58
01000000
20000000
00000000
00000000
00000000
00000000
00000000
00000000
,  // measure 59
00000000
00000000
00100000
02000000
00000000
00000000
33000000
00000000
;

//---------------dance-double - ----------------
#NOTES:
     dance-double:
     :
     Beginner:
     1:
     0.118,0.154,0.000,0.000,0.000: // measure 1
00000000
00000000
00000000
00000000
,  // measure 2
00000000
00000000
00000000
00000000
,  // measure 3
00000000
00000000
00000000
00000000
,  // measure 4
00000000
00000000
00000000
00000000
,  // measure 5
00000000
00000000
00000000
00000000
,  // measure 6
00010000
00000000
00000000
00000000
,  // measure 7
00001000
00000000
00000000
00000000
,  // measure 8
00010000
00000000
00000000
00000000
,  // measure 9
00001000
00000000
00000000
00000000
,  // measure 10
00010000
00000000
00000000
00000000
,  // measure 11
01000000
00000000
00000000
00000000
,  // measure 12
10000000
00000000
00000000
00000000
,  // measure 13
01000000
00000000
00000000
00000000
,  // measure 14
00010000
00000000
00000000
00000000
,  // measure 15
00001000
00000000
00000000
00000000
,  // measure 16
00000100
00000000
00000000
00000000
,  // measure 17
00000001
00000000
00000000
00000000
,  // measure 18
00000100
00000000
00000000
00000000
,  // measure 19
00001000
00000000
00000000
00000000
,  // measure 20
00010000
00000000
00000000
00000000
,  // measure 21
00100000
00000000
00000000
00000000
,  // measure 22
00010000
00000000
00000000
00000000
,  // measure 23
00001000
00000000
00000000
00000000
,  // measure 24
00000010
00000000
00000000
00000000
,  // measure 25
00001000
00000000
00000000
00000000
,  // measure 26
00000100
00000000
00000000
00000000
,  // measure 27
00000010
00000000
00000000
00000000
,  // measure 28
00000100
00000000
00000000
00000000
,  // measure 29
00000010
00000000
00000000
00000000
,  // measure 30
00001000
00000000
00000000
00000000
,  // measure 31
00010000
00000000
00000000
00000000
,  // measure 32
01000000
00000000
00000000
00000000
,  // measure 33
00100000
00000000
00000000
00000000
,  // measure 34
01000000
00000000
10000000
00000000
,  // measure 35
01000000
00000000
00010000
00000000
,  // measure 36
00001000
00000000
00000010
00000000
,  // measure 37
00000001
00000000
00000010
00000000
,  // measure 38
00001000
00000000
00000100
00000000
,  // measure 39
00001000
00000000
00010000
00000000
,  // measure 40
00001000
00000000
00010000
00000000
,  // measure 41
00100000
00000000
10000000
00000000
,  // measure 42
01000000
00000000
00010000
00000000
,  // measure 43
00001000
00000000
00010000
00000000
,  // measure 44
00001000
00000000
00000100
00000000
,  // measure 45
00000001
00000000
00000010
00000000
,  // measure 46
00001000
00000000
00010000
00000000
,  // measure 47
00100000
00000000
10000000
00000000
,  // measure 48
01000000
00000000
00010000
00000000
,  // measure 49
00001000
00000000
00000010
00000000
,  // measure 50
00000100
00000000
00000010
00000000
,  // measure 51
00001000
00000000
00010000
00000000
,  // measure 52
00100000
00000000
01000000
00000000
,  // measure 53
00010000
00000000
00001000
00000000
,  // measure 54
00000010
00000000
00000100
00000000
,  // measure 55
00001000
00000000
00010000
00000000
,  // measure 56
01000000
00000000
00100000
00000000
,  // measure 57
00010000
00000000
00001000
00000000
,  // measure 58
00000100
00000000
00000000
00000000
,  // measure 59
00000000
00000100
00000000
00000000
;
