#TITLE:EL RITMO TROPICAL;
#SUBTITLE:(El Bimbo);
#ARTIST:DIXIE'S GANG;
#TITLETRANSLIT:;
#SUBTITLETRANSLIT:;
#ARTISTTRANSLIT:;
#CREDIT:;
#BANNER:EL RITMO TROPICAL (EL BIMBO).png;
#BACKGROUND:EL RITMO TROPICAL (EL BIMBO)-bg.png;
#LYRICSPATH:;
#CDTITLE:Dance Dance Revolution 2nd Link Version.png;
#MUSIC:EL RITMO TROPICAL (EL BIMBO).ogg;
#OFFSET:0.000;
#SAMPLESTART:60.251;
#SAMPLELENGTH:15.000;
#SELECTABLE:YES;
#DISPLAYBPM:132.000;
#BPMS:0.000=133.022,38.000=131.799,45.000=133.136,55.000=130.435,56.000=133.005,68.000=132.353,69.000=128.571,70.000=140.625,72.000=132.841,104.000=133.025,136.000=132.874,196.000=134.328,197.000=125.000,198.000=132.353,199.000=134.328;
#STOPS:;
#BGCHANGES:;

//---------------dance-single - ----------------
#NOTES:
     dance-single:
     :
     Beginner:
     1:
     0.124,0.189,0.054,0.000,0.000:
0000
0000
0000
0000
,
0000
0000
0000
0000
,
0000
0000
0000
0000
,
0000
0000
0000
0000
,
0000
0000
0000
0000
,
0000
0000
0000
0000
,
0000
0000
0000
0000
,
0010
0000
0001
0000
,
0010
0000
1000
0000
,
1001
1001
0000
0000
,
0001
0000
0000
0000
,
0001
0000
0001
0000
,
1000
0000
0000
0000
,
1000
0000
1000
0000
,
0001
0000
0000
0000
,
0001
0000
0001
0000
,
1000
0000
0000
0000
,
1001
0000
1001
0000
,
1000
0000
0000
0000
,
0001
0000
0000
0000
,
1000
0000
0001
0000
,
1000
0000
0000
0000
,
0001
0000
0000
0000
,
1000
0000
0000
0000
,
0001
0000
1000
0000
,
0001
0000
0000
0000
,
0010
0000
0010
0000
,
0100
0000
0100
0000
,
0010
0000
0000
0000
,
0010
0000
0000
0000
,
0100
0000
0100
0000
,
0010
0000
0010
0000
,
0100
0000
0000
0000
,
0100
0100
0000
0000
,
0001
0000
0100
0000
,
1000
0000
0100
0000
,
0001
0000
0100
0000
,
1000
0000
0100
0000
,
0001
0000
0100
0000
,
1000
0000
0100
0000
,
0001
0000
0100
0000
,
1000
0000
0100
0000
,
0001
0001
0000
0000
,
0100
0100
0000
0000
,
1000
1000
0000
0000
,
0010
0010
0010
0000
,
0001
0001
0000
0000
,
0100
0100
0000
0000
,
1000
0000
0001
0000
,
1000
0000
0001
0000
,
1001
0000
0000
0000
;

//---------------dance-single - ----------------
#NOTES:
     dance-single:
     :
     Easy:
     2:
     0.202,0.270,0.076,0.000,0.000:
0000
0000
0000
0000
,
0000
0000
0000
0000
,
0000
0000
0000
0000
,
0000
0000
0000
0000
,
0000
0000
0000
0000
,
0000
0000
0000
0000
,
0000
0000
0000
0000
,
0010
0000
0100
0000
,
0001
0000
1000
0000
,
0100
0100
0000
0000
,
0001
0000
0100
0000
,
1000
0000
0100
0000
,
0001
0000
0100
0000
,
0010
0000
1000
0000
,
0100
0000
1000
0000
,
0010
0000
1000
0000
,
0100
0000
1000
0000
,
0010
0000
0100
0000
,
1001
0000
1000
0000
,
0001
0000
1000
0000
,
0001
1000
0001
0000
,
1000
0000
0001
0000
,
1000
0001
1000
0000
,
0010
0000
0100
0000
,
0010
0000
0100
0000
,
0010
0010
0010
0010
,
1000
0001
1000
0001
,
1000
0100
0001
0100
,
1000
0100
0001
0100
,
1000
1001
0000
1000
,
1001
0000
0000
0001
,
1001
0000
0010
1000
,
0001
0100
1000
0100
,
1001
0000
0000
0000
,
1001
0010
0001
0000
,
1000
0000
0001
0000
,
1000
0100
0001
0100
,
1000
0100
0001
0010
,
1000
0100
1000
0100
,
1000
0100
1000
0010
,
0001
0100
1000
0100
,
0010
0010
0000
0000
,
0010
0010
0001
1000
,
0100
0100
0001
0100
,
0010
0010
1000
0001
,
0100
0100
1000
0100
,
0010
0010
0001
1000
,
0100
0100
0001
0000
,
0010
0000
0100
0000
,
0001
1000
0100
0001
,
1001
0000
0000
0000
;

//---------------dance-single - ----------------
#NOTES:
     dance-single:
     :
     Medium:
     6:
     0.325,0.379,0.130,0.000,0.081:
0000
0000
0000
0000
,
0000
0000
0000
0000
,
0000
0000
0000
0000
,
0000
0000
0000
0000
,
0000
0000
0000
0000
,
0000
0000
0000
0000
,
0000
0000
0000
0000
,
0010
0010
0000
0000
0100
0100
0000
0000
,
0001
0100
1000
1001
,
0100
0100
0000
0000
,
0001
0100
0010
1000
,
0001
0100
0010
1000
,
0001
0100
1000
0000
0001
0100
1000
0000
,
0001
1000
0001
1000
0001
0100
1000
0000
,
0001
0100
1000
0100
,
0010
0001
1000
0100
,
0001
0100
0010
1000
,
0110
1001
0110
1001
,
0010
0001
1000
0100
,
0001
0000
1000
0000
,
0001
0100
1000
0000
1000
0100
0001
0000
,
1000
0000
0100
0000
1000
0010
0100
0000
,
1000
0001
1000
0110
,
0001
1000
0001
0100
,
0010
1000
0100
0000
0001
0100
1000
0000
,
0001
0000
1000
0000
0100
0100
0100
0000
,
1000
0000
0000
1000
0000
0000
1000
0000
0001
0000
0000
0001
0000
0000
0001
0000
,
0100
0000
0000
0100
0000
0000
0100
0000
0001
0000
0000
0001
0000
0000
1000
0000
,
1000
0000
0000
1000
0000
0000
0100
0000
0001
0000
0000
0001
0000
0000
0100
0000
,
1000
0000
0000
1000
0000
0000
0100
0000
0001
0000
0000
0001
0000
0000
1000
0000
,
1000
0000
0000
1000
0000
0000
0001
0000
0001
0000
0000
0001
0000
0000
0010
0000
,
0010
0000
0000
0010
0000
0000
1000
0000
1000
0000
0000
1000
0000
0000
0100
0000
,
0100
0000
0000
0100
0000
0000
0001
0000
0001
0000
0000
0001
0000
0000
0010
0000
,
0010
0000
0000
0010
0000
0000
0100
0000
0000
0000
0000
0000
0000
0000
0000
0000
,
0010
0010
1001
0100
,
0001
0100
1001
0010
,
0100
1001
0100
0100
,
0001
1000
0001
0100
0010
0000
0010
0000
,
0100
0100
1001
0010
,
0100
0010
1001
0100
,
0010
0010
1000
0001
,
0100
0100
0000
0000
,
0010
1000
0001
0000
0100
0000
0000
0000
,
0010
0001
1000
0000
0100
0000
0000
0000
,
0100
1000
0001
0000
0010
0000
0001
0000
,
0100
0100
1000
0100
,
0010
1000
0001
0000
0100
0000
0000
0000
,
0010
0001
1000
0000
0100
0000
0000
0000
,
0010
0010
1000
0000
0100
0100
0001
0000
,
0100
0100
1000
0000
0100
0100
0010
0000
,
1001
0000
0000
0000
;

//---------------dance-single - ----------------
#NOTES:
     dance-single:
     :
     Hard:
     7:
     0.428,0.487,0.325,0.000,0.411:
0000
0000
0000
0000
,
0000
0000
0000
0000
,
0000
0000
0000
0000
,
0000
0000
0000
0000
,
0000
0000
0000
0000
,
0000
0000
0000
0000
,
0000
0000
0000
0000
,
0001
0100
1000
0010
1000
0100
0001
0100
,
1000
0010
1000
0100
0001
0000
0100
0000
,
1001
0110
0000
0000
,
0001
0000
0000
1000
0000
0000
0100
0000
0010
0000
0000
1000
0000
0000
0001
0000
,
1000
0000
0000
0001
0000
0000
0100
0000
0010
0000
0000
1000
0000
0000
0001
0000
,
0100
0000
0000
0001
0000
0000
1000
0000
0001
0000
0000
0100
0000
0000
0100
0000
,
0001
0000
0000
1000
0000
0000
0001
0000
1000
0000
0000
0001
0000
0000
1000
0000
,
0001
0000
0000
0001
0000
0000
0100
0000
1000
0000
0000
1000
0000
0000
0100
0000
,
0001
0000
0000
0001
0000
0000
0100
0000
1000
0000
0000
1000
0000
0000
0100
0000
,
0001
0000
0000
0001
0000
0000
0010
0000
0010
0000
0000
0010
0000
0000
0010
0000
,
1001
0110
1001
0000
,
0010
0000
0000
0001
0000
0000
1000
0000
0100
0000
0000
0001
0000
0000
1000
0000
,
0001
0000
0000
0001
0000
0000
1000
0000
1000
0000
0000
1000
0000
0000
0001
0000
,
0001
0000
0000
0001
0000
0000
1000
0000
1000
0000
0000
1000
0000
0000
0001
0000
,
0010
0000
0000
0010
0000
0000
0100
0000
1001
0000
0000
1000
0000
0000
0001
0000
,
1001
0000
0000
1000
0000
0000
0001
0000
1000
0000
0000
0100
0000
0000
0001
0000
,
0001
0000
0000
0100
0000
0000
1000
0000
1000
0000
0000
0100
0000
0000
0001
0000
,
0001
0000
0000
0010
0000
0000
1000
0000
1000
0000
0000
0010
0000
0000
0001
0000
,
0001
0000
0000
1000
0000
0000
0001
0000
0100
0000
0000
0100
0000
0000
0100
0000
,
1000
0000
0000
1000
0000
0000
1000
0000
0001
0000
0000
0001
0000
0000
0001
0000
,
0100
0000
0000
0100
0000
0000
0100
0000
1001
0000
0000
0001
0000
0001
0000
0000
,
1001
0000
0000
1000
0000
0000
1000
0000
0101
0000
0000
0001
0000
0000
0100
0000
,
1100
0000
0000
1000
0000
0000
0100
0000
0011
0000
0000
0001
0000
0000
0100
0000
,
1010
0000
0000
1000
0000
0000
0100
0000
0001
0000
0000
1001
0000
0000
0100
0000
,
1000
0000
0000
1001
0000
0000
0100
0000
0001
0000
0000
1001
0000
0000
0100
0000
,
1000
0000
0000
1001
0000
0000
0100
0000
1001
0000
0000
0110
0000
0000
1000
0000
,
0001
0000
0000
1000
0000
0000
0110
0000
0000
0000
0000
0000
0000
0000
0000
0000
,
0010
0000
0000
0010
0000
0000
1001
0000
0100
0000
0000
0001
0000
0000
0100
0000
,
1001
0000
0000
0010
0000
0000
0100
0000
1001
0000
0000
0100
0000
0000
0100
0000
,
0001
0000
0000
1000
0000
0000
0001
0000
1000
0000
0000
0100
0000
0000
0010
0000
,
0010
0000
0000
0010
0000
0000
1001
0000
0100
0000
0000
0001
0000
0000
0100
0000
,
1001
0000
0000
0010
0000
0000
0100
0000
1001
0000
0000
0100
0000
0000
0100
0000
,
1000
0000
0000
0001
0000
0000
1000
0000
0001
0000
0000
0100
0000
0000
0100
0000
,
0010
0000
0000
0010
0000
0000
1000
0000
0001
0000
0000
0001
0000
0000
0100
0000
,
0100
0100
0000
0000
,
0010
0000
0000
1000
0000
0000
0001
0000
0100
0000
0000
0100
0000
0000
0100
0000
,
0010
0000
0000
0001
0000
0000
1000
0000
0100
0000
0000
0100
0000
0000
0100
0000
,
0100
0000
0000
1000
0000
0000
0001
0000
0010
0000
0000
0010
0000
0000
0010
0000
,
0100
0000
0000
0100
0000
0000
1000
0000
0100
0000
0000
0100
0000
0000
0100
0000
,
0010
0000
0000
1000
0000
0000
0001
0000
0100
0000
0000
0100
0000
0000
0100
0000
,
0010
0000
0000
0001
0000
0000
1000
0000
0100
0000
0000
0100
0000
0000
0100
0000
,
0010
0000
0000
0010
0000
0000
1001
0000
0100
0000
0000
0100
0000
0000
1001
0000
,
0100
0000
0000
0100
0000
0000
1001
0000
0100
0000
0000
0100
0000
0000
0100
0000
,
1001
0000
0000
0000
;

//---------------dance-double - ----------------
#NOTES:
     dance-double:
     :
     Easy:
     4:
     0.284,0.433,0.227,0.000,0.000:
00000000
00000000
00000000
00000000
,
00000000
00000000
00000000
00000000
,
00000000
00000000
00000000
00000000
,
00000000
00000000
00000000
00000000
,
00000000
00000000
00000000
00000000
,
00000000
00000000
00000000
00000000
,
00000000
00000000
00000000
00000000
,
00001000
00000000
00010000
00000000
,
01000000
00001000
00000100
00010000
,
00001000
00001000
00000000
00000000
,
00100000
00010000
00001000
00000010
,
00001000
00010000
00100000
00010000
,
00001000
00000010
00001000
00010000
,
01000000
00000010
00000001
00100000
,
10000000
00001000
00000100
00010000
,
01000000
00000010
00000001
00100000
,
10000000
00001000
00000100
00010000
,
01000000
00001000
00000100
00010000
,
01000000
10000000
00100000
00010000
,
10000000
01000000
00010000
00001000
,
00000010
00000001
00000100
00001000
,
00000100
00000001
00000010
00001000
,
00000010
00000001
00000100
00001000
,
00010000
00100000
00010000
00001000
,
00010000
00000010
00001000
00010000
,
00011000
00011000
00000000
00000000
,
00011000
00011000
00100000
00000010
,
00001000
00010000
01000000
10000000
,
00010000
00001000
00000100
00000001
,
00001000
00010000
00100000
01000000
,
00010000
00001000
00000010
00000100
,
00001000
00010000
10000000
01000000
,
00010000
00001000
00000001
00000100
,
00010000
00001000
00000000
00000000
,
00010000
00010000
00100000
00100000
,
10000000
10000000
01000000
01000000
,
00001000
00001000
00000010
00000010
,
00000001
00000001
00000100
00000100
,
00010000
00010000
00001000
00001000
,
00000010
00000010
00100000
00100000
,
00000100
00000100
01000000
01000000
,
00010000
10000000
00000000
00000000
,
11000000
01010000
10000000
01000000
,
01010000
11000000
00010000
01000000
,
11000000
01010000
10000000
01000000
,
00100000
00010000
00001000
00000010
,
00000101
00001100
00000001
00000100
,
00001100
00000101
00001000
00000100
,
00001100
00000101
00001000
00000100
,
00000101
00001100
00011000
01010000
,
11000000
00000000
00000000
00000000
;

//---------------dance-double - ----------------
#NOTES:
     dance-double:
     :
     Medium:
     5:
     0.360,0.487,0.638,0.000,0.000:
00000000
00000000
00000000
00000000
,
00000000
00000000
00000000
00000000
,
00000000
00000000
00000000
00000000
,
00000000
00000000
00000000
00000000
,
00000000
00000000
00000000
00000000
,
00000000
00000000
00000000
00000000
,
00000000
00000000
00000000
00000000
,
00001000
01000000
00010000
01000000
,
10000000
01000000
10010000
01000000
,
11000000
01010000
00000000
00000000
,
00001000
00000010
00000100
00001000
,
00000100
00000010
00000001
00001000
,
00000100
00001001
00000100
00001000
,
00000100
00000010
00000101
00001100
,
01000000
10000000
00001000
00000100
,
00000001
00010000
01000000
10000000
,
00001000
00000100
00000001
00010000
,
01000000
00001000
00000100
00000000
,
00010000
00100000
10000000
01000000
,
01010000
11000000
00100000
00010000
,
00001000
00000100
00000010
00000000
00000001
00001000
00000100
00000000
,
00001100
00000101
00001100
00000101
,
00001000
01000000
10000000
01000000
,
01010000
11000000
01010000
11000000
,
00010000
00001000
00010000
00001000
,
00001000
00010000
00001000
00000000
01000000
00000000
00000100
00000000
,
00010000
00001000
00010000
00000000
00100000
00000000
00000010
00000000
,
00000101
00001100
00000001
00000100
,
00001100
00000101
00001000
00100000
,
11000000
01010000
01000000
10000000
,
01010000
11000000
00010000
00000010
,
00000101
00001100
00000001
00000100
,
00010000
00001000
00000100
00000000
00010000
00001000
00000100
00000000
,
00010000
01100000
00000000
00000000
,
01010000
11000000
01010000
11000000
,
00100000
01000000
00010000
00100000
,
11000000
10100000
01000000
10000000
,
10100000
11000000
00100000
10000000
,
00010000
01000000
00001000
00000100
,
00000001
00001000
00000100
00000001
,
00000101
00001100
00000001
00000100
,
00010000
00010000
00000000
00000000
,
11000000
00000000
01010000
00000000
10000000
01000000
00010000
00000000
,
00110000
00000000
11000000
00000000
00010000
01000000
10000000
00000000
,
01010000
00000000
11000000
00000000
10000000
01000000
00010000
00000000
,
01100000
00000000
00010000
00000000
00001000
00000100
00000010
00000000
,
00000101
00001100
00000101
00001100
,
00000101
00001100
00000101
00001100
,
00000110
00000000
00001001
00000000
,
00000101
00001100
00011000
01010000
,
11000000
00000000
00000000
00000000
;

//---------------dance-double - ----------------
#NOTES:
     dance-double:
     :
     Hard:
     7:
     0.386,0.406,0.357,0.000,0.000:
00000000
00000000
00000000
00000000
,
00000000
00000000
00000000
00000000
,
00000000
00000000
00000000
00000000
,
00000000
00000000
00000000
00000000
,
00000000
00000000
00000000
00000000
,
00000000
00000000
00000000
00000000
,
00000000
00000000
00000000
00000000
,
10000000
00100000
01000000
00000000
00010000
00100000
01000000
00000000
,
00100000
00001000
00010000
00000100
00000010
00000000
00000000
00000000
,
00000101
00001100
00010000
00001000
,
00100000
01000000
10000000
00000000
00100000
01000000
00010000
00000000
,
00001000
00010000
00000100
00000010
00000001
00000000
00000000
00000000
,
00000100
00000010
00001000
00000000
00000100
00010000
00001000
00000000
,
00001000
00100000
01000000
10000000
00100000
00000000
00000000
00000000
,
01000000
00010000
00100000
00000000
00001000
00010000
00000100
00000000
,
00000100
00001000
00000010
00000100
00000001
00000000
00000000
00000000
,
00001000
00000100
00010000
00000000
00001000
00100000
01000000
00000000
,
10010000
01001000
00010100
00000000
,
00001000
00000000
00100000
00000000
01000000
10000000
00010000
00000000
,
01100000
00011000
00001001
00000110
,
00001000
00000000
00000100
00000000
00010000
00001000
00100000
00000000
,
01010000
11000000
00110000
00011000
,
00000100
00000010
00000001
00000000
00001000
00000100
00010000
00000000
,
00001000
00100000
00010000
01000000
00100000
10000000
01000000
00000000
,
00110000
00011000
00001010
00000101
,
00001000
00001000
00001000
00000000
00000100
00000000
00010000
00000000
,
00001000
00000000
00100000
00000000
00010000
00010000
00010000
00000000
,
10000000
00000000
01000000
00000000
00100000
00100000
00100000
00000000
,
00001000
00000000
00010000
00000000
00000100
00000100
00000100
00000000
,
00001000
00000000
00000001
00000000
00000010
00000010
00000010
00000000
,
00000100
00001000
00000010
00000000
00010000
00010000
00010000
00000000
,
00001000
01000000
00010000
00000000
10000000
10000000
10000000
00000000
,
01000000
00100000
01000000
00000000
00010000
00001000
00010000
00000000
,
00000010
00000100
00000010
00000000
00001000
00000000
00000100
00000000
,
00010000
00001000
00100000
01000000
10000000
00000000
01010000
00000000
,
00100000
00011000
00000010
00001001
,
00000100
00000010
00001000
00000100
00010000
00000000
00011000
00000000
,
00100000
10010000
01000000
00011000
,
00000100
00000010
00000001
00000100
00000010
00000000
00000000
00010000
,
00010000
00000000
00000000
00001000
00001000
00000000
00000000
01000000
,
01000000
00000000
00000000
00100000
00100000
00000000
00000000
00000000
,
10010000
00000000
01100000
00000000
00001000
00010000
00000100
00000010
,
00000001
00001100
00010000
00101000
,
01000000
00000000
10010000
00000000
01000000
00100000
00010000
01000000
,
00001000
00010010
00000100
00001001
,
00000010
00000000
00011000
00000000
00100000
00010000
01000000
00100000
,
10000000
00000000
00000000
01000000
01000000
00000000
00000000
00100000
,
00100000
00000000
00000000
00001000
00001000
00000000
00000000
00010000
,
00010000
00000000
00000000
00000100
00000100
00000000
00000000
00000000
,
00000011
00000000
00001100
00000000
00010000
00001000
01000000
00100000
,
10000000
00000000
00000000
00000000
;

//---------------dance-couple - ----------------
#NOTES:
     dance-couple:
     :
     Easy:
     2:
     0.383,0.487,1.000,0.000,0.000:
00000000
00000000
00000000
00000000
,
00000000
00000000
00000000
00000000
,
00000000
00000000
00000000
00000000
,
00000000
00000000
00000000
00000000
,
00000000
00000000
00000000
00000000
,
00000000
00000000
00000000
00000000
,
00000000
00000000
00000000
00000000
,
00100010
00000000
01000100
00000000
,
00011000
00000000
10000001
00000000
,
01000100
01000100
00000000
00000000
,
00011000
00000000
01000100
00000000
,
10000001
00000000
01000100
00000000
,
00011000
00000000
01000100
00000000
,
00100010
00000000
10000001
00000000
,
01000100
00000000
10000001
00000000
,
00100010
00000000
10000001
00000000
,
01000100
00000000
10000001
00000000
,
00100010
00000000
01000100
00000000
,
10011001
00000000
10000001
00000000
,
00011000
00000000
10000001
00000000
,
00011000
10000001
00011000
00000000
,
10000001
00000000
00011000
00000000
,
10000001
00011000
10000001
00000000
,
00100010
00000000
01000100
00000000
,
00100010
00000000
01000100
00000000
,
00100000
00100000
00100000
00100000
,
00001000
00001000
00000001
00000001
,
10000000
01000000
00010000
01000000
,
00001000
00000100
00000001
00000100
,
10001000
10011001
00000000
10000001
,
10011001
00000000
00000000
00011000
,
10011001
00000000
00100010
10001000
,
00010001
01000100
10001000
01000100
,
10011001
00000000
00000000
00000000
,
10011001
00000000
00010001
00000000
,
10001000
00100010
00010001
00100010
,
10001000
01000100
00010001
01000100
,
10001000
01000100
00010001
00100010
,
10001000
01000100
10001000
00100010
,
10001000
01000100
10001000
00100010
,
00010001
01000100
10001000
01000100
,
00100010
00100010
00000000
00000000
,
00100010
00100010
00011000
10000001
,
01000100
01000100
00011000
01000100
,
01000010
01000010
01000001
00011000
,
01000100
01000100
10000100
01000100
,
00100010
00100010
00011000
10000001
,
01000100
01000100
00011000
00000000
,
00100010
00000000
01000100
00000000
,
00011000
10000001
01000100
00011000
,
10011001
00000000
00000000
00000000
;

//---------------dance-couple - ----------------
#NOTES:
     dance-couple:
     :
     Medium:
     6:
     0.597,0.757,1.000,0.000,0.081:
00000000
00000000
00000000
00000000
,
00000000
00000000
00000000
00000000
,
00000000
00000000
00000000
00000000
,
00000000
00000000
00000000
00000000
,
00000000
00000000
00000000
00000000
,
00000000
00000000
00000000
00000000
,
00000000
00000000
00000000
00000000
,
00100010
00100010
00000000
00000000
01000100
01000100
00000000
00000000
,
00011000
01000100
10000001
10011001
,
01000100
01000100
00000000
00000000
,
00011000
01000100
00100010
10000001
,
00011000
01000100
00100010
10000001
,
00011000
01000100
10000001
00000000
00011000
01000100
10000001
00000000
,
00011000
10000001
00011000
10000001
00011000
01000100
10000001
00000000
,
00011000
01000100
10000001
01000100
,
00100010
00011000
10000001
01000100
,
00010001
01000100
00100010
10001000
,
01100110
10011001
01100110
10011001
,
00100010
00011000
10000001
01000100
,
00011000
00000000
10000001
00000000
,
00011000
01000100
10000001
00000000
10000001
01000100
00011000
00000000
,
10000001
00000000
01000100
00000000
10000001
00100010
01000100
00000000
,
10000001
00011000
10000001
01100110
,
00011000
10000001
00011000
01000100
,
00100010
10000001
01000100
00000000
00011000
01000100
10000001
00000000
,
10011001
00000000
10000001
00000000
01000100
01000100
01000100
00000000
,
10000000
00000000
00000000
10000000
00000000
00000000
10000000
00000000
00010000
00000000
00000000
00010000
00000000
00000000
00010000
00000000
,
00000100
00000000
00000000
00000100
00000000
00000000
00000100
00000000
00000001
00000000
00000000
00000001
00000000
00000000
00000001
00000000
,
10000000
00000000
00000000
10000000
00000000
00000000
01000000
00000000
00010000
00000000
00000000
00010000
00000000
00000000
01000000
00000000
,
00001000
00000000
00000000
00001000
00000000
00000000
00000100
00000000
00000001
00000000
00000000
00000001
00000000
00000000
00001000
00000000
,
10000000
00000000
00000000
10000000
00000000
00000000
00010000
00000000
00010000
00000000
00000000
00010000
00000000
00000000
00100000
00000000
,
00000010
00000000
00000000
00000010
00000000
00000000
00001000
00000000
00001000
00000000
00000000
00001000
00000000
00000000
00000100
00000000
,
01000100
00000000
00000000
01000100
00000000
00000000
00010001
00000000
00010001
00000000
00000000
00010001
00000000
00000000
00100010
00000000
,
00100010
00000000
00000000
00100010
00000000
00000000
01000100
00000000
00000000
00000000
00000000
00000000
00000000
00000000
00000000
00000000
,
00100010
00100010
10011001
01000100
,
00010001
01000100
10011001
00100010
,
01000100
10011001
01000100
01000100
,
00010001
10001000
00010001
01000100
00100010
00000000
00100010
00000000
,
01000100
01000100
10011001
00100010
,
01000100
00100010
10011001
01000100
,
00100010
00100010
10001000
00010001
,
01000100
01000100
00000000
00000000
,
00100010
10000001
00011000
00000000
01000100
00000000
00000000
00000000
,
00100010
00011000
10000001
00000000
01000100
00000000
00000000
00000000
,
01000100
10000001
00011000
00000000
00100010
00000000
00011000
00000000
,
01000100
01000100
10000001
01000100
,
00100010
10000001
00011000
00000000
01000100
00000000
00000000
00000000
,
00100010
00011000
10000001
00000000
01000100
00000000
00000000
00000000
,
00100010
00100010
10000001
00000000
01000100
01000100
00011000
00000000
,
01000100
01000100
10000001
00000000
01000100
01000100
00100010
00000000
,
10011001
00000000
00000000
00000000
;

//---------------dance-couple - ----------------
#NOTES:
     dance-couple:
     :
     Hard:
     7:
     0.856,0.974,1.000,0.000,0.411:
00000000
00000000
00000000
00000000
,
00000000
00000000
00000000
00000000
,
00000000
00000000
00000000
00000000
,
00000000
00000000
00000000
00000000
,
00000000
00000000
00000000
00000000
,
00000000
00000000
00000000
00000000
,
00000000
00000000
00000000
00000000
,
00010001
01000100
10001000
00100010
10001000
01000100
00010001
01000100
,
10001000
00100010
10001000
01000100
00010001
00000000
01000100
00000000
,
10011001
01100110
00000000
00000000
,
00011000
00000000
00000000
10000001
00000000
00000000
01000100
00000000
00100010
00000000
00000000
10000001
00000000
00000000
00011000
00000000
,
10000001
00000000
00000000
00011000
00000000
00000000
01000100
00000000
00100010
00000000
00000000
10000001
00000000
00000000
00011000
00000000
,
01000100
00000000
00000000
00011000
00000000
00000000
10000001
00000000
00011000
00000000
00000000
01000100
00000000
00000000
01000100
00000000
,
00011000
00000000
00000000
10000001
00000000
00000000
00011000
00000000
10000001
00000000
00000000
00011000
00000000
00000000
10000001
00000000
,
00011000
00000000
00000000
00011000
00000000
00000000
01000100
00000000
10000001
00000000
00000000
10000001
00000000
00000000
01000100
00000000
,
00011000
00000000
00000000
00011000
00000000
00000000
01000100
00000000
10000001
00000000
00000000
10000001
00000000
00000000
01000100
00000000
,
00011000
00000000
00000000
00011000
00000000
00000000
00100010
00000000
00100010
00000000
00000000
00100010
00000000
00000000
00100010
00000000
,
10011001
01100110
10011001
00000000
,
00100010
00000000
00000000
00011000
00000000
00000000
10000001
00000000
01000100
00000000
00000000
00011000
00000000
00000000
10000001
00000000
,
00011000
00000000
00000000
00011000
00000000
00000000
10000001
00000000
10000001
00000000
00000000
10000001
00000000
00000000
00011000
00000000
,
00011000
00000000
00000000
00011000
00000000
00000000
10000001
00000000
10000001
00000000
00000000
10000001
00000000
00000000
00011000
00000000
,
00100010
00000000
00000000
00100010
00000000
00000000
01000100
00000000
10011001
00000000
00000000
10000001
00000000
00000000
00011000
00000000
,
10011001
00000000
00000000
10000001
00000000
00000000
00011000
00000000
10000001
00000000
00000000
01000100
00000000
00000000
00011000
00000000
,
00011000
00000000
00000000
01000100
00000000
00000000
10000001
00000000
10000001
00000000
00000000
01000100
00000000
00000000
00011000
00000000
,
00011000
00000000
00000000
00100010
00000000
00000000
10000001
00000000
10000001
00000000
00000000
00100010
00000000
00000000
00011000
00000000
,
00011000
00000000
00000000
10000001
00000000
00000000
00011000
00000000
01000100
00000000
00000000
01000100
00000000
00000000
01000100
00000000
,
10000001
00000000
00000000
10000001
00000000
00000000
10000001
00000000
00011000
00000000
00000000
00011000
00000000
00000000
00011000
00000000
,
01000100
00000000
00000000
01000100
00000000
00000000
01000100
00000000
10011001
00000000
00000000
00011000
00000000
00011000
00000000
00000000
,
10011001
00000000
00000000
10000001
00000000
00000000
10000001
00000000
01011100
00000000
00000000
00011000
00000000
00000000
01000100
00000000
,
11000101
00000000
00000000
10000001
00000000
00000000
01000100
00000000
00111010
00000000
00000000
00011000
00000000
00000000
01000100
00000000
,
10100011
00000000
00000000
10000001
00000000
00000000
01000100
00000000
00011000
00000000
00000000
10011001
00000000
00000000
01000100
00000000
,
10000001
00000000
00000000
10011001
00000000
00000000
01000100
00000000
00011000
00000000
00000000
10011001
00000000
00000000
01000100
00000000
,
10000001
00000000
00000000
10011001
00000000
00000000
01000100
00000000
10011001
00000000
00000000
01100110
00000000
00000000
10000001
00000000
,
00011000
00000000
00000000
10000001
00000000
00000000
01100110
00000000
00000000
00000000
00000000
00000000
00000000
00000000
00000000
00000000
,
00100010
00000000
00000000
00100010
00000000
00000000
10011001
00000000
01000100
00000000
00000000
00010001
00000000
00000000
01000100
00000000
,
10011001
00000000
00000000
00100010
00000000
00000000
01000100
00000000
10011001
00000000
00000000
01000100
00000000
00000000
01000100
00000000
,
00010001
00000000
00000000
10001000
00000000
00000000
00010001
00000000
10001000
00000000
00000000
01000100
00000000
00000000
00100010
00000000
,
00100010
00000000
00000000
00100010
00000000
00000000
10011001
00000000
01000100
00000000
00000000
00010001
00000000
00000000
01000100
00000000
,
10011001
00000000
00000000
00100010
00000000
00000000
01000100
00000000
10011001
00000000
00000000
01000100
00000000
00000000
01000100
00000000
,
10001000
00000000
00000000
00010001
00000000
00000000
10001000
00000000
00010001
00000000
00000000
01000100
00000000
00000000
01000100
00000000
,
00100010
00000000
00000000
00100010
00000000
00000000
10001000
00000000
00010001
00000000
00000000
00010001
00000000
00000000
01000100
00000000
,
01000100
01000100
00000000
00000000
,
00100010
00000000
00000000
10001000
00000000
00000000
00010001
00000000
01000100
00000000
00000000
01000100
00000000
00000000
01000100
00000000
,
00100010
00000000
00000000
00010001
00000000
00000000
10001000
00000000
01000100
00000000
00000000
01000100
00000000
00000000
01000100
00000000
,
01000100
00000000
00000000
10001000
00000000
00000000
00010001
00000000
00100010
00000000
00000000
00100010
00000000
00000000
00100010
00000000
,
01000100
00000000
00000000
01000100
00000000
00000000
10001000
00000000
01000100
00000000
00000000
01000100
00000000
00000000
01000100
00000000
,
00100010
00000000
00000000
10001000
00000000
00000000
00010001
00000000
01000100
00000000
00000000
01000100
00000000
00000000
01000100
00000000
,
00100010
00000000
00000000
00010001
00000000
00000000
10001000
00000000
01000100
00000000
00000000
01000100
00000000
00000000
01000100
00000000
,
00100010
00000000
00000000
00100010
00000000
00000000
10011001
00000000
01000100
00000000
00000000
01000100
00000000
00000000
10011001
00000000
,
01000100
00000000
00000000
01000100
00000000
00000000
10011001
00000000
01000100
00000000
00000000
01000100
00000000
00000000
01000100
00000000
,
10011001
00000000
00000000
00000000
;

//---------------dance-couple - ----------------
#NOTES:
     dance-couple:
     :
     Challenge:
     6:
     0.541,0.920,1.000,0.000,0.325:
00000000
00000000
00000000
00000000
,
00000000
00000000
00000000
00000000
,
00000000
00000000
00000000
00000000
,
00000000
00000000
00000000
00000000
,
00000000
00000000
00000000
00000000
,
00000000
00000000
00000000
00000000
,
00000000
00000000
00000000
00000000
,
00100010
00100010
01000100
01000100
,
00010001
01000100
10001000
01000100
,
01100110
01100110
00000000
00000000
,
00010000
00000000
00000000
10000000
00000000
00000000
01000000
00000000
00100000
00000000
00000000
10000000
00000000
00000000
00010000
00000000
,
10000000
00000000
00000000
00010000
00000000
00000000
01000000
00000000
00100000
00000000
00000000
10000000
00000000
00000000
00010000
00000000
,
01000000
00000000
00000000
00010000
00000000
00000000
10000000
00000000
00010000
00000000
00000000
01000000
00000000
00000000
01000000
00000000
,
00010000
00000000
00000000
10000000
00000000
00000000
00010000
00000000
10000000
00000000
00000000
00000000
10000000
00000000
00000000
00000000
,
00000001
00000000
00000000
00001000
00000000
00000000
00000100
00000000
00000010
00000000
00000000
00001000
00000000
00000000
00000001
00000000
,
00001000
00000000
00000000
00000001
00000000
00000000
00000100
00000000
00000010
00000000
00000000
00001000
00000000
00000000
00000001
00000000
,
00000100
00000000
00000000
00000001
00000000
00000000
00001000
00000000
00000001
00000000
00000000
00000100
00000000
00000000
00000100
00000000
,
00000001
00000000
00000000
00001000
00000000
00000000
00000001
00000000
00001000
00000000
00000000
00000000
00001000
00000000
00000000
00000000
,
00100010
00010001
10001000
01000100
,
00010001
01000100
10001000
01000100
,
10000001
00000000
00000000
10000000
00000000
00000000
10000000
00000000
00010001
00000000
00000000
00010000
00000000
00000000
00010000
00000000
,
10000001
00000000
00000000
10000000
00000000
00000000
10000000
00000000
00010001
00000000
00000000
00010000
00000000
00000000
00010000
00000000
,
10001000
00000000
00000000
00001000
00000000
00000000
00001000
00000000
10000001
00000000
00000000
00000001
00000000
00000000
00000001
00000000
,
10001000
00000000
00000000
00001000
00000000
00000000
00001000
00000000
10000001
00000000
00000000
00000001
00000000
00000000
00000001
00000000
,
00100010
00100010
00010001
10001000
,
01000100
01000100
00010001
10001000
,
01000001
00000000
00000000
01000000
00000000
00000000
01000000
00000000
00010001
00000000
00000000
00010000
00000000
00000000
00010000
00000000
,
10000000
00000000
00000000
10000000
00000001
00000000
10000000
00000000
01000000
00000000
00000000
01000000
00000001
00000000
01000000
00000000
,
10000100
00000000
00000000
00000100
00000000
00000000
00000100
00000000
10000001
00000000
00000000
00000001
00000000
00000000
00000001
00000000
,
10001000
00000000
00000000
00001000
00000000
00000000
00001000
00000000
10000100
00000000
00000000
00000100
00000000
00000000
00000100
00000000
,
10001000
00000000
00000000
00000000
00010001
00000000
00000000
00000000
10001000
00000000
00000000
10001000
00000000
00000000
10001000
00000000
,
00010001
00000000
00000000
00000000
10001000
00000000
00000000
00000000
00010001
00000000
00000000
00010001
00000000
00000000
00010001
00000000
,
10001000
10001000
01000100
01000100
,
00010001
01010101
00000000
00000000
,
00100001
00000000
00000000
00100000
00000000
00000000
10010000
00000000
01000001
00000000
00000000
00010000
00000000
00000000
01000000
00000000
,
10010001
00000000
00000000
00100000
00000000
00000000
01000000
00000000
10010001
00000000
00000000
01000000
00000000
00000000
01000000
00000000
,
00010001
00000000
00000000
10000000
00000000
00000000
00010000
00000000
10000001
00000000
00000000
01000000
00000000
00000000
00100000
00000000
,
00100001
00000000
00000000
00100000
00000000
00000000
10010000
00000000
01000001
00000000
00000000
00000000
01000000
00000000
00000000
00000000
,
10000010
00000000
00000000
00000010
00000000
00000000
00001001
00000000
10000100
00000000
00000000
00000001
00000000
00000000
00000100
00000000
,
10001001
00000000
00000000
00000010
00000000
00000000
00000100
00000000
10001001
00000000
00000000
00000100
00000000
00000000
00000100
00000000
,
10000001
00000000
00000000
00001000
00000000
00000000
00000001
00000000
10001000
00000000
00000000
00000100
00000000
00000000
00000010
00000000
,
10000010
00000000
00000000
00000010
00000000
00000000
00001001
00000000
10000100
00000000
00000000
00000000
00000100
00000000
00000000
00000000
,
00100000
00000000
00000000
10000000
00000000
00000000
00010000
00000000
01000000
00000000
00000000
01000000
00000000
00000000
01000000
00000000
,
00100000
00000000
00000000
00010000
00000000
00000000
10000000
00000000
01000000
00000000
00000000
00000000
01000000
00000000
00000000
00000000
,
00000100
00000000
00000000
00001000
00000000
00000000
00000001
00000000
00000010
00000000
00000000
00000010
00000000
00000000
00000010
00000000
,
00000100
00000000
00000000
00000100
00000000
00000000
00001000
00000000
00000100
00000000
00000000
00000000
00000100
00000000
00000000
00000000
,
00100010
00000000
00000000
10001000
00000000
00000000
00010001
00000000
01000100
00000000
00000000
01000100
00000000
00000000
01000100
00000000
,
00100010
00000000
00000000
00010001
00000000
00000000
10001000
00000000
01000100
00000000
00000000
01000100
00000000
00000000
01000100
00000000
,
00100010
00000000
00000000
00100010
00000000
00000000
10011001
00000000
01000100
00000000
00000000
01000100
00000000
00000000
10011001
00000000
,
01000100
00000000
00000000
01000100
00000000
00000000
10011001
00000000
01000100
00000000
00000000
01000100
00000000
00000000
01000100
00000000
,
10011001
00000000
00000000
00000000
;

//---------------dance-solo - ----------------
#NOTES:
     dance-solo:
     :
     Easy:
     2:
     0.202,0.270,0.076,0.000,0.000:
000000
000000
000000
000000
,
000000
000000
000000
000000
,
000000
000000
000000
000000
,
000000
000000
000000
000000
,
000000
000000
000000
000000
,
000000
000000
000000
000000
,
000000
000000
000000
000000
,
000100
000000
001000
000000
,
000010
000000
010000
000000
,
001000
001000
000000
000000
,
000001
000000
001000
000000
,
100000
000000
001000
000000
,
000001
000000
001000
000000
,
000010
000000
100000
000000
,
001000
000000
010000
000000
,
000100
000000
100000
000000
,
001000
000000
010000
000000
,
000100
000000
001000
000000
,
100001
000000
010000
000000
,
000010
000000
010000
000000
,
000010
100000
000001
000000
,
100000
000000
000010
000000
,
010000
000010
100000
000000
,
010000
000000
001000
000000
,
000010
000000
001000
000000
,
000100
000100
000100
000100
,
100000
000001
100000
000001
,
100000
001000
000010
001000
,
010000
001000
000010
001000
,
010000
100001
000000
010000
,
100001
000000
000000
000010
,
100001
000000
000100
010000
,
000100
000010
100000
001000
,
100001
000000
000000
000000
,
100001
000100
000010
000000
,
100000
000000
000100
000000
,
010000
001000
000001
001000
,
100000
001000
000001
000100
,
010000
001000
100000
001000
,
010000
001000
100000
000100
,
000010
001000
100000
001000
,
010000
010000
000000
000000
,
000100
000100
000001
100000
,
001000
001000
000001
001000
,
000010
000010
100000
000001
,
001000
001000
100000
001000
,
010000
010000
000010
100000
,
001000
001000
000001
000000
,
010000
000000
000010
000000
,
000001
100000
000010
010000
,
100001
000000
000000
000000
;

//---------------dance-solo - ----------------
#NOTES:
     dance-solo:
     :
     Medium:
     6:
     0.325,0.379,0.130,0.000,0.081:
000000
000000
000000
000000
,
000000
000000
000000
000000
,
000000
000000
000000
000000
,
000000
000000
000000
000000
,
000000
000000
000000
000000
,
000000
000000
000000
000000
,
000000
000000
000000
000000
,
000100
000100
000000
000000
001000
001000
000000
000000
,
000010
001000
010000
100001
,
001000
001000
000000
000000
,
000010
001000
000100
010000
,
000001
001000
000100
100000
,
000001
001000
100000
000000
000010
001000
010000
000000
,
000001
100000
000001
100000
000001
001000
010000
000000
,
000001
001000
100000
001000
,
010000
000001
000100
001000
,
000001
001000
000010
100000
,
001100
100001
001100
100001
,
000100
000010
100000
001000
,
000001
000000
010000
000000
,
000010
001000
100000
000000
100000
001000
000001
000000
,
100000
000000
001000
000000
010000
000100
001000
000000
,
100000
000010
010000
001100
,
000001
100000
000001
001000
,
000010
100000
001000
000000
000001
001000
010000
000000
,
000001
000000
100000
000000
001000
001000
001000
000000
,
010000
000000
000000
010000
000000
000000
010000
000000
000001
000000
000000
000001
000000
000000
000001
000000
,
001000
000000
000000
001000
000000
000000
001000
000000
000010
000000
000000
000010
000000
000000
100000
000000
,
100000
000000
000000
100000
000000
000000
000100
000000
000001
000000
000000
000001
000000
000000
000100
000000
,
010000
000000
000000
010000
000000
000000
001000
000000
000001
000000
000000
000001
000000
000000
100000
000000
,
100000
000000
000000
100000
000000
000000
000010
000000
000010
000000
000000
000010
000000
000000
000100
000000
,
000100
000000
000000
000100
000000
000000
010000
000000
010000
000000
000000
010000
000000
000000
001000
000000
,
001000
000000
000000
001000
000000
000000
000001
000000
000001
000000
000000
000001
000000
000000
000100
000000
,
000100
000000
000000
000100
000000
000000
001000
000000
000000
000000
000000
000000
000000
000000
000000
000000
,
000100
000100
100001
001000
,
000010
001000
100001
000010
,
001000
100001
001000
001000
,
000010
100000
000010
001000
000100
000000
000100
000000
,
001000
001000
100001
000100
,
001000
000100
100001
001000
,
000010
000010
100000
000001
,
001000
001000
000000
000000
,
000100
100000
000010
000000
001000
000000
000000
000000
,
000100
000001
010000
000000
001000
000000
000000
000000
,
001000
100000
000010
000000
000100
000000
000001
000000
,
001000
001000
100000
001000
,
000100
010000
000001
000000
001000
000000
000000
000000
,
000100
000010
100000
000000
001000
000000
000000
000000
,
000100
000100
010000
000000
001000
001000
000001
000000
,
001000
001000
100000
000000
001000
001000
010000
000000
,
100001
000000
000000
000000
;

//---------------dance-solo - ----------------
#NOTES:
     dance-solo:
     :
     Hard:
     7:
     0.428,0.487,0.325,0.000,0.411:
000000
000000
000000
000000
,
000000
000000
000000
000000
,
000000
000000
000000
000000
,
000000
000000
000000
000000
,
000000
000000
000000
000000
,
000000
000000
000000
000000
,
000000
000000
000000
000000
,
000001
001000
100000
000100
010000
001000
000010
001000
,
010000
000100
100000
001000
000001
000000
001000
000000
,
100001
001100
000000
000000
,
000001
000000
000000
100000
000000
000000
001000
000000
000100
000000
000000
100000
000000
000000
000010
000000
,
010000
000000
000000
000001
000000
000000
001000
000000
000100
000000
000000
010000
000000
000000
000001
000000
,
001000
000000
000000
000010
000000
000000
100000
000000
000001
000000
000000
001000
000000
000000
001000
000000
,
000010
000000
000000
100000
000000
000000
000100
000000
010000
000000
000000
000001
000000
000000
100000
000000
,
000010
000000
000000
000010
000000
000000
001000
000000
100000
000000
000000
100000
000000
000000
001000
000000
,
000001
000000
000000
000001
000000
000000
001000
000000
010000
000000
000000
010000
000000
000000
001000
000000
,
000001
000000
000000
000001
000000
000000
000100
000000
000100
000000
000000
000100
000000
000000
000100
000000
,
100001
001100
100001
000000
,
000100
000000
000000
000010
000000
000000
010000
000000
000100
000000
000000
000010
000000
000000
000100
000000
,
010000
000000
000000
010000
000000
000000
001000
000000
001000
000000
000000
001000
000000
000000
000001
000000
,
000001
000000
000000
000001
000000
000000
100000
000000
100000
000000
000000
100000
000000
000000
000010
000000
,
000100
000000
000000
000100
000000
000000
001000
000000
100001
000000
000000
100000
000000
000000
000001
000000
,
100001
000000
000000
100000
000000
000000
000010
000000
010000
000000
000000
001000
000000
000000
000001
000000
,
000001
000000
000000
001000
000000
000000
100000
000000
100000
000000
000000
001000
000000
000000
000001
000000
,
000001
000000
000000
000100
000000
000000
010000
000000
010000
000000
000000
000100
000000
000000
000010
000000
,
000010
000000
000000
100000
000000
000000
000001
000000
001000
000000
000000
001000
000000
000000
001000
000000
,
100000
000000
000000
100000
000000
000000
100000
000000
000001
000000
000000
000001
000000
000000
000001
000000
,
001000
000000
000000
001000
000000
000000
001000
000000
100001
000000
000000
000001
000000
000001
000000
000000
,
100001
000000
000000
100000
000000
000000
100000
000000
001010
000000
000000
000010
000000
000000
001000
000000
,
011000
000000
000000
010000
000000
000000
001000
000000
001001
000000
000000
000001
000000
000000
001000
000000
,
100100
000000
000000
100000
000000
000000
001000
000000
000001
000000
000000
100001
000000
000000
001000
000000
,
100000
000000
000000
100001
000000
000000
001000
000000
000010
000000
000000
100010
000000
000000
001000
000000
,
010000
000000
000000
010001
000000
000000
001000
000000
100001
000000
000000
001100
000000
000000
100000
000000
,
000010
000000
000000
010000
000000
000000
001100
000000
000000
000000
000000
000000
000000
000000
000000
000000
,
000100
000000
000000
000100
000000
000000
100001
000000
001000
000000
000000
000010
000000
000000
001000
000000
,
100001
000000
000000
000100
000000
000000
001000
000000
100001
000000
000000
001000
000000
000000
001000
000000
,
000010
000000
000000
100000
000000
000000
000001
000000
010000
000000
000000
001000
000000
000000
000100
000000
,
000100
000000
000000
000100
000000
000000
100001
000000
001000
000000
000000
000010
000000
000000
001000
000000
,
100001
000000
000000
010000
000000
000000
001000
000000
100001
000000
000000
001000
000000
000000
001000
000000
,
010000
000000
000000
000001
000000
000000
100000
000000
000010
000000
000000
001000
000000
000000
001000
000000
,
000100
000000
000000
000100
000000
000000
100000
000000
000001
000000
000000
000001
000000
000000
001000
000000
,
001000
001000
000000
000000
,
000100
000000
000000
100000
000000
000000
000001
000000
001000
000000
000000
001000
000000
000000
001000
000000
,
000100
000000
000000
000010
000000
000000
100000
000000
001000
000000
000000
001000
000000
000000
001000
000000
,
001000
000000
000000
010000
000000
000000
000001
000000
000100
000000
000000
000100
000000
000000
000100
000000
,
001000
000000
000000
001000
000000
000000
010000
000000
001000
000000
000000
001000
000000
000000
001000
000000
,
000100
000000
000000
100000
000000
000000
000001
000000
001000
000000
000000
001000
000000
000000
001000
000000
,
000010
000000
000000
000001
000000
000000
010000
000000
001000
000000
000000
001000
000000
000000
001000
000000
,
000100
000000
000000
000100
000000
000000
100001
000000
001000
000000
000000
001000
000000
000000
010001
000000
,
001000
000000
000000
001000
000000
000000
100010
000000
001000
000000
000000
001000
000000
000000
001000
000000
,
100001
000000
000000
000000
;

//---------------dance-double - Edit by silenttype01----------------
#NOTES:
     dance-double:
     Edit by silenttype01:
     Challenge:
     8:
     0.436,0.487,0.249,0.000,0.433: // measure 1
00000000
00000000
00000000
00000000
,  // measure 2
00000000
00000000
00000000
00000000
,  // measure 3
00000000
00000000
00000000
00000000
,  // measure 4
00000000
00000000
00000000
00000000
,  // measure 5
00000000
00000000
00000000
00000000
,  // measure 6
00000000
00000000
00000000
00000000
,  // measure 7
00000000
00000000
00000000
00000000
00000000
00000000
00000000
10000000
,  // measure 8
00100000
01000000
00000000
00010000
00100000
01000000
00000000
00100000
,  // measure 9
00001000
00000000
00010000
00000000
00000100
00000000
00000010
00000001
00000000
00000000
00000000
00000000
00000000
00000000
00000000
00000000
,  // measure 10
00001001
00001001
00000000
00000000
,  // measure 11
00000001
00000000
00000000
00000100
00000000
00000000
00000010
00000000
00000100
00000000
00000000
00001000
00000000
00000000
00000100
00000000
,  // measure 12
00010000
00000000
00000000
00000100
00000000
00000000
00000010
00000000
00010000
00000000
00000000
00001000
00000000
00000000
00100000
00000000
,  // measure 13
01000000
00000000
00000000
00001000
00000000
00000000
01000000
00000000
00010000
00000000
00000000
01000000
00000000
00000000
00100000
00000000
,  // measure 14
01000000
00000000
00000000
10000000
00000000
00000000
00100000
00000000
01000000
00000000
00000000
00001000
00000000
00000000
00010000
00000000
,  // measure 15
00000100
00000000
00000000
00001000
00000000
00000000
00000010
00000000
00001000
00000000
00000000
00000001
00000000
00000000
00000010
00000000
,  // measure 16
00000100
00000000
00000000
00010000
00000000
00000000
00001000
00000000
00100000
00000000
00000000
00010000
00000000
00000000
01000000
00000000
,  // measure 17
00100000
00000000
00000000
10000000
00000000
00000000
01000000
00000000
00100000
00000000
00000000
00010000
00000000
00000000
01000000
00000000
,  // measure 18
10010000
00011000
00001001
00000000
,  // measure 19
00010000
00000100
00000010
00001000
,  // measure 20
00000110
00011000
10010000
01100000
,  // measure 21
00010000
00100000
00001000
00000100
,  // measure 22
00001010
00000011
00001100
00011000
,  // measure 23
00100000
10000000
00010000
00001000
,  // measure 24
00010000
00001000
00000100
00000010
,  // measure 25
00001100
00011000
01010000
10100000
,  // measure 26
00010000
00100000
00001000
00010000
,  // measure 27
00000100
00000000
00001000
00000000
00000010
00000000
00000000
00001000
00000000
00000100
00000000
00001000
00000001
00000000
00000100
00000000
,  // measure 28
00001000
00000000
00010000
00000000
01000000
00000000
00000000
10000000
00000000
00100000
00000000
10000000
00010000
00000000
01000000
00000000
,  // measure 29
00100000
00000000
10000000
00000000
01000000
00000000
00000000
00010000
00000000
01000000
00000000
00010000
00001000
00000000
00010000
00000000
,  // measure 30
00001000
00000000
00000100
00000000
00001000
00000000
00000000
00000100
00000000
00000001
00000000
00000100
00000010
00000000
00001000
00000000
,  // measure 31
00000001
00000000
00000010
00000000
00001000
00000000
00000000
00010000
00000000
00001000
00000000
00010000
00100000
00000000
10000000
00000000
,  // measure 32
00100000
00000000
00010000
00000000
00001000
00000000
00000000
00000010
00000000
00000001
00000000
00000010
00001000
00000000
00010000
00000000
,  // measure 33
00100000
00000000
10000000
00000000
00010000
00000000
00000000
01000000
00000000
00100000
00000000
10000000
01000000
00000000
00100000
00000000
,  // measure 34
00010000
01000000
10000000
00000000
00000000
00000000
00000000
00000000
,  // measure 35
10100000
00000000
00100000
10000000
00000000
00000000
10000000
01000000
00000000
00000000
01000000
00010000
00000000
00000000
00010000
00001000
,  // measure 36
00000000
00000000
00001000
00000010
00000000
00000000
00000010
00000001
00000000
00000000
00000001
00000100
00000000
00000000
00000100
00001000
,  // measure 37
00000000
00000000
00001000
00010000
00000000
00000000
00010000
00100000
00000000
00000000
00100000
10000000
00000000
00000000
10000000
00010000
,  // measure 38
00000000
00000000
00010000
10000000
00000000
00000000
10000000
00010000
00000000
00000000
00010000
00001000
00000000
00000000
00001000
00000001
,  // measure 39
00000000
00000000
00000001
00001000
00000000
00000000
00001000
00010000
00000000
00000000
00010000
10000000
00000000
00000000
10000000
00100000
,  // measure 40
00000000
00000000
00100000
00010000
00000000
00000000
00010000
00001000
00000000
00000000
00001000
00000100
00000000
00000000
00000100
00000010
,  // measure 41
00000000
00000000
00000010
00001000
00000000
00000000
00001000
00000001
00000000
00000000
00000001
00001000
00000000
00000000
00000100
00000010
,  // measure 42
00000100
00001001
00011000
10010000
,  // measure 43
01000000
00000000
00000000
00010000
00000000
00000000
00100000
00000000
01000000
00000000
00000000
10000000
00000000
00000000
00100000
00000000
,  // measure 44
01000000
00000000
00000000
00010000
00000000
00000000
00100000
00000000
00001000
00000000
00000000
00010000
00000000
00000000
00000100
00000000
,  // measure 45
00000010
00000000
00000000
00000001
00000000
00000000
00001000
00000000
00000010
00000000
00000000
00001000
00000000
00000000
00000100
00000000
,  // measure 46
00010000
00000000
00000000
00001000
00000000
00000000
01000000
00000000
00100000
00000000
00000000
10000000
00000000
00000000
01000000
00000000
,  // measure 47
00100000
00000000
00000000
01000000
00000000
00000000
00010000
00000000
01000000
00000000
00000000
00001000
00000000
00000000
01000000
00000000
,  // measure 48
00100000
00000000
00000000
00001000
00000000
00000000
00010000
00000000
00000010
00000000
00000000
00000100
00000000
00000000
00010000
00000000
,  // measure 49
00000100
00000000
00000000
00001000
00000000
00000000
00000100
00000000
00000010
00000000
00000000
00000100
00000000
00000000
00000001
00000000
,  // measure 50
00001001
00000000
00000000
00000000
00000000
00000000
00000001
00000010
00010000
00100000
00000000
00000000
,  // measure 51
10010000
00000000
00000000
00000000
;
