#TITLE:ECSTASY;
#SUBTITLE:(midnight blue mix);
#ARTIST:d-compleX;
#TITLETRANSLIT:;
#SUBTITLETRANSLIT:;
#ARTISTTRANSLIT:;
#CREDIT:;
#BANNER:ECSTASY(midnight blue mix).png;
#BACKGROUND:ECSTASY(midnight blue mix)-bg.png;
#LYRICSPATH:;
#CDTITLE:./CDTITLES/DDRMAX2 -Dance Dance Revolution 7thMIX-.PNG;
#MUSIC:ECSTASY(midnight blue mix).mp3;
#OFFSET:-0.071;
#SAMPLESTART:26.460;
#SAMPLELENGTH:15.000;
#SELECTABLE:YES;
#DISPLAYBPM:145.000;
#BPMS:0.000=145.280,176.000=150.330;
#STOPS:;
#BGCHANGES:;

//---------------dance-double - ----------------
#NOTES:
     dance-double:
     :
     Hard:
     1:
     0.412,0.424,0.207,0.174,0.082:
00000000
00000000
00000000
00000000
,
00000000
00000000
00000000
00000000
,
00000000
00000000
00000000
00000000
,
00100000
00000000
00100000
00000000
00010000
00000000
00100000
00010000
,
00001000
00000000
00000100
00000000
00000100
00000000
00000010
00000001
,
00000100
00000000
00000010
00000000
00001000
00000000
00001000
00010000
,
00100000
00000000
00100000
00000000
01000000
00000000
00100000
00010000
,
00100000
00000000
10000000
00000000
10010000
00000000
00010000
00001000
,
00000010
00000100
00000001
00000100
00000000
00001000
00000000
00010000
,
01000000
10100000
01000000
00010000
00000000
00100000
00000000
00010000
,
00001000
00000100
00000010
00000100
00000000
00000100
00000000
00000010
,
00000100
00000010
00000001
00000100
00000000
00000100
00000000
00001000
,
00000100
00001000
00000000
00000010
00000001
00000010
00000000
00000100
,
00001000
00000100
00000000
00001000
00010000
01000000
00000000
00100000
,
10000000
01000000
00000000
00010000
00100000
10000000
00000000
00100000
,
00010000
01000000
00000000
10000000
00100000
10010000
00000000
00000000
,
00200000
00000000
00310000
00010000
,
00020000
00000000
00031000
00001000
,
00022000
00000000
00033000
00000100
,
00000201
00000000
00000300
00000001
,
00000020
00000000
00001030
00001000
,
00012000
00000000
00103000
00100000
,
00200000
00000000
10300000
10000000
,
20010000
00000000
30000000
00010000
,
10000000
00000000
00000000
00100000
00000000
00000000
00010000
00000000
00000000
00000000
00000000
00000000
00010000
00000000
00000000
00000000
,
00001000
00000000
00000000
00010000
00000000
00000000
00001000
00000000
00000000
00000100
00000000
00000000
00000000
00000100
00000000
00000000
,
00000010
00000000
00000000
00000001
00000000
00000000
00001000
00000000
00000000
00000000
00000000
00000000
00001001
00000000
00000000
00000000
,
00010000
00000000
00000000
00001000
00000000
00000000
00001000
00000000
00000000
00010000
00000000
00000000
00000000
00100000
00000000
00000000
,
01000000
00011000
00001000
00000110
,
00000001
00001100
00011000
00001000
,
00000010
00000001
00000100
00001000
,
00010000
00100000
10000000
01000000
,
00020000
00000000
02030000
00000000
,
03020000
00000000
00032000
00000000
,
00003200
00001000
00000302
00000100
,
00000023
00000100
00001030
00000000
,
00001000
00010000
00100000
00010000
00000000
01000000
00100000
10000000
,
01000000
00010000
00100000
00010000
00000000
00010000
00001000
00010000
,
00001000
00000010
00001000
00000100
00000000
00000100
00000001
00000010
,
00001000
00010000
00001000
00010000
00000000
00010000
01000000
00010000
,
01000000
00000000
10010000
00000000
00000000
00000000
00100000
00000000
00000000
00001000
00010000
00000000
00000000
00000000
00001000
00000000
,
00000000
00000010
00000001
00000000
00000000
00000000
00000010
00000000
00000000
00000100
00001000
00000000
00000000
00000000
00001000
00000000
,
00000000
00000100
00001000
00000000
00000000
00000000
00000010
00000000
00000000
00000001
00000010
00000000
00000000
00000000
00000100
00000000
,
00000000
00001000
00000100
00000000
00000000
00000000
00001000
00000000
00000000
00010000
00001000
00000000
00000000
00000000
00000000
00000000
,
00011000
00000000
00000000
00100000
00010000
01000000
00000000
00010000
,
00000000
10000000
01000000
00010000
00000000
00000000
00001000
00000000
,
00000110
00000000
00000000
00000100
00000001
00000010
00000000
00000001
,
00000000
00000100
00001000
00000100
00000000
00000000
00011000
00000000
,
01100000
00000000
00000000
00100000
10000000
00010000
00000000
01010000
,
00000000
10000000
00100000
10000000
00000000
00000000
00010000
00001000
,
00000010
00000000
00000100
00000001
00000100
00000000
00000010
00000100
,
00001000
00000000
00010000
00100000
01000000
00000000
00100000
01000000
,
10010000
00000000
00000000
00000000
,
00000000
00000000
00000000
00000000
;

//---------------dance-single - ----------------
#NOTES:
     dance-single:
     :
     Beginner:
     1:
     0.162,0.196,0.109,0.000,0.000:
0000
0000
0000
0000
,
0000
0000
0000
0000
,
0000
0000
0000
0000
,
1001
0000
0000
1000
,
0000
0110
0000
1000
,
0000
0001
0000
0001
,
0000
1000
0000
0001
,
0000
1000
0000
0100
,
0100
0000
0100
0000
,
0100
0000
0100
0000
,
0100
0000
0100
0000
,
0100
0000
0100
0000
,
1000
0000
0100
0000
,
1000
0000
0100
0000
,
0001
0000
0100
0000
,
0001
0000
0100
0000
,
0010
0000
1000
0000
,
1000
0000
0100
0000
,
0001
0000
0001
0000
,
0100
0000
0010
0000
,
1000
0000
0100
0000
,
0010
0000
0001
0000
,
0010
0000
0001
0000
,
1000
0000
0001
0000
,
1000
0000
0000
0100
,
0100
0000
0000
0000
,
0100
0000
0000
1001
,
0000
0000
0000
1001
,
0000
1001
0000
0110
,
0000
0010
0000
1000
,
0000
0001
0000
1000
,
0000
0010
0000
0110
,
0000
0100
0000
0100
,
0000
0100
0000
0100
,
0000
0000
0000
0010
,
0000
0000
0000
0100
,
0000
0001
0000
0001
,
0000
0100
0000
0100
,
0100
0000
0100
0000
,
0100
0000
0100
0000
,
1000
0000
1000
0000
,
1000
0000
1000
0000
,
0100
0000
0100
0000
,
0100
0000
0100
0000
,
1000
0000
0100
0000
,
0001
0000
0100
0000
,
0010
0000
0010
0000
,
1001
0000
0010
0000
,
0110
0000
0001
0000
,
1001
0000
0001
0000
,
0001
0000
0100
0000
,
0010
0000
0001
0000
,
0000
0000
0000
0000
,
0000
0000
0000
0000
;

//---------------dance-single - ----------------
#NOTES:
     dance-single:
     :
     Challenge:
     8:
     0.457,0.517,0.272,0.076,0.299: // measure 1
0000
0000
0000
0000
,  // measure 2
0000
0000
0000
0000
,  // measure 3
0000
0000
0000
0000
,  // measure 4
1001
0000
0100
0010
0000
0000
1000
0001
,  // measure 5
0100
0000
0110
0000
0001
0000
1000
0100
,  // measure 6
0010
0000
0101
0000
0010
0000
0001
1000
,  // measure 7
0100
0000
1100
0000
0001
0000
0001
0010
,  // measure 8
1000
0000
0000
0000
1100
0000
0000
0000
0010
0000
0001
0000
0100
0000
0000
1000
,  // measure 9
0100
0000
0001
0000
0000
0000
0000
1000
0100
0000
0010
0000
0000
0000
0000
1000
,  // measure 10
0100
0000
0001
0000
0000
0000
0000
1000
0100
0000
0010
0000
0000
0000
0000
0001
,  // measure 11
0100
0000
1000
0000
0000
0000
0000
0001
0100
0000
0010
0000
0000
0000
0000
0001
,  // measure 12
0100
0000
1000
0000
0000
0000
0000
0001
0100
0000
0010
0000
0000
0000
0000
0010
,  // measure 13
1000
0000
0001
0000
0000
0000
0000
0001
0100
0000
0010
0000
0000
0000
0000
0010
,  // measure 14
1000
0000
0001
0000
0000
0000
0000
0001
0100
0000
0010
0000
0000
0000
0000
0010
,  // measure 15
0001
0000
1000
0000
0000
0000
0000
1000
0100
0000
0010
0000
0000
0000
0000
0010
,  // measure 16
0001
0000
1000
0000
0000
0000
0000
1000
0100
0000
0010
0000
0000
0000
0000
0000
,  // measure 17
1020
0000
0000
1000
0000
0000
1000
0000
1030
0000
0000
1000
0000
0000
1000
0000
,  // measure 18
2100
0000
0000
0100
0000
0000
0100
0000
3100
0000
0000
0100
0000
0000
0100
0000
,  // measure 19
0201
0000
0000
0001
0000
0000
0001
0000
0301
0000
0000
0001
0000
0000
0001
0000
,  // measure 20
0012
0000
0000
0010
0000
0000
0010
0000
0013
0000
0000
0010
0000
0000
0010
0000
,  // measure 21
1000
0000
0000
1000
0000
0000
1000
0000
0100
0000
0000
0100
0000
0000
0100
0000
,  // measure 22
0010
0000
0000
0010
0000
0000
0010
0000
0001
0000
0000
1000
0000
0000
0100
0000
,  // measure 23
0010
0000
0000
0010
0000
0000
0010
0000
0001
0000
0000
0001
0000
0000
0001
0000
,  // measure 24
1000
0000
0000
1000
0000
0000
1000
0000
0001
0000
0000
0010
0000
0000
1000
0000
,  // measure 25
1000
0000
0000
0010
0000
0000
0100
0000
0000
0000
0000
0000
0011
0000
0000
0000
,  // measure 26
0100
0000
0000
1000
0000
0000
0010
0000
0000
0000
0000
1000
0000
0000
1000
0000
,  // measure 27
0100
0000
0000
0001
0000
0000
1010
0000
0000
0000
0000
0000
1001
0000
0000
0000
,  // measure 28
0001
0000
0000
0100
0000
0000
0100
0000
0000
0000
0000
0000
1001
0000
0000
0000
,  // measure 29
0100
1001
0001
0110
,  // measure 30
0001
1010
0101
1000
,  // measure 31
0100
0001
0010
1100
,  // measure 32
0100
0010
1000
0110
,  // measure 33
2001
0100
0001
0100
,  // measure 34
0001
0100
0001
0100
,  // measure 35
0010
0000
0000
0010
0000
0000
0010
0000
0000
0000
0000
0000
0010
0000
0000
0000
,  // measure 36
0100
0000
0000
0100
0000
0000
0100
0000
0000
0000
0000
0000
3100
0000
0000
0100
,  // measure 37
1000
0000
0000
0000
0001
0000
0000
0100
1000
0000
0000
0000
0001
0000
0000
0001
,  // measure 38
1000
0000
0000
0000
0100
0000
0000
0001
1000
0000
0000
0000
0100
0000
0000
0010
,  // measure 39
0100
0000
0000
0000
0001
0000
0000
0010
0100
0000
0000
0000
0001
0000
0000
1000
,  // measure 40
0100
0000
0000
0000
0010
0000
0000
1000
0100
0000
0000
0000
0010
0000
0000
0100
,  // measure 41
1000
0000
0001
0000
0000
0000
0000
0100
1000
0000
0001
0000
0000
0000
0000
0001
,  // measure 42
1000
0000
0100
0000
0000
0000
0000
0001
1000
0000
0100
0000
0000
0000
0000
0010
,  // measure 43
0100
0000
0001
0000
0000
0000
0000
0010
0100
0000
0001
0000
0000
0000
0000
1000
,  // measure 44
0100
0000
0010
0000
0000
0000
0000
1000
0100
0000
0010
0000
0000
0000
0000
0000
,  // measure 45
1000
0000
0100
0000
,  // measure 46
0001
0000
0100
0000
,  // measure 47
1010
0000
0100
0000
0010
0001
0100
0010
,  // measure 48
1001
0000
0100
0000
0010
0001
1000
0100
,  // measure 49
0110
0000
1000
0000
0001
0010
0100
1000
,  // measure 50
1001
0000
0010
0000
0001
1000
0100
0010
,  // measure 51
0001
0010
0100
1000
0100
1000
0001
1000
,  // measure 52
0010
0100
0001
0010
0001
1000
0010
0220
,  // measure 53
0000
0000
0000
0330
;

//---------------dance-double - ----------------
#NOTES:
     dance-double:
     :
     Challenge:
     8:
     0.412,0.488,0.196,0.196,0.196:
00000000
00000000
00000000
00000000
,
00000000
00000000
00000000
00000000
,
00000000
00000000
00000000
00000000
,
00011000
00000000
00100000
00000000
00010000
00000000
00100000
00010000
,
00001000
00000000
00000100
00000000
00000100
00000000
00000010
00000001
,
00000100
00000000
00000010
00000000
00001000
00000000
00001000
00010000
,
00100000
00000000
00100000
00000000
01000000
00000000
00100000
00010000
,
00100000
00000000
00000000
00000000
10010000
00000000
00000000
00000000
01000000
00000000
00100000
00000000
00001000
00000000
00000000
00001000
,
00010000
00000000
00000010
00000000
00000000
00000000
00000000
00000001
00000100
00000000
00001000
00000000
00000000
00000000
00000000
00000010
,
00001000
00000000
00000100
00000000
00000000
00000000
00000000
00010000
00001000
00000000
01000000
00000000
00000000
00000000
00000000
00010000
,
10000000
00000000
01000000
00000000
00000000
00000000
00000000
00100000
00010000
00000000
01000000
00000000
00000000
00000000
00000000
00001000
,
00010000
00000000
00001000
00000000
00000000
00000000
00000000
00000010
00001000
00000000
00000010
00000000
00000000
00000000
00000000
00000001
,
00000010
00000000
00000001
00000000
00000000
00000000
00000000
00000001
00000100
00000000
00000001
00000000
00000000
00000000
00000000
00000010
,
00001000
00000000
00000100
00000000
00000000
00000000
00000000
00010000
00001000
00000000
00010000
00000000
00000000
00000000
00000000
00001000
,
00010000
00000000
00001000
00000000
00000000
00000000
00000000
00001000
00100000
00000000
00010000
00000000
00000000
00000000
00000000
00010000
,
01000000
00000000
00010000
00000000
00000000
00000000
00000000
10000000
01000000
00000000
00100000
00000000
00000000
00000000
00000000
00000000
,
00200000
00000000
00310000
00010000
,
00020000
00000000
00031000
00001000
,
00022000
00000000
00033000
00000100
,
00000102
00000000
00000003
00000001
,
00000020
00000000
00001030
00001000
,
00021000
00000000
00130000
00100000
,
00200000
00000000
10300000
10000000
,
10020000
00000000
00030000
00010000
,
10000000
00000000
00000000
00100000
00000000
00000000
00010000
00000000
00000000
00000000
00000000
00000000
00010000
00000000
00000000
00000000
,
00001000
00000000
00000000
00010000
00000000
00000000
00001000
00000000
00000000
00000000
00000000
00000000
00001010
00000000
00000000
00000000
,
00000010
00000000
00000000
00000001
00000000
00000000
00001000
00000000
00000000
00000000
00000000
00000000
00001001
00000000
00000000
00000000
,
00010000
00000000
00000000
00001000
00000000
00000000
00001000
00000000
00000000
00000000
00000000
00000000
00110000
00000000
00000000
00000000
,
01000000
00011000
00001000
00000110
,
00000001
00001100
00011000
00001000
,
00000010
00000001
00000100
00001000
,
00010000
00100000
10000000
01000000
,
00020000
00000000
02030000
00000000
,
03020000
00000000
00032000
00000000
,
00003200
00001000
00000302
00000100
,
00000023
00000000
00000000
00000000
00000100
00000000
00000000
00000000
00001030
00000000
00000000
00000000
00000000
00000000
00000000
00001000
,
00010000
00000000
00000000
00000000
00001000
00000000
00000000
00100000
01000000
00000000
00000000
00000000
10000000
00000000
00000000
00100000
,
01000000
00000000
00000000
00000000
00010000
00000000
00000000
00001000
00010000
00000000
00000000
00000000
01000000
00000000
00000000
00010000
,
00001000
00000000
00000000
00000000
00000100
00000000
00000000
00000001
00000100
00000000
00000000
00000000
00000010
00000000
00000000
00001000
,
00000100
00000000
00000000
00000000
00010000
00000000
00000000
00001000
00010000
00000000
00000000
00000000
00000100
00000000
00000000
00001000
,
00010000
00000000
00001000
00000000
00000000
00000000
00000000
00100000
01000000
00000000
10000000
00000000
00000000
00000000
00000000
00100000
,
01000000
00000000
00010000
00000000
00000000
00000000
00000000
00001000
00010000
00000000
01000000
00000000
00000000
00000000
00000000
00010000
,
00001000
00000000
00000100
00000000
00000000
00000000
00000000
00000001
00000100
00000000
00000010
00000000
00000000
00000000
00000000
00001000
,
00000100
00000000
00010000
00000000
00000000
00000000
00000000
00001000
00010000
00000000
00000100
00000000
00000000
00000000
00000000
00000000
,
00010000
00000000
00100000
00000000
,
10000000
00000000
01000000
00000000
,
01001000
00000000
00010000
00000000
00001000
00010000
00000100
00001000
,
00010100
00000000
00001000
00000000
00000010
00001000
00000100
00000010
,
00001100
00000000
00010000
00000000
00001000
00010000
01000000
00100000
,
11000000
00000000
00100000
00000000
10000000
01000000
00100000
01000000
,
00010000
00001000
00000100
00001000
00010000
00000100
00001000
00000100
,
00000010
00000001
00000100
00001000
00010000
00001000
00000010
00000220
,
00000000
00000000
00000000
00000330
;

//---------------dance-single - ----------------
#NOTES:
     dance-single:
     :
     Hard:
     8:
     0.513,0.600,0.191,0.244,0.388: // measure 1
0000
0000
0000
0000
,  // measure 2
0000
0000
0010
0000
0000
0000
0010
0000
0000
0010
1000
0001
0010
0000
0100
0000
,  // measure 3
0000
0000
0100
0000
0000
0000
0100
0010
0000
0000
0100
0000
0000
0000
0100
0000
,  // measure 4
2002
0000
0000
3003
,  // measure 5
0100
1001
0010
1100
,  // measure 6
0010
0000
0000
0000
1001
0000
0010
1000
0000
1000
0100
0000
1001
0000
0000
0000
,  // measure 7
0100
1010
0001
0010
,  // measure 8
2002
0000
0000
3003
,  // measure 9
0100
0000
0010
0000
0000
0000
0001
0100
0000
0000
0010
0000
0000
0000
1000
0100
,  // measure 10
0000
0000
0010
0000
0000
0000
0001
1000
0000
0000
0010
0000
0000
0000
1000
0001
,  // measure 11
0000
0000
0010
0000
0000
0000
0100
1000
0000
0000
0010
0000
0000
0000
0100
0001
,  // measure 12
0000
0000
0010
0000
0000
0000
0001
1000
0000
0000
0100
0000
0000
0000
0000
0000
,  // measure 13
1001
0000
0010
0000
0000
0000
1000
0200
0000
0000
0301
0000
0000
0000
1000
0200
,  // measure 14
0000
0000
0301
0000
0000
0000
1000
0200
0000
0000
0310
0000
0000
0000
1000
0200
,  // measure 15
0000
0000
0310
0000
0000
0000
0100
0002
0000
0000
0013
0000
0000
0000
0100
0002
,  // measure 16
0000
0000
0013
0000
0000
0000
1000
0200
0000
0000
0310
0000
1000
0100
0010
0001
,  // measure 17
1000
0010
0110
0100
0001
0010
1001
0100
,  // measure 18
1000
0010
0110
0100
0001
0010
1100
1000
,  // measure 19
0001
0000
0000
0000
0000
0000
0000
0000
0001
0000
0000
0000
0000
0000
0000
0001
0000
0000
0000
0000
0000
0100
0000
0000
0010
0000
0000
0000
0000
0000
0000
0000
0010
0000
0000
0000
0000
0000
0000
0010
0000
0000
0000
0000
0000
1000
0000
0000
,  // measure 20
0100
0000
0000
0000
0000
0000
0000
0000
0100
0000
0000
0000
0000
0000
0000
0100
0000
0000
0000
0000
0000
0001
0000
0000
0100
0000
0000
0000
0000
0000
0000
0000
0100
0000
0000
0000
0000
0000
0000
0100
0000
0000
0000
0000
0000
1000
0000
0000
,  // measure 21
0110
0100
0001
0010
0100
1000
0100
1000
,  // measure 22
0010
0100
0010
0100
0001
1000
0100
0010
,  // measure 23
0001
0100
0010
0100
0001
1000
0100
1000
,  // measure 24
0100
0000
0001
0000
0100
0000
0010
0000
0100
1000
0100
1000
0010
0000
0100
0000
,  // measure 25
0220
0000
0000
0000
,  // measure 26
0000
0000
0000
0000
,  // measure 27
0330
0000
0000
0000
,  // measure 28
0000
0000
0000
2001
,  // measure 29
0100
0010
0100
3010
,  // measure 30
0100
0000
1000
0000
0000
0000
1000
0000
0000
0000
1000
0000
0000
0000
0001
0010
,  // measure 31
0000
0000
0001
0000
0000
0000
0100
0000
0000
0000
0010
0000
0000
1000
0000
0000
,  // measure 32
0100
0000
0000
0100
0000
0000
1000
0000
0000
0000
1000
0000
0000
0001
0000
0000
,  // measure 33
1000
0010
0000
0100
0000
0000
0001
0000
0000
0000
0000
0000
0000
1000
0000
0000
,  // measure 34
0100
0000
0000
0001
0000
0000
0010
0000
0000
0000
1000
0000
0000
1000
0000
0000
,  // measure 35
0001
0010
0000
0100
0000
0000
1000
0000
0000
0000
0000
0000
0000
0001
0000
0000
,  // measure 36
0100
0000
0000
0100
0000
0000
0001
0000
0000
0000
1000
0000
0000
0010
0000
0000
,  // measure 37
0100
0000
0001
0000
0000
0000
1000
0001
0000
0000
0010
0000
0000
0000
1000
0001
,  // measure 38
0000
0000
0010
0000
0000
0000
1000
0001
0000
0000
0010
0000
0000
0000
1000
0001
,  // measure 39
0000
0000
0010
0000
0000
0000
1000
0001
0000
0000
0010
0000
0000
0000
1000
0001
,  // measure 40
0000
0000
0010
0000
0000
0000
1000
0001
0000
0000
0010
0000
0000
0000
0000
0000
,  // measure 41
0001
0000
0010
0000
0100
0000
1000
0002
0000
0000
0013
0000
0100
0000
1000
0002
,  // measure 42
0000
0000
0013
0000
0100
0000
1000
0002
0000
0000
0013
0000
0100
0000
1000
0002
,  // measure 43
0000
0000
0013
0000
0100
0000
1000
0002
0000
0000
0013
0000
0100
0000
1000
0002
,  // measure 44
0000
0000
0013
0000
0100
0000
1000
0002
0000
0000
0013
0000
0100
0000
0000
0000
,  // measure 45
1000
0000
0000
1000
0000
0000
1000
0000
0001
0100
0000
0100
0010
0000
0010
1000
,  // measure 46
0001
0000
0000
0001
0000
0000
0001
0000
1000
0000
0000
1000
0000
0000
1000
0000
,  // measure 47
0110
0000
0110
0000
0100
0001
1000
0100
,  // measure 48
0010
0100
1000
0010
0100
0001
0010
0100
,  // measure 49
1000
0001
0010
0001
0100
1000
0100
0010
,  // measure 50
1000
0001
0010
1000
0010
0001
0100
1000
,  // measure 51
1000
0000
0000
1000
0000
0000
0001
0000
0010
0000
0000
0010
0000
0000
0100
0000
,  // measure 52
0001
0000
0000
0001
0000
0000
0010
0000
0100
0000
0000
0100
0000
0000
0220
0000
,  // measure 53
0000
0000
0000
0000
,  // measure 54
0000
0000
0000
0330
;
