#TITLE:DYNAMITE RAVE;
#SUBTITLE:;
#ARTIST:NAOKI;
#TITLETRANSLIT:;
#SUBTITLETRANSLIT:;
#ARTISTTRANSLIT:;
#CREDIT:;
#BANNER:DYNAMITE RAVE.png;
#BACKGROUND:DYNAMITE RAVE-bg.png;
#LYRICSPATH:;
#CDTITLE:Dance Dance Revolution 3rd Mix.png;
#MUSIC:DYNAMITE RAVE.ogg;
#OFFSET:0.000;
#SAMPLESTART:40.798;
#SAMPLELENGTH:15.000;
#SELECTABLE:YES;
#DISPLAYBPM:150.000;
#BPMS:0.000=150.007;
#STOPS:;
#BGCHANGES:3.750=DYNAMITE RAVE.avi=1.000=1=0=0,
236.000=DYNAMITE RAVE-bg.png=1.000=0=0=1,
99999=-nosongbg-=1.000=0=0=0 // don't automatically add -songbackground-
;

//---------------dance-single - ----------------
#NOTES:
     dance-single:
     :
     Beginner:
     1:
     0.161,0.212,0.000,0.000,0.000:
0000
0000
0000
0000
,
0000
0000
0000
0000
,
0000
0000
0000
0000
,
0000
0000
0000
0000
,
0000
0000
0000
0000
,
0010
0000
0010
0000
,
0010
0000
0010
0000
,
0100
0000
0100
0000
,
0100
0000
0100
0000
,
0000
0000
0000
0000
,
0001
0001
0000
0000
,
1000
1000
0000
0000
,
0100
0100
0000
0000
,
0001
0001
0000
0000
,
1000
0000
0001
0000
,
1000
0000
0001
0000
,
0100
0100
0000
0000
,
0100
0100
0000
0000
,
0010
0000
0010
0000
,
0010
0000
0010
0000
,
0100
0000
0100
0000
,
0100
0000
0100
0000
,
0001
0001
0000
0000
,
1000
1000
0000
0000
,
0100
0100
0000
0000
,
0100
0100
0100
0100
,
0100
0000
0100
0000
,
0001
0000
0001
0001
,
0001
0000
0001
0000
,
0001
0000
0001
0001
,
0000
0000
1000
1000
,
0000
0000
1000
1000
,
0000
0000
0001
0001
,
0000
0000
1000
0000
,
0001
0000
0000
0000
,
0010
0000
0000
0000
,
0001
0000
0000
0000
,
1000
0000
0000
0000
,
1000
1000
0000
0000
,
0100
0100
0000
0000
,
1000
1000
0000
0000
,
0001
0001
0001
0001
,
0001
0000
0001
0000
,
0001
0000
0001
0000
,
1000
0000
1000
0000
,
1000
0000
1000
0000
,
0100
0100
0000
0000
,
0010
0010
0000
0000
,
0001
0001
0000
0000
,
1000
1000
0000
0000
,
0001
0000
1000
0000
,
0001
0000
1000
0000
,
0001
0000
1000
0000
,
0001
0000
1000
1000
,
0000
0000
0001
0001
,
0000
0000
0010
0010
,
0000
0000
0100
0100
,
0100
0100
0100
0000
,
0001
0000
1000
0000
,
0001
0000
0000
0000
;

//---------------dance-single - ----------------
#NOTES:
     dance-single:
     :
     Easy:
     5:
     0.353,0.514,0.543,0.000,0.000:
0000
0000
0000
0000
,
0000
0000
0000
0000
,
0000
0000
0000
0000
,
0000
0000
0000
0000
,
0000
0000
0000
0000
,
0010
0100
1000
0001
,
0100
0010
1000
0100
,
1001
1001
0100
0010
,
1001
1001
0100
0010
,
1001
0000
0000
0000
,
0100
0100
0010
0010
,
1000
1000
0001
0001
,
0100
0010
1000
0001
,
1000
1000
0001
0001
,
1000
0100
0001
0100
,
0010
1000
0001
0100
,
1000
0100
0010
0001
,
0100
0010
1000
0001
,
1100
1100
1001
0101
,
1010
1010
1001
0011
,
0100
1000
0010
0100
,
0001
1000
0100
0010
,
0001
0001
0100
0100
,
0010
0010
1000
0100
,
0010
0001
0100
0010
,
1000
0101
0010
1100
,
1001
0000
0110
0000
,
1001
1001
0100
0010
,
1100
1100
0001
0100
,
0110
0110
0110
0001
,
0000
0010
0100
0000
,
1001
0100
0010
0000
,
1001
0010
1001
1001
,
1100
0011
1100
0000
,
0001
0001
0000
0000
,
0001
0001
0000
0000
,
1000
0100
0001
0100
,
0000
0000
0000
0000
,
1001
1001
0000
0000
,
0010
0000
0100
0000
,
0001
1000
0100
0010
,
1001
0000
1001
0000
,
1001
1001
0010
0010
,
0100
0100
0001
1000
,
0100
0010
0001
0100
,
0010
0010
1000
0100
,
0001
0100
1000
0100
,
0010
0001
0100
0100
,
0010
1000
0100
0010
,
0001
1100
1100
1100
,
0011
0000
0101
0000
,
1001
0010
0100
0001
,
0010
0100
1100
1100
,
0001
0100
0010
1000
,
0000
1001
1001
0000
,
0100
1001
1001
0000
,
0010
0100
1000
0001
,
0100
1010
0101
0000
,
1000
1000
1000
0101
,
1001
0000
0000
0000
;

//---------------dance-single - ----------------
#NOTES:
     dance-single:
     :
     Medium:
     7:
     0.449,0.514,0.389,0.000,0.005:
0000
0000
0000
0000
,
0000
0000
0000
0000
,
0000
0000
0000
0000
,
0000
0000
0000
0000
,
0000
0000
0000
0000
,
0110
1001
1100
0011
,
0110
1001
1100
0101
,
1000
0000
0010
0000
0100
0001
0010
0000
,
0100
1000
0010
0100
0001
1001
0110
0000
,
1001
0000
0000
0000
,
1000
0010
0100
0000
0001
0010
0100
0000
,
1000
0001
0100
0000
0010
1000
0100
0000
,
0010
0001
0100
0000
0010
1000
0100
0000
,
1000
0001
0100
0000
1000
0100
0010
0000
,
0001
0100
0100
0000
0010
1000
1000
0000
,
0100
0010
0001
0100
0010
1000
0100
0000
,
0010
0001
0010
0000
0100
1000
0100
0000
,
0010
0001
0100
0000
0010
1000
0100
0000
,
1010
0000
0101
0000
0010
0100
0100
0000
,
1001
0000
0110
0000
0001
1000
0001
0000
,
0010
0100
0010
0000
1000
0100
0010
0000
,
0001
0100
0010
0000
1000
0100
0001
0000
,
0100
1000
0010
0000
0001
0010
1000
0000
,
0100
0010
0010
0000
0001
1000
1000
0000
,
0100
0100
0100
0000
0010
0010
0010
0000
,
0001
0100
0010
1000
0001
0010
0100
0000
,
1001
0000
0101
0000
,
0010
1000
0100
0010
0000
0000
0001
0100
,
0000
0010
1000
0100
0010
0001
0000
1000
,
0000
0100
0010
0001
0010
0000
0100
0000
,
0000
0100
0010
0000
,
0001
0100
0010
0100
0000
0000
0000
0000
,
1000
0100
0010
0001
0100
0010
1000
0100
,
0011
0101
1001
0000
,
0100
0100
0000
0000
,
0000
0010
0000
0100
0000
0100
0000
0000
,
0000
0100
1000
0000
0000
0001
0100
0000
,
0000
0000
0000
0000
,
1001
1001
0110
0000
0000
0000
0000
0000
,
0000
0010
0000
0100
0000
0100
0000
0000
,
0000
1001
0010
0000
0000
1001
0100
0000
,
1000
0001
1000
0001
1000
0001
1000
0000
,
0011
0000
0101
0000
0010
1000
0100
0000
,
0010
0001
0001
0000
0100
0010
0010
0000
,
1000
0100
0010
0000
0001
0100
0010
0000
,
1000
0100
0100
0000
0010
0001
0001
0000
,
1000
0100
0001
0000
0001
0100
1000
0000
,
0001
0010
0100
0000
1000
0001
0100
0000
,
1000
1000
1000
0000
0100
0100
0100
0000
,
1000
0010
0100
0000
1001
1100
0101
0000
,
1010
0000
0101
0000
,
1000
0100
0010
0001
0000
0000
0100
0010
,
0000
1000
0100
0010
0001
0100
0000
1000
,
0000
0100
0010
0001
0100
0000
0010
0000
,
0000
0100
0010
0000
,
1000
0001
0010
0100
0000
0000
0000
0000
,
1000
0010
0100
0001
0010
0100
0010
0100
,
1001
0110
1001
0000
,
1000
0000
0000
0001
0000
0000
0100
0000
0000
0000
0010
0000
1001
0000
1100
0000
,
0101
0000
0000
0000
;

//---------------dance-single - ----------------
#NOTES:
     dance-single:
     :
     Hard:
     9:
     0.610,0.574,0.195,0.000,0.200:
0000
0000
0000
0000
,
0000
0000
0000
0000
,
0000
0000
0000
0000
,
0000
0000
0000
0000
,
0000
0000
0000
0000
,
0010
0000
0001
0000
0100
0000
0001
0100
0000
0010
0000
0100
0001
0000
0100
0000
,
0010
0000
0100
0000
0001
0000
0010
0001
0000
0010
0000
0001
0100
0000
0010
0000
,
1000
0000
0100
0000
0010
0000
0100
0010
0000
0001
0000
0100
0010
0000
1000
0000
,
0100
0000
0010
0000
0001
0000
0100
0010
0000
1000
0000
0100
1000
0000
0001
0000
,
0010
0000
0000
0000
,
1000
0000
0100
0000
0010
0000
0001
0000
0100
0001
0100
0000
0001
0000
0000
0000
,
1000
0000
0100
0000
0010
0000
0001
0000
0100
0001
0100
0000
0001
0000
0000
0000
,
1000
0000
0100
0000
0010
0000
0001
0000
0100
0001
0100
0000
0010
0000
0000
0000
,
1000
0000
0100
0000
0010
0000
0001
0000
0100
0010
0100
0000
0010
0000
0000
0000
,
1000
0000
0001
0000
0100
0000
0010
0000
1001
0100
1000
0000
0100
0000
0000
0000
,
1000
0000
0001
0000
0100
0000
0010
0000
1000
0100
1000
0000
0010
0000
0000
0000
,
1000
0000
0001
0000
0100
0000
0010
0000
1000
0001
0100
0000
0010
0000
0000
0000
,
1000
0000
0100
0000
0010
0000
0001
0000
1000
0010
0100
0000
0001
0000
0000
0000
,
1000
0000
0001
0000
1000
0000
0000
0000
1000
0001
1000
0000
0100
0000
0000
0000
,
1000
0000
0001
0000
0100
0000
0010
0000
1000
0001
1000
0000
0010
0000
0100
0000
,
0001
0000
1000
0000
0001
0000
0000
0000
0001
1000
0001
0000
0100
0000
0000
0000
,
0001
0000
1000
0000
0100
0000
0010
0000
0001
1000
0001
0000
0010
0000
0100
0000
,
1000
0000
0010
0000
0100
0000
0000
0000
0001
1000
0001
0000
0010
0000
0000
0000
,
0100
0000
1000
0000
0010
0000
0100
0000
0001
1000
0001
0000
0010
0000
0100
0000
,
1000
0000
0010
0000
0100
0000
0000
0000
0001
0010
0001
0000
0100
0000
0000
0000
,
0010
0000
1000
0000
0100
0000
0010
0000
0001
1000
0100
0000
0010
0000
0001
0000
,
1001
0100
0000
0100
1001
0010
0000
0010
,
0100
1000
0100
0010
0000
0010
0001
0100
,
0000
0010
1000
0100
0010
0001
0000
1000
,
0000
0100
0010
0001
0100
0010
0100
0010
,
0000
0000
0100
0001
0010
0001
0000
1000
,
0100
0010
0001
0100
0000
0100
0000
0100
,
0010
1000
0100
0010
0001
0100
0010
1000
,
1100
0000
0101
1010
1001
0000
0000
0000
,
0100
0010
0001
0100
0010
0100
0001
0010
,
0100
0010
0001
0100
0001
0010
0100
0010
,
0001
0100
1000
0100
0001
0010
0100
0010
,
0001
0100
0010
0100
0001
0000
0000
0000
,
1001
1001
0110
0000
1000
0010
0100
0010
,
1000
0100
0010
0100
1000
0010
0100
0010
,
1000
0100
0001
0100
1000
0010
0100
0000
,
0001
1000
0100
1000
0001
0100
0001
0010
,
0000
0000
0000
0000
0101
0000
0000
0000
0001
1000
0001
0000
1000
0000
0000
0000
,
0100
0000
0010
0000
0001
0000
0100
0000
0001
0100
0001
0000
1000
0000
0100
0000
,
1000
0000
0001
0000
1000
0000
0000
0000
0100
0010
0100
0000
1000
0000
0000
0000
,
0001
0000
0100
0000
0010
0000
1000
0000
0100
1000
0100
0000
0010
0000
0001
0000
,
0100
0000
0010
0000
1000
0000
0000
0000
0001
0100
0001
0000
1000
0000
0000
0000
,
0100
0000
0010
0000
0001
0000
0100
0000
0010
1000
0010
0000
0100
0000
0001
0000
,
0010
0000
0100
0000
1000
0000
0000
0000
0001
1000
0001
0000
0100
0000
0000
0000
,
0010
0000
1000
0000
0100
0000
0010
0000
0001
0100
0001
0000
0010
0000
0100
0000
,
1001
0100
0000
0010
1001
0100
0000
0100
,
1000
0100
0010
0001
0100
0010
1000
0010
,
0000
1000
0100
0010
0001
0100
0010
1000
,
0100
0100
0010
0001
0100
0010
0010
0010
,
0000
0000
0100
0100
0010
1000
0000
0000
,
1000
0001
0010
0100
1000
0001
0100
0010
,
1000
0100
0010
0001
0100
0010
0100
0010
,
1001
0000
0110
0110
1001
0000
0000
0000
,
0100
0010
0000
0100
0010
0000
0100
0010
0000
0000
1000
0000
0100
0000
0110
0000
,
1001
0000
0000
0000
;

//---------------dance-single - ----------------
#NOTES:
     dance-single:
     :
     Challenge:
     9:
     0.602,0.635,0.430,0.072,0.220:
0000
0000
0000
0000
,
0000
0000
0000
0000
,
0000
0000
0000
0000
,
0000
0000
0000
0000
,
0000
0000
0000
0000
,
1000
0100
0001
0100
1000
0010
0100
0100
,
0001
0100
1000
0100
0001
0010
0100
0100
,
1000
0010
0001
0010
1000
0100
0010
0010
,
0001
0010
1000
0010
0001
0100
0010
0010
,
2002
0000
0000
3003
,
1000
0000
0100
0000
1100
0000
0000
0000
0001
0010
0001
0000
1000
0000
0000
0000
,
0001
0100
0101
0000
0010
1000
1010
0000
,
0100
0010
0100
1000
0100
0001
1001
0000
,
1000
0100
1100
0000
0010
0001
0011
0000
,
0100
0000
0010
0000
1000
0000
0000
0000
0100
0010
0100
0000
0101
0000
0000
0000
,
0100
0000
1000
0000
0010
0000
0001
0000
1000
0100
0010
0000
0110
0000
0000
0000
,
1000
0010
0001
0010
0100
0001
1001
0000
,
0100
0010
1010
0000
0010
0100
0101
0000
,
1100
0000
0101
0000
0010
0010
0010
0000
,
0100
1000
0100
0010
0100
0001
1000
0000
,
0010
0000
0001
1000
0001
0000
0000
0000
0100
0000
1000
0001
1000
0000
0000
0000
,
0100
0010
1000
0000
0001
0000
0000
0000
0100
0010
0001
0000
1000
0000
0000
0000
,
0100
0010
0011
0000
1000
1000
1001
0000
,
1000
0100
0010
0000
0100
0001
1000
0000
,
0010
0100
0110
0000
1000
0001
1001
0000
,
0001
0100
0000
0000
0010
1000
0000
0000
0001
0000
0100
0000
0010
0000
0010
0000
,
1000
0100
0000
0000
0110
0000
0000
0000
0001
0100
0000
0000
0110
0000
0000
0000
,
0001
0100
0001
0010
0000
0001
1000
0001
,
0010
0000
0100
1000
0100
0000
0010
0000
0001
0000
0100
0000
1000
0000
0100
0000
,
0001
0000
0010
0100
0010
0000
0001
0000
0101
0000
0000
0000
1010
0000
0000
0000
,
0100
0101
1100
0100
,
0010
0100
0010
0001
0010
1000
1001
0000
,
1000
0100
0010
0000
0001
0000
0001
0000
0001
0100
0010
0000
1000
0000
1000
0000
,
1000
0100
0000
0000
1000
0001
0000
0000
0201
0000
0010
0000
0310
0000
0000
0000
,
2100
0100
3001
0000
0000
0010
0100
1000
,
0000
0010
0100
0001
0000
1000
0000
0100
,
0000
0010
0001
0000
0000
0100
0010
2000
,
0000
0000
3001
0000
0000
0100
1000
0000
,
0102
0000
0100
0000
1003
0000
0000
0000
0000
0000
0010
0000
0000
0001
0000
0000
,
0000
0010
0100
1000
0000
0001
0100
0000
,
0000
0010
1000
0000
0000
0010
0100
0001
,
0110
1010
1001
0011
,
0010
0100
0000
0000
1000
0100
0000
0000
0010
0001
0010
0000
1001
0000
0000
0000
,
0100
0010
0100
0000
0001
0000
0001
0000
0010
0100
0010
0000
0001
0000
0000
0000
,
1000
0100
1100
0000
0010
0001
0011
0000
,
1000
0100
1000
0000
0001
0000
0000
0000
0001
0100
0001
0000
1000
0000
0000
0000
,
0100
0010
0011
0000
0100
1000
1100
0000
,
0100
0001
0100
1000
0010
0100
0110
0000
,
0010
1000
1010
0000
0001
0100
0101
0000
,
1000
0100
0000
1000
0001
0000
1000
0010
0000
0100
0000
0000
1001
0000
0000
0000
,
0100
0000
0000
0000
0010
1000
0000
0000
0001
0100
0000
0000
0010
0000
0010
0000
,
1000
0100
0001
1000
0000
0010
0001
0100
,
0000
0010
1000
0100
0001
0100
0000
0010
,
0000
0000
0001
0000
0100
0000
0010
0000
1000
0100
1000
0000
0001
0000
0001
0000
,
0100
0000
0000
0000
0010
1000
0000
0000
0100
0001
0000
0000
0010
0000
0000
0000
,
0100
0000
1000
0000
0001
0000
0100
0000
0000
0000
0001
0100
0001
0000
1000
0000
,
0100
0010
0100
0000
0001
0000
0001
0000
0100
0010
0100
0000
1000
0000
1000
0000
,
0001
0100
0000
0000
0010
1000
0000
0000
0200
0000
0000
0000
0300
0000
0000
0000
,
0010
1000
0000
1000
0100
0000
0100
0010
0000
0010
0100
0000
0001
0000
0100
0000
,
1001
0000
0000
0000
;

//---------------dance-double - ----------------
#NOTES:
     dance-double:
     :
     Easy:
     5:
     0.378,0.423,0.420,0.000,0.000: // measure 1
00000000
00000000
00000000
00000000
,  // measure 2
00000000
00000000
00000000
00000000
,  // measure 3
00000000
00000000
00000000
00000000
,  // measure 4
00000000
00000000
00000000
00000000
,  // measure 5
00000000
00000000
00000000
00000000
,  // measure 6
00010000
00010000
00010000
00010000
,  // measure 7
00100000
00100000
00100000
00100000
,  // measure 8
10000000
10000000
10000000
01000000
,  // measure 9
01000000
00010000
00010000
00010000
,  // measure 10
00001000
00001000
00000100
00000001
,  // measure 11
00001000
00001100
00000001
00000101
,  // measure 12
00001001
00000100
00000001
00000100
,  // measure 13
00000010
00000101
00001000
00000100
,  // measure 14
00001000
00010000
01000000
10000000
,  // measure 15
00010000
01010000
10000000
11000000
,  // measure 16
10010000
01000000
10000000
01000000
,  // measure 17
00100000
11000000
00010000
01000000
,  // measure 18
00010000
00001000
00000100
00000100
,  // measure 19
00000010
00000010
00001000
00000100
,  // measure 20
00000001
00000001
00000100
00001000
,  // measure 21
00010000
00010000
01000000
10000000
,  // measure 22
00010000
01000000
00010000
01000000
,  // measure 23
10100000
00010000
10100000
00010000
,  // measure 24
01000000
10000000
00100000
00010000
,  // measure 25
01000000
00010000
00001000
00000110
,  // measure 26
00001001
00001100
00000010
00000101
,  // measure 27
00001001
00000100
00001001
00000100
,  // measure 28
00000001
00001000
00000100
00000100
,  // measure 29
00000001
00000001
00000100
00001000
,  // measure 30
00010000
01000000
10000000
10000000
,  // measure 31
00110000
10000000
11000000
00010000
,  // measure 32
00110000
10000000
10000000
10000000
,  // measure 33
01000000
00010000
00001000
00000110
,  // measure 34
00000010
00000010
00000010
00000010
,  // measure 35
00001100
00000101
00001000
00001000
,  // measure 36
01000000
10000000
10000000
10000000
,  // measure 37
01010000
11000000
00010000
00010000
,  // measure 38
00000100
00000001
00000001
00000001
,  // measure 39
00000010
00001000
00000100
00000100
,  // measure 40
00000010
00000001
00000100
00000100
,  // measure 41
00001000
00000001
00000100
00000100
,  // measure 42
00001000
00010000
01000000
00001000
,  // measure 43
01001000
00011000
01001000
00011000
,  // measure 44
01000000
01000000
00010000
00001000
,  // measure 45
00000100
00000100
00001000
00010000
,  // measure 46
00010100
00011000
00010100
00011000
,  // measure 47
01000000
10000000
00010000
01000000
,  // measure 48
10100000
00010000
00110000
10000000
,  // measure 49
00100000
00010000
00010000
01000000
,  // measure 50
00010000
00001000
00000100
00000001
,  // measure 51
00001001
00000100
00001001
00000100
,  // measure 52
00000001
00001000
00000100
00000100
,  // measure 53
00000001
00000001
00000100
00001000
,  // measure 54
00010000
01000000
10000000
10000000
,  // measure 55
00110000
10000000
11000000
00010000
,  // measure 56
00110000
10000000
10000000
10000000
,  // measure 57
01000000
00010000
00001000
00000110
,  // measure 58
00001000
00010000
01000000
01000000
,  // measure 59
11000000
00010000
01000000
10000000
,  // measure 60
10000000
00000000
00000000
00000000
;

//---------------dance-double - ----------------
#NOTES:
     dance-double:
     :
     Medium:
     6:
     0.427,0.423,0.430,0.000,0.000: // measure 1
00000000
00000000
00000000
00000000
,  // measure 2
00000000
00000000
00000000
00000000
,  // measure 3
00000000
00000000
00000000
00000000
,  // measure 4
00000000
00000000
00000000
00000000
,  // measure 5
00000000
00000000
00000000
00000000
,  // measure 6
00001001
00000100
00000001
00000100
,  // measure 7
00001000
00010000
01000000
10000000
,  // measure 8
00110000
10000000
01010000
10000000
,  // measure 9
00100000
00010000
01000000
01000000
,  // measure 10
11000000
00010000
00001000
00000100
,  // measure 11
00000110
00000000
00000101
00000000
00001000
00000001
00000100
00000000
,  // measure 12
00001001
00000100
00000001
00000101
,  // measure 13
00001000
00010000
01100000
11000000
,  // measure 14
00010000
00000000
00010000
00000000
00100000
00010000
10000000
00000000
,  // measure 15
00100000
01000000
00010000
00000000
00100000
01000000
10000000
00000000
,  // measure 16
00010000
00010000
11000000
00100000
,  // measure 17
00010000
00001000
00000100
00010000
,  // measure 18
01000000
00000000
01000000
00000000
00100000
00010000
01000000
00000000
,  // measure 19
10000000
01000000
00010000
00000000
00010000
01000000
10000000
00000000
,  // measure 20
10000000
00000000
10000000
00000000
10000000
01000000
00010000
00000000
,  // measure 21
10000000
10010000
01000000
01010000
,  // measure 22
00000100
00000001
00001000
00001000
,  // measure 23
00001001
00001100
00000001
00000001
,  // measure 24
00000101
00001000
00001000
00001000
,  // measure 25
01000000
10000000
00100000
00010000
,  // measure 26
10100000
00000000
01010000
00000000
10000000
00010000
01000000
00000000
,  // measure 27
10000000
00100000
01000000
00000000
00010000
00100000
01000000
00000000
,  // measure 28
00010000
00001000
00000110
00001001
,  // measure 29
00000001
00000100
00001000
00000000
00000001
00000000
00001000
00000000
,  // measure 30
00010000
01000000
11000000
00110000
,  // measure 31
10000000
00100000
01000000
00000000
10010000
00000000
01010000
00000000
,  // measure 32
10000000
00100000
00010000
00000000
00001000
00000000
01000000
00000000
,  // measure 33
10000000
01000000
00010000
00000000
00001000
00000000
00000100
00000000
,  // measure 34
00000001
00001000
00000100
00000100
,  // measure 35
00010100
00011000
00010100
00011000
,  // measure 36
01000000
10000000
00010000
00001000
,  // measure 37
00010100
00011000
00010100
00011000
,  // measure 38
01000000
10000000
00010000
00010000
,  // measure 39
00100000
10000000
00010000
00000000
01000000
00000000
01000000
00000000
,  // measure 40
00100000
00010000
00001000
00000000
00000100
00000000
00000100
00000000
,  // measure 41
00000001
00001000
00000100
00000000
00000001
00000000
00000100
00000000
,  // measure 42
00001001
00001100
00000001
00000001
,  // measure 43
00000100
00000000
00000100
00000000
00000100
00001000
00010000
00000000
,  // measure 44
01000000
00000000
10000000
00000000
00100000
01000000
00010000
00000000
,  // measure 45
00010000
00100000
10000000
00000000
01100000
00000000
10000000
00000000
,  // measure 46
00010000
00001000
00000100
00000000
00001000
00000000
00001000
00000000
,  // measure 47
00000001
00001000
00000100
00000000
00000010
00000000
00000010
00000000
,  // measure 48
00001001
00000000
00000100
00000000
00000001
00000100
00001000
00000000
,  // measure 49
00010000
01000000
10000000
10000000
,  // measure 50
00010000
01000000
10000000
00000000
00010000
10000000
01000000
00000000
,  // measure 51
10000000
00100000
01000000
00000000
00010000
00100000
01000000
00000000
,  // measure 52
00010000
00001000
00000110
00001001
,  // measure 53
00000001
00000100
00001000
00000000
00000001
00000000
00001000
00000000
,  // measure 54
00010000
01000000
11000000
00110000
,  // measure 55
10000000
00100000
01000000
00000000
10010000
00000000
01010000
00000000
,  // measure 56
10000000
00100000
00010000
00000000
00001000
00000000
01000000
00000000
,  // measure 57
10000000
01000000
00010000
00000000
00001000
00000000
00000100
00000000
,  // measure 58
00000001
00001000
00000100
00000100
,  // measure 59
00000010
00000000
00000001
00000000
00000100
00000000
00001000
00010000
,  // measure 60
01000000
00000000
00000000
00000000
;

//---------------dance-double - ----------------
#NOTES:
     dance-double:
     :
     Hard:
     8:
     0.517,0.484,0.225,0.000,0.000: // measure 1
00000000
00000000
00000000
00000000
,  // measure 2
00000000
00000000
00000000
00000000
,  // measure 3
00000000
00000000
00000000
00000000
,  // measure 4
00000000
00000000
00000000
00000000
,  // measure 5
00000000
00000000
00000000
00000000
,  // measure 6
00001000
00000100
00000001
00000100
00001000
00010000
01000000
00000000
,  // measure 7
00010000
01000000
10000000
01000000
00010000
00001000
00000100
00000000
,  // measure 8
00001000
00000100
00000001
00000100
00001000
00010000
01000000
00000000
,  // measure 9
00010000
01000000
10000000
01000000
00010000
00001000
00000100
00000000
,  // measure 10
00000001
00000010
00001000
00000100
,  // measure 11
00000010
00001000
00000100
00000000
00000010
00000001
00000100
00000000
,  // measure 12
00001000
00000001
00000100
00001000
00010000
01000000
10000000
00000000
,  // measure 13
10000000
00010000
01000000
00000000
00010000
10000000
01000000
00000000
,  // measure 14
00010000
10000000
01000000
00010000
00001000
00000100
00000001
00000000
,  // measure 15
00000010
00001000
00010000
00001000
00000100
00000001
00001000
00000000
,  // measure 16
00000010
00000100
00000001
00001000
00000010
00001000
00000100
00000000
,  // measure 17
00000001
00001000
00000010
00000100
00001000
00010000
01000000
00000000
,  // measure 18
00010000
10000000
01000000
00010000
01000000
10000000
00100000
00000000
,  // measure 19
00010000
00001000
00000100
00001000
00010000
01000000
10000000
00000000
,  // measure 20
10000000
00100000
01000000
00010000
00100000
01000000
00100000
00000000
,  // measure 21
00010000
00001000
00000100
00000000
00000001
00000010
00000100
00000000
,  // measure 22
00000001
00000100
00000010
00000000
00001000
00010000
01000000
00000000
,  // measure 23
00100000
00010000
01000000
00100000
10000000
01000000
00010000
00000000
,  // measure 24
10000000
01000000
00010000
00001000
00000100
00000001
00000100
00000000
,  // measure 25
00000010
00001000
00000001
00000000
00000100
00001000
00000001
00000000
,  // measure 26
00000010
00000001
00000100
00001000
00010000
01000000
10000000
00000000
,  // measure 27
10000000
00100000
01000000
10000000
01000000
00010000
00100000
00000000
,  // measure 28
01000000
00010000
00001000
00000000
00010100
00000000
00001100
00000000
,  // measure 29
00000010
00001000
00000010
00000100
00000001
00000010
00000100
00000000
,  // measure 30
00001000
00010000
01000000
00000000
01100000
00000000
11000000
00000000
,  // measure 31
00010000
00100000
00010000
01000000
00100000
10000000
01000000
00000000
,  // measure 32
00010000
00001000
00000110
00000000
00000001
00000000
00000010
00000000
,  // measure 33
00000100
00001000
00000010
00001000
00000001
00000100
00000010
00000000
,  // measure 34
00001000
00000010
00000001
00000000
00000100
00000000
00000100
00000000
,  // measure 35
00000010
00000001
00000100
00000000
00001000
00010000
01000000
00000000
,  // measure 36
01000000
00100000
00010000
00000000
10000000
01000000
10000000
00000000
,  // measure 37
10000000
00100000
00010000
00000000
00010000
00100000
00010000
00000000
,  // measure 38
01000000
00100000
01000000
00000000
10000000
01000000
00010000
00000000
,  // measure 39
00100000
00010000
01000000
00000000
00100000
10000000
01000000
00000000
,  // measure 40
00110000
00101000
00011000
00010100
,  // measure 41
00001000
00000010
00000100
00000000
00000001
00000010
00000100
00000000
,  // measure 42
00001100
00000011
00001000
00000100
,  // measure 43
00000110
00000000
00001001
00000000
00000010
00001000
00010000
00000000
,  // measure 44
01000000
10000000
00010000
00000000
00100000
00010000
10000000
00000000
,  // measure 45
01000000
10000000
00100000
00000000
00100000
01000000
00010000
00000000
,  // measure 46
10000000
01000000
00010000
00000000
10000000
00100000
00010000
00000000
,  // measure 47
00001000
00010000
01000000
00010000
00001000
00000100
00000001
00000000
,  // measure 48
00000010
00001000
00000001
00000000
00001000
00000001
00000100
00000000
,  // measure 49
00001000
00000100
00000001
00000001
,  // measure 50
00000010
00001000
00000110
00001001
,  // measure 51
00000010
00001000
00000100
00000000
00000010
00001000
00000001
00000000
,  // measure 52
00001010
00000000
00000101
00000000
00001000
00010000
01000000
00000000
,  // measure 53
00100000
00010000
00100000
01000000
00100000
10000000
00100000
00000000
,  // measure 54
00110000
00000000
11000000
00000000
00100000
00010000
01000000
00000000
,  // measure 55
01100000
00000000
10000000
01000000
00010000
01000000
10000000
00000000
,  // measure 56
00100000
00010000
00001000
00000000
00000110
00000000
00000101
00000000
,  // measure 57
00001000
00000010
00000001
00000010
00000100
00000001
00000010
00001000
,  // measure 58
00010000
01000000
10000000
01000000
00100000
01000000
00010000
00000000
,  // measure 59
10000000
00000000
00100000
00000000
00010000
00001000
00010000
01000000
,  // measure 60
10000000
00000000
00000000
00000000
;

//---------------dance-double - ----------------
#NOTES:
     dance-double:
     :
     Challenge:
     8:
     0.515,0.544,0.256,0.000,0.067: // measure 1
00000000
00000000
00000000
00000000
,  // measure 2
00000000
00000000
00000000
00000000
,  // measure 3
00000000
00000000
00000000
00000000
,  // measure 4
00000000
00000000
00000000
00000000
,  // measure 5
00000000
00000000
00000000
00000000
,  // measure 6
00100000
00000000
01010000
00000000
10000000
01000000
00010000
00001000
,  // measure 7
00000100
00000001
00000000
00001001
00000000
00001100
00000000
00000001
,  // measure 8
00001000
00000100
00000010
00000000
00000001
00000100
00000010
00000000
,  // measure 9
00001000
00010000
01000000
00100000
00010000
01000000
00100000
00010000
,  // measure 10
00001000
00000100
00000001
00000001
,  // measure 11
00001000
00000000
00000010
00000000
00000100
00000000
00000001
00000000
00000010
00000001
00000010
00000001
00000010
00000000
00000100
00000000
,  // measure 12
00001000
00000001
00000100
00001000
00001000
00000100
00000001
00000000
,  // measure 13
00000100
00001000
00000000
00000000
00010000
00000000
00000000
00000000
00010000
01000000
00000000
00000000
10000000
00000000
00000000
00000000
,  // measure 14
10000000
01000000
00000000
00000000
00010000
00000000
00000000
00000000
00010000
00000000
01000000
00000000
10000000
00000000
00000000
00000000
,  // measure 15
00100000
00000000
00010000
00000000
00001000
00000000
00000000
00000000
00010000
00001000
00010000
00000000
00001000
00000000
00000000
00000000
,  // measure 16
00001000
00000100
00000010
00001000
00000100
00000010
00000001
00000000
,  // measure 17
00000100
00000001
00001000
00000000
00000010
00001000
00000001
00000000
,  // measure 18
00000100
00001000
00010000
00000000
00000010
00001000
00010000
00000000
,  // measure 19
00100000
00001000
00010000
00000000
00100000
00010000
01000000
00000000
,  // measure 20
00100000
00001000
00010000
01000000
00100000
00010000
01000000
00000000
,  // measure 21
00100000
00000000
10000000
00000000
01000000
00000000
00000000
00000000
00010000
01000000
00010000
01000000
00010000
00000000
00000000
00000000
,  // measure 22
10000000
01000000
00010000
00000000
00010000
01000000
10000000
00000000
,  // measure 23
10000000
00100000
00010000
00000000
00100000
00010000
00001000
00000000
,  // measure 24
00000010
00001000
00000100
00000000
00010000
00001000
00000100
00000000
,  // measure 25
00001000
00000001
00000100
00000000
00000100
00000001
00001000
00000000
,  // measure 26
00000010
00001000
00010000
00000000
00000010
00001000
00000001
00000000
,  // measure 27
00000001
00000010
00000100
00000000
00001000
00000010
00000100
00000001
,  // measure 28
00000000
00001000
00000001
00000100
00000000
00001000
00000100
00000000
,  // measure 29
00000010
00001000
00000100
00000010
00001000
00010000
01000000
00000000
,  // measure 30
00001000
00010000
01000000
00100000
00010000
01000000
00100000
00000000
,  // measure 31
10010000
00000000
11000000
00000000
00010000
01000000
10000000
00000000
,  // measure 32
00100000
00010000
00001000
00010000
01000000
00010000
00001000
00000000
,  // measure 33
00001000
00000100
00000001
00000000
00001000
00000010
00000001
00000000
,  // measure 34
00001010
00001001
00000101
00001000
,  // measure 35
00000110
00001000
00000001
00000000
00000100
00001000
00010000
00000000
,  // measure 36
00010010
00000000
00011000
00000000
00010000
01000000
10000000
00000000
,  // measure 37
00000000
00000000
10000000
01000000
10000000
00000000
00000000
00000000
00000000
00000000
00010000
01000000
00010000
00000000
00000000
00000000
,  // measure 38
00100000
10000000
01000000
00000000
01010000
00000000
10000000
00000000
,  // measure 39
00100000
10000000
00010000
00000000
01100000
00000000
10010000
00000000
,  // measure 40
00100000
00010000
00001000
00000000
00010000
01000000
10000000
00000000
,  // measure 41
00000000
00000000
10000000
01000000
10000000
00000000
00000000
00000000
00000000
00000000
00010000
01000000
00010000
00000000
00000000
00000000
,  // measure 42
00100000
00010000
00001000
00000100
,  // measure 43
00001001
00000000
00000101
00000000
00000010
00000001
00000100
00000000
,  // measure 44
00001000
00010000
01000000
00000000
00010000
00001000
00000100
00000000
,  // measure 45
00000001
00000100
00001000
00000000
00010000
00000000
01000000
00000000
,  // measure 46
10000000
01000000
10000000
00000000
01000000
00000000
00000000
00000000
00100000
00000000
10000000
00000000
01000000
00000000
00000000
00000000
,  // measure 47
00010000
10000000
00100000
00000000
10000000
01000000
00010000
00000000
,  // measure 48
00001000
00000000
00010010
00000000
00000010
00001000
00000100
00000000
,  // measure 49
00001001
00000100
00000010
00000000
00000001
00001000
00000010
00000000
,  // measure 50
00001001
00000000
00001100
00000000
00000010
00001000
00010000
00000000
,  // measure 51
00100000
00001000
00010000
00000000
01000000
00010000
00001000
00000000
,  // measure 52
00000010
00001000
00010000
01000000
00000000
10000000
00010000
00000000
,  // measure 53
00100000
00001000
00010000
01000000
00010000
00001000
00000100
00000000
,  // measure 54
00000010
00001000
00000100
00000010
00001000
00010000
01000000
00000000
,  // measure 55
01100000
00000000
11000000
00000000
00100000
00010000
00001000
00000000
,  // measure 56
00000010
00001000
00010000
01000000
00010000
00001000
00000100
00000000
,  // measure 57
00000001
00001000
00000010
00000100
00001000
00010000
01000000
00000000
,  // measure 58
01100000
00101000
00110000
10000000
,  // measure 59
00100000
00010000
00000000
00001000
00010000
00000000
01000000
00100000
,  // measure 60
10000000
00000000
00000000
00000000
;

//---------------dance-couple - ----------------
#NOTES:
     dance-couple:
     :
     Challenge:
     6:
     0.562,0.907,1.000,0.000,0.005:
00000000
00000000
00000000
00000000
,
00000000
00000000
00000000
00000000
,
00000000
00000000
00000000
00000000
,
00000000
00000000
00000000
00000000
,
00000000
00000000
00000000
00000000
,
00001100
00000101
00001000
00000100
,
11000000
01010000
10000000
01000000
,
00000001
00000001
00001000
00000100
,
00010000
00010000
10000000
01000000
,
10011001
00000000
00000000
00000000
,
00001000
00000000
10000100
00000000
00000001
00000010
10000100
00000000
,
00001000
00000000
10000100
00000000
00000010
00001000
10000100
00000000
,
00000010
00000000
10000100
00000000
00000010
00001000
10000100
00000000
,
00001000
00000000
10000100
00000000
00001000
00000100
10000010
00000000
,
10000000
00000000
01000001
00000000
00010000
00100000
01000001
00000000
,
10000000
00000000
01000001
00000000
00100000
10000000
01000001
00000000
,
00100000
00000000
01000001
00000000
00100000
10000000
01000001
00000000
,
10000000
00000000
01000001
00000000
10000000
01000000
00100001
00000000
,
00001001
00000000
10001001
00000000
00000010
00001000
10000100
00000000
,
00000001
00000000
10001000
00000000
00000001
00001000
10000100
00000000
,
00000010
00000100
10000010
00000000
00001000
00000100
10000010
00000000
,
00000001
00000100
10000010
00000000
00001000
00000100
10000001
00000000
,
10010000
00000000
10010001
00000000
00100000
10000000
01000001
00000000
,
00010000
00000000
10000001
00000000
00010000
10000000
01000001
00000000
,
00100000
01000000
00100001
00000000
10000000
01000000
00100001
00000000
,
00010000
01000000
00100001
00000000
10000000
01000000
00010001
00000000
,
00001001
00000000
10010000
00000000
,
00000010
00001000
00000100
00000010
00000001
00001000
00000100
00000000
,
00100000
10000000
01000000
00100000
00010000
10000000
01000000
00000000
,
00001001
00000000
10010000
00000000
00100010
00010001
01000100
00000000
,
00010001
10001000
01000100
01000100
,
10001000
00010001
01000100
01000100
,
00000010
00000010
00100000
00100000
,
00010001
10001000
01000100
00000000
,
00000001
00000001
00000001
00000001
,
10000000
10000000
10000000
10000000
,
00000010
00000010
00000010
00000010
,
01000000
01000000
01000000
01000000
,
10011001
10011001
00000000
00000000
00000000
00000000
00000000
00000000
,
00010001
10001000
00010001
00010001
,
10001000
00010001
10001000
10001000
,
00010001
10001000
00010001
10011001
,
00100000
00000000
00100000
00000000
00100000
10000000
01000000
00000000
,
00100000
10000000
01000000
00000000
00010000
01000000
10000000
00000000
,
00000010
00000000
00000010
00000000
00000010
00000001
00000100
00000000
,
00000010
00000001
00000100
00000000
00001000
00000100
00000001
00000000
,
00010000
00000000
10000000
00000000
00010000
10000000
01000000
00000000
,
00010000
10000000
01000000
00000000
00100000
00000000
00100000
00000000
,
00001000
00000000
00000001
00000000
00001000
00000001
00000100
00000000
,
00001000
00000001
00000100
00000000
00000010
00000000
00000010
00000000
,
10010000
00000000
00001001
00000000
,
10001000
00010001
10001000
00010001
10001000
00100010
01000100
00000000
,
10001000
00000000
00010001
00000000
00010001
10001000
01000100
00000000
,
00100010
00100010
00100010
00000000
01000100
00000000
10011001
00000000
,
00000000
00001001
10010000
00000000
,
00011000
10000001
00100010
01000100
00000000
00000000
00000000
00000000
,
00011000
00100010
01000100
10000001
00100010
01000100
00100010
01000100
,
10011001
10011001
01011100
00000000
,
00100010
00000000
00000000
00100010
00000000
00000000
00100010
00000000
00000000
00000000
00010001
00000000
10001000
00000000
01000100
00000000
,
01000100
00000000
00000000
00000000
;

//---------------dance-solo - ----------------
#NOTES:
     dance-solo:
     :
     Easy:
     4:
     0.337,0.423,0.430,0.000,0.000:
000000
000000
000000
000000
,
000000
000000
000000
000000
,
000000
000000
000000
000000
,
000000
000000
000000
000000
,
000000
000000
000000
000000
,
000100
010000
000010
001000
,
000010
010000
001000
000100
,
000010
000010
001000
000100
,
010000
010000
001000
000100
,
001000
000000
000000
000000
,
001000
001000
000100
000100
,
010000
100000
000010
000001
,
001000
000100
010000
000010
,
010000
100000
000010
000001
,
100000
001000
000001
001000
,
000100
001000
010000
000010
,
100000
001000
000100
000001
,
001000
000100
100000
000001
,
110000
000100
100100
001000
,
010100
010000
000001
000100
,
001000
100000
000100
001000
,
000001
100000
001000
000100
,
000001
000001
001000
001000
,
000100
000100
100000
001000
,
000100
000001
100000
000100
,
100000
100001
000100
001100
,
100001
000000
001100
000000
,
100001
100001
001000
000100
,
110000
110000
000001
001000
,
001100
001100
001100
000001
,
000000
000100
001000
000000
,
100001
001000
000100
000000
,
100001
000100
100001
100001
,
110000
000011
110000
000000
,
000001
000001
000000
000000
,
000001
000001
000000
000000
,
100000
001000
000001
001000
,
000000
000000
000000
000000
,
100001
100001
000000
000000
,
000100
000000
001000
000000
,
000001
100000
001000
000100
,
100001
000000
100001
000000
,
100001
100001
000100
000100
,
001000
001000
000001
100000
,
001000
000100
000001
001000
,
000100
000100
100000
001000
,
000001
001000
100000
001000
,
000100
000001
001000
001000
,
000100
100000
001000
000100
,
000001
011000
011000
011000
,
000101
000000
001001
000000
,
100001
000100
001000
000001
,
000100
001000
101000
101000
,
000001
001000
000100
100000
,
000000
100001
100001
000000
,
001000
100001
100001
000000
,
000100
001000
100000
000001
,
001000
010100
000011
000000
,
010000
000010
100000
001000
,
100001
000000
000000
000000
;

//---------------dance-solo - ----------------
#NOTES:
     dance-solo:
     :
     Medium:
     7:
     0.435,0.453,0.359,0.000,0.005:
000000
000000
000000
000000
,
000000
000000
000000
000000
,
000000
000000
000000
000000
,
000000
000000
000000
000000
,
000000
000000
000000
000000
,
110000
000100
100001
001000
,
000100
110000
010010
001001
,
010100
000000
100000
000000
000010
001000
000100
000000
,
100000
001000
000001
001000
000100
000001
010000
000000
,
100010
000000
000000
000000
,
100000
000100
001000
000000
000010
000000
010000
000000
,
000001
100000
001000
000000
000100
000000
001100
000000
,
000001
010000
000010
100000
,
001000
100000
000100
000000
010000
000010
001000
000000
,
000001
010000
010000
000000
001000
000010
000010
000000
,
001000
000100
000001
001000
000100
100000
001000
000000
,
000100
000010
000001
000000
000100
010000
100000
000000
,
000100
000010
000001
000000
000100
010000
100000
000000
,
100100
000000
001000
000000
000001
100000
001000
000000
,
100010
000000
001100
000000
000001
100000
000001
000000
,
000100
001000
000100
000000
100000
001000
000100
000000
,
000001
001000
000100
000000
100000
001000
000001
000000
,
001000
100000
000100
000000
000001
000100
100000
000000
,
001000
000010
000010
000000
001000
010000
010000
000000
,
100000
100000
100000
000000
000001
000001
000001
000000
,
000001
001000
000100
100000
000001
000100
001000
000000
,
000000
100010
000000
010001
,
001000
100000
000001
000100
000000
000000
100001
000000
,
000000
000100
100000
001000
000100
000001
000000
000000
,
000000
001000
000100
000100
000100
000000
001000
000000
,
000000
010000
000010
000000
,
000001
000000
010000
000010
000000
000000
000000
000000
,
100000
000100
001000
000001
100000
000001
000100
001000
,
100001
001001
101000
000000
,
000010
010000
000000
000000
,
000000
000001
000000
100000
000000
100000
000000
000000
,
000000
001000
100000
000000
000000
000001
001000
000000
,
000000
000000
000000
000000
,
000010
010000
100001
000000
000000
000000
000000
000000
,
000000
000100
000000
010010
000000
100001
000000
000000
,
000000
100001
000100
000000
000000
100001
001000
000000
,
100000
000001
100000
000001
100000
000001
100000
000000
,
000101
000000
001001
000000
000010
100000
001000
000000
,
000100
000001
000001
000000
100000
000010
000010
000000
,
000100
010000
100000
000000
000100
000010
000001
000000
,
100000
001000
001000
000000
000100
000001
000001
000000
,
100000
001000
000001
000000
000001
001000
100000
000000
,
000001
000100
001000
000000
100000
000010
010000
000000
,
100000
100000
100000
000000
001000
001000
001000
000000
,
100000
000100
001000
000000
100001
010010
001100
000000
,
000000
010100
000000
000011
,
100000
001000
000100
000001
000000
000000
001000
000100
,
000000
100000
001000
000100
000010
001000
000000
010000
,
000000
001000
000100
000010
001000
000000
000100
000000
,
000000
100000
000001
000000
,
010000
000010
001000
001000
000000
000000
000000
000000
,
000100
100000
001000
010000
000010
001000
000100
001000
,
100001
001100
100001
000000
,
100000
000000
000000
000010
000000
000000
001000
000000
000000
000000
000100
000000
100001
000000
001010
000000
,
001100
000000
000000
000000
;

//---------------dance-solo - ----------------
#NOTES:
     dance-solo:
     :
     Hard:
     9:
     0.594,0.574,0.113,0.000,0.195:
000000
000000
000000
000000
,
000000
000000
000000
000000
,
000000
000000
000000
000000
,
000000
000000
000000
000000
,
000000
000000
000000
000000
,
000100
000000
000001
000000
001000
000000
000001
001000
000000
000010
000000
001000
000001
000000
001000
000000
,
000100
000000
001000
000000
000001
000000
000100
000010
000000
000100
000000
000001
001000
000000
000010
000000
,
100000
000000
001000
000000
000100
000000
001000
000100
000000
000010
000000
010000
000100
000000
100000
000000
,
001000
000000
000100
000000
000001
000000
010000
000010
000000
001000
000000
000100
100000
000000
000001
000000
,
001000
000000
000000
000000
,
000100
000000
010000
000000
000001
000000
100000
000000
000100
010000
000001
000000
001000
000000
000000
000000
,
000100
000000
010000
000000
000001
000000
100000
000000
000100
010000
000001
000000
001000
000000
000000
000000
,
000100
000000
010000
000000
000001
000000
100000
000000
000100
010000
000001
000000
001000
000000
000000
000000
,
000100
000000
010000
000000
000001
000000
100000
000000
000100
010000
000001
000000
001000
000000
000000
000000
,
000010
000000
100000
000000
001000
000000
000100
000000
000001
010000
000001
000000
001000
000000
000000
000000
,
000001
000000
100000
000000
001000
000000
000100
000000
000010
100000
000010
000000
010000
000000
000000
000000
,
000001
000000
100000
000000
001000
000000
000100
000000
000001
100000
001000
000000
000100
000000
000000
000000
,
000001
000000
001000
000000
000100
000000
100000
000000
000010
010000
001000
000000
000100
000000
000000
000000
,
000010
000000
100000
000000
000010
000000
000000
000000
000100
000001
100000
000000
001000
000000
000000
000000
,
100000
000000
000010
000000
001000
000000
000001
000000
010000
001000
100000
000000
000100
000000
000000
000000
,
010000
000000
000001
000000
010000
000000
000000
000000
000100
100000
000001
000000
001000
000000
000000
000000
,
000001
000000
010000
000000
001000
000000
100000
000000
000010
001000
000001
000000
000100
000000
000000
000000
,
000010
000000
100000
000000
000010
000000
000000
000000
010000
000001
010000
000000
001000
000000
000000
000000
,
000100
000000
000001
000000
100000
000000
001000
000000
100000
000001
100000
000000
001000
000000
000100
000000
,
000010
000000
100000
000000
000010
000000
000000
000000
010000
001000
000100
000000
000001
000000
000000
000000
,
000100
000000
000001
000000
100000
000000
001000
000000
100000
000001
000100
000000
000010
000000
010000
000000
,
000010
001000
000000
000100
010010
100000
000000
100000
,
000001
001000
000001
100000
000000
100000
000100
001000
,
000000
000100
010000
000001
100000
000100
000000
001000
,
000000
000010
010000
000001
000100
001000
000100
001000
,
000000
000000
100000
000010
000100
000010
000000
100000
,
000100
001000
000010
001000
000000
001000
000000
001000
,
000100
010000
000001
001000
000010
100000
000100
001000
,
001001
000000
100000
000100
001001
000000
000000
000000
,
001000
000100
001000
000001
001000
000010
000100
000001
,
001000
000100
010000
000010
001000
000001
010000
000100
,
100000
001000
010000
001000
000100
000001
001000
000100
,
100000
001000
000100
001000
010000
000000
000000
000000
,
000100
010000
000001
000000
000100
000010
100000
000000
,
000001
001000
000100
001000
000001
000100
001000
000100
,
000001
001000
100000
001000
000100
010000
000010
000000
,
001000
000100
010000
000100
100000
000001
001000
000100
,
000000
000000
000000
000000
000011
000000
000000
000000
000001
100000
000001
000000
100000
000000
000000
000000
,
001000
000000
000100
000000
000001
000000
001000
000000
000001
001000
000001
000000
100000
000000
001000
000000
,
100000
000000
000001
000000
010000
000000
000000
000000
000100
001000
000010
000000
100000
000000
000000
000000
,
000010
000000
001000
000000
000100
000000
010000
000000
001000
100000
001000
000000
000100
000000
000001
000000
,
001000
000000
000100
000000
100000
000000
000000
000000
000010
010000
000010
000000
001000
000000
000000
000000
,
000100
000000
010000
000000
000001
000000
001000
000000
000100
010000
000100
000000
100000
000000
000010
000000
,
000100
000000
001000
000000
100000
000000
000000
000000
000001
100000
000001
000000
001000
000000
000000
000000
,
000100
000000
010000
000000
000010
000000
001000
000000
000001
100000
000001
000000
001000
000000
000100
000000
,
100001
001000
000000
000100
100001
001000
000000
001000
,
100000
001000
000100
000001
001000
000100
100000
000100
,
000000
100000
001000
000100
000001
001000
000100
010000
,
001000
001000
000100
000010
001000
000100
000100
000100
,
000000
000000
001000
001000
000100
010000
000000
000000
,
010000
000010
000100
001000
010000
000010
001000
000100
,
100000
000001
001000
000100
010000
000010
010000
000010
,
001000
000000
100001
010010
100001
000000
000000
000000
,
001000
000100
001000
000000
000100
000000
001000
000100
000000
000000
010000
000000
001000
000000
010001
000000
,
100010
000000
000000
000000
;

//---------------dance-single - Edit by silenttype01----------------
#NOTES:
     dance-single:
     Edit by silenttype01:
     Edit:
     9:
     0.667,0.665,0.379,0.020,0.420:
0000
0000
0000
0000
,
0000
0000
0000
0000
,
0000
0000
0000
0000
,
0000
0000
0000
0000
,
0000
0000
0000
0000
0000
0000
0000
0000
1000
0100
0010
0001
1000
0000
0000
0000
,
0001
0000
0100
0000
0010
0000
1000
0100
0000
0100
1000
0000
0001
0000
0100
0000
,
0010
0000
0001
0000
0010
0000
1000
0010
0000
1000
0010
0000
0100
0000
1000
0000
,
0100
0000
0001
0000
0010
0000
0100
1000
0000
0001
0100
0000
0100
0000
0010
0000
,
1000
0000
0001
0000
0100
0000
0001
0010
0000
0100
1000
0000
0001
0010
0100
1000
,
0200
0000
0000
0300
,
0010
0000
0001
0000
0100
0000
0010
0000
1000
0100
1000
0100
1000
0000
0000
0000
,
0001
0100
1000
0010
1000
0100
0001
0000
,
0001
0000
0000
0010
0000
0000
0100
0000
0000
0000
0000
0000
0100
0000
1000
0000
0010
0000
0100
0000
0000
0000
0000
0000
,
0001
0001
0011
0000
1000
1000
1100
0000
,
0010
0000
0100
0000
0001
0000
1000
0001
0100
0001
1000
0000
0010
0000
0000
0100
,
0001
0000
0010
0000
0100
0000
1000
0010
0100
0010
1000
0000
0100
0000
0000
0010
,
0001
0000
0100
0000
1001
0000
0000
0010
0100
0000
0001
0000
0010
0000
1000
0000
,
0010
0000
0001
0000
1100
0000
0000
1000
0100
0000
0001
0000
1100
0000
0000
0001
,
0010
0000
0100
0000
0001
0000
0000
0100
1000
0000
0001
0000
0100
0000
0000
0000
,
1000
0000
0100
0000
0001
0000
0000
1000
0100
0000
0010
0000
0001
0000
0000
0000
,
1000
0000
0100
1000
0001
0000
0000
0000
0100
0001
1000
0010
0100
0000
0000
0000
,
0001
0000
0010
0000
1000
0000
0000
0000
0010
1000
0001
0100
0010
0000
0000
0000
,
0001
0000
0100
0000
0010
0000
0000
0000
1000
0010
1000
0010
1000
0000
0100
0001
,
0100
0001
0100
0001
0100
0000
0000
0000
0001
0000
0100
0000
0010
0000
0000
0000
,
0001
0100
0010
0000
1100
0010
0001
0000
,
1000
0100
0000
1000
0100
0000
0010
0001
0010
0000
0100
0000
1000
0000
0001
0000
,
0100
0010
0000
1000
0001
1000
0000
0010
,
0100
0001
0010
1000
0000
0010
0001
0100
,
1000
0100
0010
0010
0100
0001
0010
0100
,
1000
1000
0100
0010
0001
1000
1001
1001
,
1001
0000
0000
0000
1000
0010
0000
0000
0100
0001
0000
0000
0000
0000
0000
0000
,
1000
0000
0100
0000
0010
0000
0100
0000
0000
0000
1000
0001
0100
0000
0010
0000
,
1000
0001
0100
0010
1000
0100
0001
0100
,
1000
0000
0101
1001
1100
0000
0011
0000
,
0100
0010
0100
0001
1000
0100
0001
0100
,
1000
0010
0001
0010
1000
0100
0010
1001
,
0000
0000
1000
0100
0001
0000
0000
0000
0000
0000
1000
0010
0001
0000
1001
0000
,
0100
0001
0000
0001
0000
0001
0000
0001
0000
0001
2000
0000
0000
0000
3000
0000
,
0011
1001
1010
0000
0100
0001
0010
0100
,
1000
0000
0100
0010
0000
0000
0001
0010
0000
0000
0010
0100
0000
0000
0100
0000
,
0000
0000
1000
0001
0100
0000
0000
0000
0000
0000
0001
1000
0010
0000
0100
0000
,
1001
1001
1001
1001
,
1010
0000
0000
0000
0101
0000
0000
0000
1000
0100
0010
0001
0100
0000
0000
0000
,
0001
0100
0010
1000
0100
0000
0000
0000
0010
0000
0010
0000
0010
0000
0000
0000
,
0100
1000
0001
0100
0010
0000
0000
0000
1000
0000
1000
0000
1000
0000
0000
0000
,
0001
0000
0000
0010
0000
0000
0000
0000
0100
0000
0000
0000
0000
0000
0000
1000
0000
0000
0000
0000
0000
0000
0000
0000
0001
0000
0000
0000
0000
0000
0100
0000
0000
0000
0000
0000
0010
0000
0000
0000
0000
0000
0000
0000
0000
0000
0000
0000
,
1000
0000
0100
0000
0010
0000
0000
0000
1001
0000
0100
0010
0001
1000
0000
0000
,
0010
0100
0001
0010
0100
1000
0101
0000
,
0110
0001
1000
0000
0110
1000
0001
0000
,
0010
0100
0000
0001
1000
0000
0001
0100
0001
0000
0100
0000
1000
0000
0010
0000
,
0110
0000
0000
0000
1000
0001
0000
0000
0100
0010
0000
0000
0000
0000
0100
0000
,
0001
0010
1000
0010
0000
0010
0001
0100
,
0010
0000
0100
0001
1000
0000
0010
0000
0100
0000
0001
0000
1000
0000
0100
0000
,
0010
0000
0100
1000
0001
0000
0100
0000
0010
0000
0100
0000
0101
0000
1100
0000
,
0101
0000
0000
0000
0010
1000
0000
0000
0001
0100
0000
0000
0000
0000
0010
0000
,
1000
0000
0100
0000
0001
0000
0100
0000
0000
0000
0100
1000
0100
0000
0010
0000
,
0001
0100
0001
0000
1000
0000
1000
0000
0010
0100
0010
0000
0001
0000
0001
0000
,
0010
1000
0000
0100
0010
0000
0011
0000
0101
0000
0010
0000
1000
0000
1000
0000
,
0001
0000
0000
1000
0000
0000
0100
0000
0000
0010
0000
0000
0101
0000
0110
0000
,
1001
0000
0000
0000
;

//---------------dance-double - ----------------
#NOTES:
     dance-double:
     :
     Beginner:
     1:
     0.195,0.242,0.246,0.000,0.000: // measure 1
00000000
00000000
00000000
00000000
,  // measure 2
00000000
00000000
00000000
00000000
,  // measure 3
00000000
00000000
00000000
00000000
,  // measure 4
00000000
00000000
00000000
00000000
,  // measure 5
00000000
00000000
00000000
00000000
,  // measure 6
00010000
00000000
00010000
00000000
,  // measure 7
00100000
00000000
00100000
00000000
,  // measure 8
10000000
00000000
10000000
00000000
,  // measure 9
01000000
00000000
00010000
00000000
,  // measure 10
00001000
00000000
00000100
00000000
,  // measure 11
00001000
00000000
00000001
00000000
,  // measure 12
00001001
00000000
00000001
00000000
,  // measure 13
00000010
00000000
00001000
00000000
,  // measure 14
00001000
00000000
01000000
00000000
,  // measure 15
00010000
00000000
10000000
00000000
,  // measure 16
10010000
00000000
10000000
00000000
,  // measure 17
00100000
00000000
00010000
00000000
,  // measure 18
00010000
00000000
00000100
00000000
,  // measure 19
00000010
00000000
00001000
00000000
,  // measure 20
00000001
00000000
00000100
00000000
,  // measure 21
00010000
00000000
01000000
00000000
,  // measure 22
00010000
00000000
00010000
00000000
,  // measure 23
10010000
00000000
10010000
00000000
,  // measure 24
01000000
00000000
00100000
00000000
,  // measure 25
01000000
00000000
00001000
00000000
,  // measure 26
00001001
00000000
00000010
00000000
,  // measure 27
00001001
00000000
00001001
00000000
,  // measure 28
00000001
00000000
00000100
00000000
,  // measure 29
00000001
00000000
00000100
00000000
,  // measure 30
00010000
00000000
10000000
00000000
,  // measure 31
10010000
00000000
01100000
00000000
,  // measure 32
10010000
00000000
10000000
00000000
,  // measure 33
01000000
00000000
00001000
00000000
,  // measure 34
00000010
00000000
00000010
00000000
,  // measure 35
00000110
00000000
00001000
00000000
,  // measure 36
01000000
00000000
10000000
00000000
,  // measure 37
01100000
00000000
00010000
00000000
,  // measure 38
00000100
00000000
00000001
00000000
,  // measure 39
00000010
00000000
00000100
00000000
,  // measure 40
00000010
00000000
00000100
00000000
,  // measure 41
00001000
00000000
00000100
00000000
,  // measure 42
00001000
00000000
01000000
00000000
,  // measure 43
01001000
00000000
01001000
00000000
,  // measure 44
01000000
00000000
00010000
00000000
,  // measure 45
00000100
00000000
00001000
00000000
,  // measure 46
00010100
00000000
00010100
00000000
,  // measure 47
01000000
00000000
00010000
00000000
,  // measure 48
10010000
00000000
10010000
00000000
,  // measure 49
00100000
00000000
00010000
00000000
,  // measure 50
00010000
00000000
00000100
00000000
,  // measure 51
00001001
00000000
00001001
00000000
,  // measure 52
00000001
00000000
00000100
00000000
,  // measure 53
00000001
00000000
00000100
00000000
,  // measure 54
00010000
00000000
10000000
00000000
,  // measure 55
10010000
00000000
01100000
00000000
,  // measure 56
10010000
00000000
10000000
00000000
,  // measure 57
01000000
00000000
00001000
00000000
,  // measure 58
00001000
00000000
01000000
00000000
,  // measure 59
01100000
00000000
01000000
00000000
,  // measure 60
10000000
00000000
00000000
00000000
;
