#TITLE:DROP THE BOMB;
#SUBTITLE:;
#ARTIST:Scotty D.;
#TITLETRANSLIT:;
#SUBTITLETRANSLIT:;
#ARTISTTRANSLIT:;
#CREDIT:;
#BANNER:DROP THE BOMB.png;
#BACKGROUND:DROP THE BOMB-bg.png;
#LYRICSPATH:;
#CDTITLE:DanceDanceRevolution3rdMixPLUS.png;
#MUSIC:DROP THE BOMB.ogg;
#OFFSET:0.000;
#SAMPLESTART:74.529;
#SAMPLELENGTH:15.000;
#SELECTABLE:YES;
#DISPLAYBPM:150.000;
#BPMS:0.000=150.313,8.000=150.143;
#STOPS:;
#BGCHANGES:;

//---------------dance-single - ----------------
#NOTES:
     dance-single:
     :
     Beginner:
     1:
     0.194,0.243,0.064,0.000,0.000:
0000
0000
0000
0000
,
0000
0000
0000
0000
,
0000
0000
0000
0000
,
0010
0010
0000
0100
,
0000
0010
0000
0100
,
0000
0001
0000
1000
,
0000
0000
0000
0000
,
0000
0000
0000
0000
,
0000
0010
0000
0010
,
0000
0100
0000
0010
,
0000
0100
0000
0001
,
0000
1000
1000
1000
,
1000
0000
0010
0000
,
0010
0000
1000
0000
,
0001
0000
0100
0000
,
0001
0000
0100
0000
,
1001
0000
0100
0000
,
0100
0000
0100
0000
,
0001
0000
0100
0000
,
0100
0000
0010
0000
,
0001
0000
1000
0000
,
1000
0000
0001
0000
,
0001
0000
1000
0000
,
1000
0000
0001
0000
,
0100
0100
0100
0100
,
0100
0100
0100
0000
,
0001
0001
0001
0001
,
0001
0001
0001
0000
,
1000
1000
1000
1000
,
1000
1000
1000
0000
,
0010
0010
0010
0010
,
0010
0010
0010
0010
,
0000
0000
0000
0000
,
1000
0000
1000
0000
,
0001
0000
0001
0000
,
0010
0000
0010
0000
,
0100
0000
0100
0000
,
1001
0000
0100
0000
,
0010
0000
1000
0000
,
0100
0000
0001
0000
,
0100
0000
0010
0000
,
1000
1000
0000
0000
,
0010
0010
0000
0000
,
0001
0001
0000
0000
,
0100
0100
0000
0000
,
0000
0000
0000
0000
,
0000
0000
0000
0000
,
1001
0000
0001
0001
,
0001
0001
0001
0000
,
0110
0000
0100
0100
,
0100
0100
0100
0000
,
1001
0000
1000
1000
,
1000
1000
1000
0000
,
0110
0000
0010
0010
,
0010
0010
0010
0000
,
1000
0000
0010
0000
,
0100
0000
0001
0000
,
0000
1000
0000
0000
;

//---------------dance-single - ----------------
#NOTES:
     dance-single:
     :
     Easy:
     4:
     0.324,0.303,0.159,0.000,0.000:
0000
0000
0000
0000
,
0000
0000
0000
0000
,
0000
0000
0000
0000
,
0010
0010
0001
0100
,
0010
0010
1000
0100
,
0010
0001
0100
1000
,
0000
0000
0000
0000
,
0000
0000
0000
0000
,
0010
0001
0010
1000
,
0100
0001
0010
1000
,
0100
0010
0001
0100
,
0010
0010
0010
1001
,
0010
0001
0010
1000
,
0010
1000
0100
0001
,
0010
1000
0100
0001
,
0100
1000
0010
0001
,
1001
0010
1000
0001
,
0100
0100
0010
1000
,
0010
0001
1000
0010
,
0100
0100
0010
0010
,
1001
0001
0100
1000
,
0001
1000
0010
0100
,
0010
0001
0100
1000
,
0100
0100
0001
0100
,
1001
0010
0001
0100
,
0010
0010
1000
0100
,
0010
0001
0100
1000
,
0001
1000
0010
0100
,
1001
0010
1000
0100
,
0010
0010
0001
0100
,
0010
1000
0100
0001
,
0010
0010
0010
1001
,
0000
0000
0000
0000
,
0001
1000
0001
1000
,
0010
0100
0001
1000
,
0010
1000
0010
0001
,
0100
0100
1000
0000
,
1001
0010
0100
0001
,
0010
0010
0100
1000
,
0010
0010
1000
0001
,
0010
0010
0010
1000
,
1001
0100
1000
0100
,
0010
0001
0100
1000
,
0010
0001
1000
0001
,
0100
0100
0100
1001
,
0000
0000
0001
0000
,
1000
0000
1000
0000
,
1001
0010
0001
0100
,
0010
0010
1000
0100
,
0010
0001
0100
1000
,
0001
1000
0010
0100
,
0010
0010
1000
0100
,
0010
0001
0100
0100
,
0010
1000
0100
0001
,
0010
0010
1000
1000
,
0010
0010
0001
0001
,
0110
0110
1001
1001
,
0000
0110
0000
0000
;

//---------------dance-single - ----------------
#NOTES:
     dance-single:
     :
     Medium:
     5:
     0.376,0.395,0.106,0.000,0.032:
0000
0000
0000
0000
,
0000
0000
0000
0000
,
0000
0000
0000
0000
,
1001
0010
0001
0100
,
0010
0001
0010
0000
0001
0000
0100
0000
,
0010
1000
0100
0001
,
0000
0000
0010
0000
,
0010
0000
0010
0000
,
0010
0001
0100
1000
,
0100
0000
0001
0000
0010
0001
1000
0000
,
0110
0000
0010
0000
0001
1000
0100
0000
,
0010
0000
0010
0000
1000
0001
1000
0000
,
0110
0001
0100
0001
,
0010
0000
1000
0000
0100
0001
1000
0000
,
0010
0000
1000
0000
0010
0001
1000
0000
,
0100
0001
0010
1100
,
0001
1000
0001
0000
0100
0000
0010
0000
,
1000
0000
0001
0000
0100
0000
0010
1000
,
0001
0100
0001
1000
,
0010
0010
0001
0100
,
0010
1000
0001
0000
0100
0000
0010
0000
,
1000
0000
0001
0000
0100
0000
0010
0001
,
1000
0100
0001
1000
,
0100
0100
0010
0100
,
0001
1000
0010
0000
0001
0000
0100
0000
,
0010
1000
0010
0000
0001
0000
0100
0000
,
0010
1000
0001
0100
,
0010
0000
1000
0000
0010
0001
0100
0000
,
0010
1000
0100
0000
0001
0000
1000
0000
,
0010
1000
0010
0000
0001
0000
0100
0000
,
0010
1000
0100
0001
,
0100
0000
0001
0000
0010
0001
0010
0000
,
0100
0000
0000
0000
,
0010
0000
0000
0010
0000
0000
0001
0000
1000
0000
0000
0000
0000
0000
0000
0000
,
0010
0000
0000
0010
0000
0000
1000
0000
0001
0000
0000
0000
0000
0000
0000
0000
,
0010
0000
0000
0010
0000
0000
0001
0000
1000
0000
0000
0000
0000
0000
0000
0000
,
0010
0000
0000
0010
0000
0000
1000
0000
0001
0000
0000
0000
0000
0000
0000
0000
,
0010
0010
0100
0001
,
0010
1000
0100
0001
,
0010
0010
1000
0001
,
0010
0010
0010
1001
,
0010
0100
0010
0000
1000
0000
1100
0000
,
0010
0000
1000
0000
0001
0000
0100
1000
,
0010
0001
1000
0101
,
0010
0010
1000
0001
,
0010
0000
0000
0010
0000
0000
1000
0000
0001
0000
0000
0000
0000
0000
0000
0000
,
0010
0000
0000
0010
0000
0000
0001
0000
1000
0000
0000
0000
0000
0000
0000
0000
,
0001
0100
0010
0000
1000
0000
0100
0000
,
1000
0100
1000
0000
0001
0000
0100
0000
,
0010
0001
0100
1000
,
0010
0000
1000
0000
0010
1000
0100
0000
,
0010
0001
0100
0000
1000
0000
0010
0000
,
0001
0100
0001
0000
1000
0000
0010
0000
,
0100
0001
1000
0100
,
0011
0000
0100
0000
0010
1000
0001
0000
,
1010
0000
0100
0000
0001
1000
0001
0000
,
0010
1000
0100
0001
0010
1000
0100
0001
,
0000
1001
0000
0000
;

//---------------dance-single - ----------------
#NOTES:
     dance-single:
     :
     Hard:
     6:
     0.482,0.455,0.148,0.000,0.074:
0000
0000
0000
0000
,
0000
0000
0000
0000
,
0000
0000
0000
0000
,
0010
0100
0010
0000
0001
0001
0100
1000
,
0010
0001
0100
0000
1000
1000
0001
0100
,
0010
1000
0010
0000
0001
0001
1000
0100
,
0000
0000
0100
0100
,
0100
0100
0100
0100
,
0010
0001
0100
1000
,
0001
0000
1000
0000
0010
1000
0010
1000
,
1010
0000
0010
0000
0001
0100
1000
0000
,
0010
0000
0010
0000
0100
0001
0100
0001
,
0101
1000
0100
0001
,
0010
0000
1000
0000
0010
1000
0001
1000
,
0100
0000
1000
0000
0010
0001
1000
0000
,
0010
0001
0100
1000
,
0010
1000
0001
0000
0010
0000
0000
0010
,
1001
0000
0000
0100
0000
0100
0000
0010
,
0001
1000
0001
0100
,
0010
1000
0010
1000
0001
0100
1000
0000
,
0010
1000
0001
0000
0010
0000
0000
0010
,
1001
0000
0000
0010
0000
0010
0000
0100
,
0001
1000
0010
0100
0001
0010
1000
0000
,
0001
1000
0001
0100
0010
0001
1000
0000
,
0010
0100
0010
0000
0001
1000
0010
1000
,
0010
0001
0010
0000
1000
1000
0001
1000
,
0010
0100
0010
0000
0001
0001
1000
1000
,
0010
0100
0010
0000
0001
1000
0010
1000
,
0010
0001
0010
0000
1000
1000
0001
1000
,
0010
0100
0010
0000
0001
1000
0100
0001
,
1000
0001
1000
0000
0010
0010
0001
1000
,
0010
0100
0010
0000
1000
1000
0001
0001
,
0010
0000
0000
0000
,
0010
0000
0000
0010
0000
0000
0001
0000
1000
0000
0000
0000
0000
0000
0000
0000
,
0010
0000
0000
0010
0000
0000
1000
0000
0001
0000
0000
0000
0000
0000
0000
0000
,
0010
0000
0000
0011
0000
0000
1001
0000
1001
0000
0000
0000
0000
0000
0000
0000
,
0010
0000
0000
1010
0000
0000
1001
0000
1001
0000
0000
0000
0000
0000
0000
0000
,
0010
0000
0100
0000
0001
0000
1000
0001
,
0100
0000
0000
0010
0000
0010
0000
1000
,
0010
0100
0001
1000
,
0010
0010
0010
1001
,
0011
0000
0100
0000
0010
0000
1000
0010
,
0001
0000
0000
0010
0000
0010
0000
1000
,
0001
0100
0001
1000
0010
0001
1000
0000
,
0010
1000
0001
0100
0010
1000
0001
0000
,
0010
0000
0000
0010
0000
0000
1000
0000
0001
0000
0000
0000
0000
0000
0000
0000
,
0010
0000
0000
0010
0000
0000
0001
0000
1000
0000
0000
0000
0000
0000
0000
0000
,
0010
0100
0010
0000
0001
1000
0010
1000
,
0010
0001
0010
0000
1000
0001
1000
0001
,
0100
0010
0100
0000
0001
0001
1000
1000
,
0010
0100
0010
0000
1000
0001
1000
0001
,
0100
0010
0100
0000
1000
1000
0001
1000
,
0010
0100
0010
0000
1000
1000
0001
1000
,
0010
0100
0010
0000
1000
0001
0100
0001
,
0100
0001
1000
0000
0001
1000
0001
0000
,
1010
0000
0100
0000
0001
1000
0001
0000
,
0010
0001
1000
0100
0010
0001
1000
0100
0010
0001
1000
0100
,
0000
1001
0000
0000
;

//---------------dance-double - ----------------
#NOTES:
     dance-double:
     :
     Easy:
     4:
     0.318,0.303,0.117,0.000,0.000: // measure 1
00000000
00000000
00000000
00000000
,  // measure 2
00000000
00000000
00000000
00000000
,  // measure 3
00000000
00000000
00000000
00000000
,  // measure 4
00001000
00000001
00000100
00000010
,  // measure 5
00010000
00100000
10000000
00010000
,  // measure 6
00100000
00010000
01000000
10000000
,  // measure 7
00000000
00000000
00000000
00000000
,  // measure 8
00000000
00000000
00000000
00000000
,  // measure 9
10000000
01000000
00010000
00001000
,  // measure 10
00000010
00000001
00001000
00000001
,  // measure 11
00000100
00000010
00010000
00100000
,  // measure 12
10000000
00010000
01000000
00001000
,  // measure 13
00000010
00000001
00001000
00000010
,  // measure 14
00001000
00000001
00000100
00000010
,  // measure 15
00010000
00100000
10000000
01000000
,  // measure 16
01000000
00010000
01000000
01000000
,  // measure 17
10010000
01000000
00100000
00010000
,  // measure 18
00001000
00000010
00000001
00000100
,  // measure 19
00001000
00010000
00100000
10000000
,  // measure 20
01000000
10000000
00010000
01000000
,  // measure 21
01100000
00010000
01000000
10000000
,  // measure 22
00010000
00001000
00000001
00000100
,  // measure 23
00000001
00001000
00000010
00000001
,  // measure 24
00000100
00000100
00000001
00000100
,  // measure 25
00001001
00000010
00001000
00010000
,  // measure 26
00100000
10000000
00010000
01000000
,  // measure 27
00000100
00001000
00000001
00000100
,  // measure 28
00000010
00001000
00100000
10000000
,  // measure 29
01100000
00010000
10000000
00010000
,  // measure 30
01000000
00000100
00001000
00000001
,  // measure 31
00000100
00000010
00010000
00100000
,  // measure 32
10000000
00010000
10000000
00000000
,  // measure 33
01100000
00000000
00000000
00000000
,  // measure 34
10000000
00010000
00001000
00000001
,  // measure 35
00001000
00000100
00000010
00010000
,  // measure 36
00100000
10000000
00010000
01000000
,  // measure 37
00001000
00001000
00001000
00000000
,  // measure 38
00001001
00000010
00000100
00000001
,  // measure 39
00001000
00010000
10000000
00100000
,  // measure 40
01000000
01000000
00001000
00000100
,  // measure 41
00000010
00000001
00000001
00001000
,  // measure 42
00000110
00001000
00010000
00100000
,  // measure 43
10000000
00100000
00010000
10000000
,  // measure 44
00010000
00001000
00000010
00000100
,  // measure 45
00000001
00000001
00001000
00001000
,  // measure 46
00000000
00000000
00001000
00000000
,  // measure 47
00100000
00000000
10000000
00000000
,  // measure 48
01100000
10000000
00010000
01000000
,  // measure 49
00000100
00001000
00000010
00000100
,  // measure 50
00000001
00000010
00001000
00010000
,  // measure 51
00100000
10000000
01000000
00100000
,  // measure 52
00010000
00001000
00000100
00000010
,  // measure 53
00000001
00001000
00010000
10000000
,  // measure 54
00100000
10000000
01000000
00010000
,  // measure 55
01000000
01000000
00001000
00001000
,  // measure 56
00000010
00000010
00000001
00000001
,  // measure 57
00000100
00000100
00001001
00001001
,  // measure 58
00000000
00000110
00000000
00000000
;

//---------------dance-double - ----------------
#NOTES:
     dance-double:
     :
     Medium:
     5:
     0.371,0.395,0.085,0.000,0.021: // measure 1
00000000
00000000
00000000
00000000
,  // measure 2
00000000
00000000
00000000
00000000
,  // measure 3
00000000
00000000
00000000
00000000
,  // measure 4
10010000
00100000
01000000
00000100
,  // measure 5
00001000
00000001
00001000
00000000
00000010
00000000
00001000
00000000
,  // measure 6
00010000
10000000
00010000
01000000
,  // measure 7
00000000
00000000
00100000
00000000
,  // measure 8
00100000
00000000
00100000
00000000
,  // measure 9
10000000
00010000
00001000
00000001
,  // measure 10
00000010
00000000
00000001
00000000
00000100
00000010
00001000
00000000
,  // measure 11
00000110
00000000
00001000
00000000
00100000
00010000
01000000
00000000
,  // measure 12
00100000
00000000
10000000
00000000
00010000
01000000
00100000
00000000
,  // measure 13
10010000
01000000
10000000
00010000
,  // measure 14
00001000
00000000
00000001
00000000
00000010
00001000
00000100
00000000
,  // measure 15
00000010
00000000
00000010
00000000
00000001
00000100
00001000
00000000
,  // measure 16
00000010
00010000
00100000
01000000
,  // measure 17
00100000
01000000
00100000
00000000
10000000
00000000
00010000
00000000
,  // measure 18
00100000
10000000
00010000
00000000
01000000
00000000
00010000
00000000
,  // measure 19
00010000
00001000
00000100
00000001
,  // measure 20
00000100
00001000
00010000
10000000
,  // measure 21
00100000
10000000
00010000
00000000
01000000
00000000
00001000
00000000
,  // measure 22
00000010
00000000
00000001
00000000
00000010
00000000
00001000
00000001
,  // measure 23
00000100
00000001
00000010
00001000
,  // measure 24
00000010
00010000
00100000
01000000
,  // measure 25
00010000
10000000
00100000
00000000
01000000
00000000
00010000
00000000
,  // measure 26
01000000
00010000
10000000
00000000
01000000
00000000
00010000
00000000
,  // measure 27
00001000
00000001
00000100
00000010
,  // measure 28
00001000
00000000
00000001
00000000
00000010
00001000
00000100
00000000
,  // measure 29
00000010
00001000
00000100
00000000
00001000
00000000
00010000
00000000
,  // measure 30
00100000
01000000
00100000
00000000
10000000
00000000
01000000
00000000
,  // measure 31
00100000
00001000
00000010
00000001
,  // measure 32
00001000
00000000
00000100
00000000
00000010
00001000
00000100
00000000
,  // measure 33
00010000
00000000
00000000
00000000
,  // measure 34
00100000
00000000
00000000
00100000
00000000
00000000
10000000
00000000
00010000
00000000
00000000
00000000
00000000
00000000
00000000
00000000
,  // measure 35
00001000
00000000
00000000
00001000
00000000
00000000
00001000
00000000
00010000
00000000
00000000
00000000
00000000
00000000
00000000
00000000
,  // measure 36
00000010
00000000
00000000
00000010
00000000
00000000
00000001
00000000
00001000
00000000
00000000
00000000
00000000
00000000
00000000
00000000
,  // measure 37
00000010
00000000
00000000
00000010
00000000
00000000
00001000
00000000
00000001
00000000
00000000
00000000
00000000
00000000
00000000
00000000
,  // measure 38
00000001
00001000
00010000
10000000
,  // measure 39
00010000
00100000
10000000
00100000
,  // measure 40
01000000
01000000
00010000
10000000
,  // measure 41
01000000
01000000
01000000
10010000
,  // measure 42
00001000
00010000
00001000
00000000
00000100
00000000
00000101
00000000
,  // measure 43
00000010
00000000
00001000
00000000
00000100
00000000
00000001
00001000
,  // measure 44
00000100
00001000
00010000
01010000
,  // measure 45
00100000
01000000
00010000
10000000
,  // measure 46
00100000
10000000
00000000
00100000
01000000
00000000
00000000
00000000
,  // measure 47
00001000
00010000
00000000
00000010
00000100
00000000
00000000
00000000
,  // measure 48
00000001
00001000
00000100
00000000
00010000
00000000
00010000
00000000
,  // measure 49
01000000
00100000
01000000
00000000
00010000
00000000
10000000
00000000
,  // measure 50
01000000
00100000
00001000
00001000
,  // measure 51
00000010
00000000
00000001
00000000
00001000
00000100
00001000
00000000
,  // measure 52
00000010
00010000
00100000
10000000
,  // measure 53
00010000
10000000
00010000
00000000
01000000
00000000
00001000
00000000
,  // measure 54
00000010
00000001
00000100
00000010
,  // measure 55
00010000
00000000
00100000
00000000
01000000
00100000
01000000
00000000
,  // measure 56
10010000
00000000
00100000
00000000
10000000
00010000
10000000
00000000
,  // measure 57
00100000
10000000
01000000
00010000
00100000
10000000
01000000
00010000
,  // measure 58
00000000
01100000
00000000
00000000
;

//---------------dance-double - ----------------
#NOTES:
     dance-double:
     :
     Hard:
     6:
     0.467,0.486,0.095,0.000,0.032: // measure 1
00000000
00000000
00000000
00000000
,  // measure 2
00000000
00000000
00000000
00000000
,  // measure 3
00000000
00000000
00000000
00000000
,  // measure 4
00100000
01000000
00010000
00000000
10000000
10000000
01000000
01000000
,  // measure 5
00010000
10000000
00010000
00000000
01000000
01000000
00001000
00001000
,  // measure 6
00000100
00001000
00000001
00000000
00000100
00000100
00001000
00000001
,  // measure 7
00000000
00000000
00000010
00000010
,  // measure 8
00000010
00000010
00000010
00000010
,  // measure 9
00000001
00001000
00010000
10000000
,  // measure 10
00100000
00000000
10000000
00000000
00100000
01000000
00010000
01000000
,  // measure 11
01010000
00000000
00001000
00000000
01000000
00000100
00001000
00000000
,  // measure 12
00000010
00000000
00000001
00000000
00001000
00000100
00001000
00000100
,  // measure 13
00001100
00000010
00010000
00100000
,  // measure 14
10000000
00000000
00010000
00000000
01000000
00010000
01000000
00010000
,  // measure 15
01000000
00000000
00010000
00000000
00001000
00010000
00000100
00000000
,  // measure 16
00001000
00000010
00000001
00001000
,  // measure 17
00000010
00001000
00000001
00000000
00000100
00000000
00000000
00000100
,  // measure 18
00000010
00000000
00000000
00010000
00000000
00010000
00000000
00100000
,  // measure 19
01000000
00010000
10000000
01000000
,  // measure 20
00010000
00001000
00000100
00001000
,  // measure 21
00000010
00000100
00000001
00000000
00001000
00000000
00000000
00000010
,  // measure 22
00001001
00000000
00000000
00000010
00000000
00000010
00000000
00010000
,  // measure 23
00001000
00100000
00010000
10000000
00100000
00010000
10000000
00010000
,  // measure 24
00100000
10000000
00010000
01000000
00001000
00010000
00000100
00000000
,  // measure 25
00001000
00000001
00001000
00000000
00000010
00001000
00000010
00001000
,  // measure 26
00000001
00001000
00000100
00000000
00010000
00001000
00010000
00001000
,  // measure 27
01000000
00010000
00100000
00000000
00010000
10000000
00100000
01000000
,  // measure 28
00100000
10000000
00010000
00000000
00100000
10000000
00010000
01000000
,  // measure 29
00100000
10000000
00010000
00000000
00100000
10000000
00010000
01000000
,  // measure 30
00010000
00001000
00010000
00000000
00001000
00000100
00000010
00000001
,  // measure 31
00000100
00001000
00000001
00000000
00001000
00000100
00000010
00000001
,  // measure 32
00001000
00000001
00001000
00000000
00000001
00001000
00000010
00001000
,  // measure 33
00000100
00000000
00000000
00000000
,  // measure 34
00100000
00000000
00000000
00100000
00000000
00000000
00010000
00000000
10000000
00000000
00000000
00000000
00000000
00000000
00000000
00000000
,  // measure 35
00100000
00000000
00000000
00100000
00000000
00000000
10000000
00000000
00010000
00000000
00000000
00000000
00000000
00000000
00000000
00000000
,  // measure 36
00001000
00000000
00000000
00001000
00000000
00000000
00010000
00000000
00001000
00000000
00000000
00000000
00000000
00000000
00000000
00000000
,  // measure 37
00000010
00000000
00000000
00000110
00000000
00000000
00001001
00000000
00001001
00000000
00000000
00000000
00000000
00000000
00000000
00000000
,  // measure 38
00000001
00000000
00001000
00000000
00010000
00000000
10000000
00010000
,  // measure 39
01000000
00000000
00000000
00100000
00000000
00100000
00000000
10000000
,  // measure 40
00100000
01000000
00010000
10000000
,  // measure 41
00010000
00010000
00001000
00001000
,  // measure 42
00001010
00000000
00000001
00000000
00001000
00000000
00000010
00001000
,  // measure 43
00000001
00000000
00000000
00000010
00000000
00000010
00000000
00001000
,  // measure 44
00000010
00000001
00000100
00000010
00001000
00000001
00000100
00000000
,  // measure 45
00001000
00010000
00001000
01000000
00100000
00010000
10000000
00000000
,  // measure 46
00100000
00000000
00000000
00100000
00000000
00000000
00010000
00000000
10000000
00000000
00000000
00000000
00000000
00000000
00000000
00000000
,  // measure 47
00100000
00000000
00000000
00100000
00000000
00000000
10000000
00000000
00010000
00000000
00000000
00000000
00000000
00000000
00000000
00000000
,  // measure 48
00100000
01000000
00010000
00000000
10000000
10000000
00010000
00010000
,  // measure 49
00100000
10000000
00010000
00000000
01000000
01000000
00001000
00001000
,  // measure 50
00000100
00001000
00000001
00000000
00000100
00000100
00001000
00000001
,  // measure 51
00000100
00000001
00001000
00000000
00000001
00000001
00000010
00000100
,  // measure 52
00001000
00010000
00100000
00000000
10000000
10000000
00010000
00010000
,  // measure 53
00100000
10000000
00010000
00000000
01000000
00010000
00100000
10000000
,  // measure 54
00010000
01000000
00100000
00000000
10000000
00010000
01000000
00001000
,  // measure 55
00010000
00000100
00000100
00000000
00001000
00000001
00000100
00000000
,  // measure 56
00001010
00000000
00000100
00000000
00000001
00001000
00000100
00000000
,  // measure 57
00000010
00001000
00000100
00000001
00000010
00001000
00000100
00000001
,  // measure 58
00000100
00001001
00000000
00000000
;

//---------------dance-couple - ----------------
#NOTES:
     dance-couple:
     :
     Challenge:
     6:
     0.579,0.910,1.000,0.000,0.074:
00000000
00000000
00000000
00000000
,
00000000
00000000
00000000
00000000
,
00000000
00000000
00000000
00000000
,
00100000
10000000
01000000
00000000
00010000
00010000
10000000
01000000
,
00000010
00000001
00000100
00000000
00001000
00001000
00000001
00000100
,
00100010
00011000
00100010
00000000
10000001
10000001
00011000
01000100
,
00000000
00000000
01000000
00000100
,
01000000
00000100
01000000
00000100
,
00100000
00010010
00100000
10000010
,
01000000
00010010
00100000
10000010
,
01000000
00100010
00010000
01000010
,
00100000
00100010
00100000
10010010
,
00000010
00100001
00000010
00101000
,
00000100
00100001
00000010
00101000
,
00000100
00100010
00000001
00100100
,
00000010
00100010
00000010
00101001
,
00010010
10000000
00010000
00000000
01000000
00000000
00100000
00000000
,
10000010
00000000
00010000
00000000
01000000
00000000
00100000
10000000
,
00010010
01000000
00010000
10000000
,
00100010
00100000
00010000
01000000
,
00100001
00001000
00000001
00000000
00000100
00000000
00000010
00000000
,
00101000
00000000
00000001
00000000
00000100
00000000
00000010
00001000
,
00100001
00000100
00000001
00001000
,
00100010
00000010
00000001
00000100
,
00100010
10000000
01000000
00000000
00010000
00000000
10000000
00000000
,
00100010
10000000
00100000
00000000
00010000
00000000
01000000
00000000
,
00100010
10000000
01000000
00010000
,
01000010
00000000
00010000
00000000
00100000
00010000
00100000
00000000
,
01000010
00001000
00000100
00000000
00000001
00000000
00001000
00000000
,
01000010
00001000
00000010
00000000
00000001
00000000
00000100
00000000
,
01000010
00001000
00000100
00000001
,
01000100
00000000
00000001
00000000
00000010
00000001
00000010
00000000
,
01000100
00000000
00000000
00000000
,
00100000
00000000
00000000
00100000
00000000
00000000
00010000
00000000
10000000
00000000
00000000
00000000
00000000
00000000
00000000
00000000
,
00000010
00000000
00000000
00000010
00000000
00000000
00001000
00000000
00000001
00000000
00000000
00000000
00000000
00000000
00000000
00000000
,
00100000
00000000
00000000
00100000
00000000
00000000
00010000
00000000
10000000
00000000
00000000
00000000
00000000
00000000
00000000
00000000
,
00000010
00000000
00000000
00000010
00000000
00000000
00001000
00000000
00000001
00000000
00000000
00000000
00000000
00000000
00000000
00000000
,
10010001
01000000
10000000
01000000
,
00100001
00010000
01000000
10000000
,
00100001
00010000
10000000
00010000
,
01000001
01000000
01000000
10010000
,
10001001
00000100
00001000
00000100
,
10000010
00000001
00000100
00001000
,
10000010
00000001
00001000
00000001
,
10000100
00000100
00000100
00001001
,
00100000
00000000
00000000
00100000
00000000
00000000
10000000
00000000
00010000
00000000
00000000
00000000
00000000
00000000
00000000
00000000
,
00000010
00000000
00000000
00000010
00000000
00000000
00000001
00000000
00001000
00000000
00000000
00000000
00000000
00000000
00000000
00000000
,
00100010
01000100
00100010
00000000
00010001
10001000
00100010
10001000
,
00100010
00010001
00100010
00000000
10001000
00010001
10001000
00010001
,
01000100
00100010
01000100
00000000
00010001
00010001
10001000
10001000
,
00100010
01000100
00100010
00000000
10001000
00010001
10001000
00010001
,
01000100
00100010
01000100
00000000
10001000
10001000
00010001
10001000
,
00100010
01000100
00100010
00000000
10001000
10001000
00010001
10001000
,
00100010
01000100
00100010
00000000
10001000
00010001
01000100
00010001
,
01000100
00010001
10001000
00000000
00010001
10001000
00010001
00000000
,
10101010
00000000
01000100
00000000
00010001
10001000
00010001
00000000
,
00100000
00000000
00000000
00000000
00000000
00010000
00000000
00000000
00000000
00000000
10000000
00000000
00000000
00000000
00000000
00000000
00000100
00000000
00000000
00000000
00000000
00000010
00000000
00000000
00000000
00000000
00001000
00000000
00000000
00000000
00000000
00000000
10000000
00000000
00000000
00000000
00000000
01000000
00000000
00000000
00000000
00000000
00100000
00000000
00000000
00000000
00000000
00000000
00001000
00000000
00000000
00000000
00000000
00000001
00000000
00000000
00000000
00000000
00000100
00000000
00000000
00000000
00000000
00000000
,
00000000
10011001
00000000
00000000
;

//---------------dance-solo - ----------------
#NOTES:
     dance-solo:
     :
     Easy:
     4:
     0.345,0.395,0.244,0.000,0.000:
000000
000000
000000
000000
,
000000
000000
000000
000000
,
000000
000000
000000
000000
,
000001
000010
100000
010000
,
000001
000010
100000
010000
,
000001
000001
100000
100000
,
001000
001000
001000
001000
,
001000
001000
001000
001000
,
001100
000001
010000
100000
,
000001
100000
000100
001000
,
000010
000010
000001
001000
,
010000
010000
100000
001000
,
000010
000100
010000
001000
,
000010
000100
001100
100001
,
000100
000100
010000
000010
,
000100
000100
001001
101000
,
000010
010000
001000
000100
,
000010
010000
001000
000100
,
000011
000000
110000
000000
,
000100
001000
000100
001000
,
000010
010000
001000
000100
,
000010
010000
001000
000100
,
000101
000000
100100
000000
,
010010
001000
100001
001000
,
000001
000010
100000
010000
,
000001
000010
100000
010000
,
000001
000001
100000
100000
,
001000
001000
001000
001000
,
000001
000010
100000
010000
,
000001
000010
100000
010000
,
000001
000001
100000
100000
,
001000
001000
001000
001000
,
100001
000000
000000
000000
,
001000
000001
000010
000000
,
001000
100000
010000
000000
,
001000
000100
000010
000000
,
001000
000100
010000
000000
,
000010
000010
000010
000010
,
010000
010000
010000
010000
,
000100
000100
000100
000100
,
000100
001000
000100
001000
,
000010
000001
000010
100001
,
010000
100000
010000
100001
,
000010
010000
000010
010000
,
001100
100001
001100
100001
,
000100
000100
001010
000000
,
000100
000100
011000
000000
,
000001
000010
100000
010000
,
000001
000010
100000
010000
,
000001
000001
100000
100000
,
000010
001000
010000
001000
,
000001
000010
100000
010000
,
000010
000001
010000
100000
,
000001
001001
100000
101000
,
001000
000001
000010
000100
,
001000
100000
010000
000100
,
001000
000001
100000
000010
,
001000
010010
000000
000000
;

//---------------dance-solo - ----------------
#NOTES:
     dance-solo:
     :
     Medium:
     5:
     0.420,0.486,0.753,0.000,0.000:
000000
000000
000000
000000
,
000000
000000
000000
000000
,
000000
000000
000000
000000
,
000110
100000
001000
000001
,
010100
000001
001000
100000
,
000011
000000
110000
000000
,
010100
000001
000110
100000
,
010100
000001
000110
100000
,
000101
000000
001000
000000
000100
010000
001000
000000
,
010010
000000
000000
000000
001000
000100
100000
000000
,
000010
001000
010000
001000
,
001010
011000
000010
001000
,
100100
000000
100100
000000
000010
000001
000010
000000
,
000101
000000
000101
000000
010000
100000
010000
000000
,
001100
100010
010000
001100
,
000100
000000
000100
000000
000010
010000
000010
010000
,
000100
100000
100000
100000
,
000100
001000
000000
000001
000000
000001
000000
000100
,
001000
000000
001100
000000
,
000110
010100
001001
101000
,
000100
000001
000001
000001
,
000100
001000
000000
100000
000000
100000
000000
000100
,
001000
000000
100001
000000
,
000101
100100
001010
011000
,
000110
100000
001000
000001
,
010100
000001
001000
100000
,
000011
000000
110000
000000
,
000001
000010
000100
010000
,
000110
100000
001000
000001
,
010100
000001
001000
100000
,
000011
000000
110000
000000
,
100000
010000
000100
000010
,
100001
000000
000000
000000
,
001001
000000
001000
000010
001000
000000
000000
000000
,
101000
000000
001000
010000
001000
000000
000000
000000
,
001001
000000
001000
001000
000001
000000
000000
000000
,
101000
000000
001000
001000
100000
000000
000000
000000
,
010001
001000
000010
001000
,
100010
001000
010000
001000
,
000110
000000
010100
000000
,
100001
001000
100001
001000
,
000101
100100
000110
010100
,
000101
100100
000110
010100
,
000100
100100
001000
001001
,
001000
010000
000010
001000
,
000101
000000
000000
100000
000010
000000
000000
000000
,
000101
000000
000000
100000
000001
000000
000000
000000
,
000110
100000
001000
000001
,
010100
000001
001000
100000
,
000011
000000
110000
000000
,
000100
001001
101000
100001
,
000110
100000
001000
000001
,
010100
000001
001000
100000
,
000011
000000
000000
000000
110000
000000
000000
000010
,
010000
000000
001000
000000
001000
000000
001000
000010
,
010000
000000
001000
000000
001000
000000
001000
000010
,
010000
001000
001000
001000
,
000000
000100
000000
000000
;

//---------------dance-solo - ----------------
#NOTES:
     dance-solo:
     :
     Hard:
     7:
     0.524,0.516,0.954,0.000,0.032:
000000
000000
000000
000000
,
000000
000000
000000
000000
,
000000
000000
000000
000000
,
010000
000010
010000
000000
001100
000000
100001
000000
,
010000
000010
010000
000000
001100
000000
100001
000000
,
000110
101000
010100
001001
,
000001
000010
100000
010000
,
000001
001000
100000
001000
,
000100
000010
001000
000000
010000
010000
001000
000000
,
000101
000000
000000
000000
001100
001100
100001
000000
,
000010
000010
000010
000010
010000
000000
000010
000000
,
000100
000100
001000
001000
000100
000100
001000
001000
,
000010
000000
010000
000000
001000
001000
001001
000000
,
000001
000000
100000
000000
001000
001000
101000
000000
,
000100
000000
001000
000000
000001
000001
110000
000000
,
000100
000000
001000
000000
100000
100000
000011
000000
,
000110
010100
000000
000000
001000
000000
001000
000000
,
010100
000110
000000
001000
000000
001000
000000
000110
,
010100
000001
000001
000001
,
000101
001001
101000
100100
,
000110
100100
000000
000000
001000
000000
001000
000000
,
010100
000101
000000
001000
000000
001000
000000
000110
,
100100
010000
010000
010000
,
100100
101000
001001
000101
,
010000
000010
010000
000000
001100
000000
100001
000000
,
010000
000010
010000
000000
001100
000000
100001
000000
,
000110
101000
010100
001001
,
000010
000010
010000
000000
000001
000001
100000
000000
,
010000
000010
010000
000000
001100
000000
100001
000000
,
010000
000010
010000
000000
001100
000000
100001
000000
,
000110
101000
010100
001001
,
000010
000100
010000
000000
000001
001000
100000
000000
,
010010
000000
000000
000000
,
000100
000000
000000
001000
000000
000000
000101
000000
000110
000000
000000
000000
000000
000000
000000
000000
,
000100
000000
000000
001000
000000
000000
100100
000000
010100
000000
000000
000000
000000
000000
000000
000000
,
001000
000000
000000
000100
000000
000000
001001
000000
001010
000000
000000
000000
000000
000000
000000
000000
,
001000
000000
000000
000100
000000
000000
101000
000000
011000
000000
000000
000000
000000
000000
000000
000000
,
000100
000000
000100
000000
000010
000001
000010
000000
,
000100
000000
000100
000000
010000
100000
010000
000000
,
000010
000001
010000
100000
,
000100
000100
100010
010001
,
001000
000000
010000
000000
001000
010000
001000
000000
,
000100
000000
000010
000000
000100
000010
000100
000000
,
010000
010000
010000
000000
000010
000010
000010
000000
,
001000
000010
000100
010000
,
000110
000000
000000
000110
000000
000000
100000
000000
001000
000000
000000
000000
000000
000000
000000
000000
,
010100
000000
000000
010100
000000
000000
000001
000000
001000
000000
000000
000000
000000
000000
000000
000000
,
010000
000010
010000
000000
001100
000000
100001
000000
,
010000
000010
010000
000000
001100
000000
100001
000000
,
000110
101000
010100
001001
,
000010
000100
010000
000000
000001
001000
100000
000000
,
010000
000010
010000
000000
001100
000000
100001
000000
,
010000
000010
010000
000000
001100
000000
100001
000000
,
000110
000000
101000
000000
010100
000000
001001
000010
,
000010
000000
100100
000000
000101
000000
100100
010000
,
010000
000000
000101
000000
100100
000000
000101
000010
,
000010
001000
000100
001000
000100
001000
000100
000000
,
000000
100001
000000
000000
;

//---------------dance-single - Extreme US Mission M----------------
#NOTES:
     dance-single:
     Extreme US Mission M:
     Challenge:
     8:
     0.612,0.607,0.869,0.233,0.074:
0000
0000
0000
0000
,
0000
0000
0000
0000
,
0000
0000
0000
0000
,
1001
0100
0010
0000
0001
0001
0100
0100
,
0110
0001
0100
0000
1000
1000
0001
0001
,
0110
1000
0010
0000
0001
0001
1000
1000
,
0110
0000
0100
0100
,
0100
0100
0100
0100
,
0010
0010
0001
0001
1000
1000
0100
0100
,
1000
0000
1001
0000
0010
1000
1010
0000
,
1000
0010
1000
0100
1000
0000
0110
0000
,
0010
0000
0110
0000
0100
0001
0101
0000
,
0010
0010
1000
1000
0001
0001
0100
0100
,
0001
0000
1001
0000
0010
0001
0011
0000
,
0001
0010
0001
0100
0001
0000
0110
0000
,
0010
0000
0010
0000
0100
0001
0100
0001
,
1001
1001
0100
0000
0110
0000
0000
0010
,
1001
0000
0000
1100
0000
0011
0000
1000
,
1100
1000
0011
1100
,
0010
1000
0010
1000
1001
0100
1000
0000
,
1001
1001
0100
0000
0110
0000
0000
0010
,
1001
0000
0000
0101
0000
1010
0000
0001
,
0101
0100
0010
0100
0011
0010
1000
0000
,
0001
1000
0001
0100
0110
0001
1000
0001
,
2002
0000
3003
0000
0001
1000
0010
1010
,
0010
0001
0010
0000
1001
1000
0001
1000
,
0220
0000
0330
0000
0001
0001
1001
1000
,
1010
0100
0010
0000
0001
1000
1010
1000
,
2020
0000
3030
0000
1000
1000
0001
1100
,
1000
0100
0010
0000
0011
1000
0100
1000
,
2200
0000
3300
0000
0010
0010
0011
1000
,
1100
0100
0010
0000
1000
1000
1001
0001
,
0220
0000
0000
0330
,
0010
0000
0000
0010
0000
0000
0001
0000
1000
0000
0000
0000
0000
0000
0000
0000
,
0010
0000
0000
0010
0000
0000
1000
0000
0001
0000
0000
0000
0000
0000
0000
0000
,
0010
0000
0000
0011
0000
0000
1001
0000
0101
0000
0000
0000
0000
0000
0000
0000
,
0010
0000
0000
1010
0000
0000
1001
0000
1100
0000
0000
0000
0000
0000
0000
0000
,
1010
0000
0100
0000
0001
0000
1000
0001
,
0101
0000
0000
0011
0000
1100
0000
1010
,
0101
0100
0001
1000
,
0010
0010
0110
1001
,
0011
0000
0100
0000
0010
0000
1000
0010
,
0011
0000
0000
1010
0000
0101
0000
0011
,
0001
0100
0001
1000
0010
1000
1010
0000
,
0010
0001
1001
0100
0010
0001
0101
0000
,
0010
0000
0000
0010
0000
0000
1000
0000
0001
0000
0000
0000
0000
0000
0000
0000
,
0010
0000
0000
0010
0000
0000
0001
0000
1000
0000
1000
0000
0001
0000
1000
0000
,
2002
0000
3003
0000
0001
1000
0010
1010
,
0010
0001
0010
0000
1001
1000
0001
1000
,
0220
0000
0330
0000
0001
0001
1001
1000
,
1010
0100
0010
0000
0001
1000
1010
1000
,
2020
0000
3030
0000
1000
1000
0001
1100
,
1000
0100
0010
0000
0011
1000
0100
1000
,
2200
0000
3300
0000
0010
0010
0001
1000
,
2002
0000
3003
0000
0010
0010
0100
0010
,
0220
0000
0330
0000
0001
1000
0001
0000
,
0010
0001
0100
0010
1000
0100
0010
0001
0100
0010
1000
0100
,
0000
1001
0000
0000
;

//---------------dance-double - Edit by silenttype01----------------
#NOTES:
     dance-double:
     Edit by silenttype01:
     Challenge:
     9:
     0.629,0.698,0.413,0.011,0.292: // measure 1
00000000
00000000
00000000
00000000
,  // measure 2
00000000
00000000
00000000
00000000
,  // measure 3
00000000
00000000
00000000
00000000
,  // measure 4
00000010
00000100
00001000
00000000
00000001
00000001
00000100
00000100
,  // measure 5
00001000
00000001
00001000
00000000
00000100
00000100
00010000
00010000
,  // measure 6
01000000
00010000
10000000
00000000
01000000
01000000
00010000
10000000
,  // measure 7
00100000
00100000
00100000
00100000
,  // measure 8
00100000
00100000
00100000
00100000
,  // measure 9
00010000
10000000
01000000
00100000
01000000
10000000
00010000
00100000
,  // measure 10
00001000
00010000
01000000
00100000
01000000
00001000
00000100
00000100
,  // measure 11
00000100
00001000
00000001
00000010
00000100
00000010
00000001
00001000
,  // measure 12
00000100
00000000
00000000
00000000
00000000
00001000
00000000
00000000
00000100
00000000
00000000
00000000
00000000
00001000
00000000
00000000
00000100
00000000
00000000
00000000
00000000
00001000
00000000
00000000
00000100
00000000
00000000
00000000
00000000
00001000
00000000
00000000
00000100
00000000
00000000
00000000
00000000
00000000
00000000
00000000
00000010
00000000
00000000
00000000
00000000
00000001
00000000
00000000
00000010
00000000
00000000
00000000
00000000
00000000
00000000
00000000
00000100
00000000
00000000
00000000
00000000
00000000
00000000
00000000
,  // measure 13
00001001
00000100
00000010
00000001
00000100
00001000
00000100
00000001
,  // measure 14
00000100
00000010
00001000
00000001
00000100
00010000
01000000
01000000
,  // measure 15
01000000
00100000
00010000
00100000
10000000
00010000
01000000
00001000
,  // measure 16
00010000
00000000
00000000
00000000
00000000
00000000
00000000
00000000
01000000
00000000
00000000
00000000
00000000
00000000
00000000
00000000
10000000
00000000
00000000
00000000
00000000
00000000
00000000
00000000
00100000
00000000
00000000
00000000
00000000
00000000
00000000
00000000
00010000
00000000
00000000
00000000
00000000
00001000
00000000
00000000
00010000
00000000
00000000
00000000
00000000
00001000
00000000
00000000
00010000
00000000
00000000
00000000
00000000
00000000
00000000
00000000
00001000
00000000
00000000
00000000
00000000
00000000
00000000
00000000
,  // measure 17
00000110
00000110
00000001
00000000
00000110
00000000
00000000
00000010
,  // measure 18
00001001
00000000
00000000
00001010
00000000
00000101
00000000
00001001
,  // measure 19
00000100
00000010
00001000
00000010
00000001
00001000
00000100
00010000
,  // measure 20
00001000
00000000
00000000
00000000
00000000
00010000
00000000
00000000
00001000
00000000
00000000
00000000
00000000
00010000
00000000
00000000
00001000
00000000
00000000
00000000
00000000
00010000
00000000
00000000
00001000
00000000
00000000
00000000
00000000
00010000
00000000
00000000
00001000
00000000
00000000
00000000
00000000
00000000
00000000
00000000
00100000
00000000
00000000
00000000
00000000
00001000
00000000
00000000
00100000
00000000
00000000
00000000
00000000
00000000
00000000
00000000
00010000
00000000
00000000
00000000
00000000
00000000
00000000
00000000
,  // measure 21
01100000
01100000
10000000
00000000
01100000
00000000
00000000
00100000
,  // measure 22
10010000
00000000
00000000
00110000
00000000
11000000
00000000
10010000
,  // measure 23
01000000
00100000
01000000
00010000
00001000
00010000
01000000
00100000
,  // measure 24
01000000
00000000
00000000
00000000
00000000
00000000
00000000
00000000
10000000
00000000
00000000
00000000
00000000
00000000
00000000
00000000
00010000
00000000
00000000
00000000
00000000
00000000
00000000
00000000
01000000
00000000
00000000
00000000
00000000
00000000
00000000
00000000
00100000
00000000
00000000
00000000
00000000
00000000
00000000
00000000
00000000
00000000
00000000
00000000
00000000
01000000
00000000
00000000
00100000
00000000
00000000
00000000
00000000
00000000
00000000
00000000
01100000
00000000
00000000
00000000
00000000
00000000
00000000
00000000
,  // measure 25
10010000
01000000
00010000
00000000
10000000
10000000
00010000
00010000
,  // measure 26
00100000
10000000
00010000
00000000
01000000
01000000
00001000
00001000
,  // measure 27
00000100
00001000
00000001
00000000
00000100
00000100
00001000
00000001
,  // measure 28
00000100
00000001
00001000
00000000
00000001
00000001
00000010
00000100
,  // measure 29
00001000
00010000
00100000
00000000
10000000
10000000
00010000
00010000
,  // measure 30
00100000
10000000
00010000
00000000
01000000
01000000
00010000
00010000
,  // measure 31
00001000
01000000
00100000
00000000
10000000
10000000
00010000
01000000
,  // measure 32
00010000
00000100
00000100
00000000
00000001
00001000
00000100
00000100
,  // measure 33
00000020
00000000
00000000
00000000
,  // measure 34
00000100
00000000
00000000
00000100
00000000
00000000
00000100
00000000
00000100
00000000
00000000
00000000
00000000
00000000
00000000
00000000
,  // measure 35
00000100
00000000
00000000
00000100
00000000
00000000
00000100
00000000
00000130
00000000
00000000
00000000
00000000
00000000
00000000
00000000
,  // measure 36
00000010
00000000
00000000
00000011
00000000
00000000
00001001
00000000
00000101
00000000
00000000
00000000
00000000
00000000
00000000
00000000
,  // measure 37
00000010
00000000
00000000
00001010
00000000
00000000
00001001
00000000
00001100
00000000
00000000
00000000
00000000
00000000
00000000
00000000
,  // measure 38
00000110
00000000
00000000
00000000
00000000
00000000
00000000
00000010
,  // measure 39
00001001
00000000
00000000
00001010
00000000
00000101
00000000
00001001
,  // measure 40
00000100
00000000
00000000
00000000
,  // measure 41
00000000
00000000
00000000
00000000
00000000
00000000
00001000
00001000
,  // measure 42
00001000
00100000
00010000
01000000
00001000
00010000
00000010
00001000
,  // measure 43
00000100
00010000
00001000
00100000
00010000
01000000
00001000
00001000
,  // measure 44
00001000
00000000
00000000
00000000
00000000
00000000
00000000
00000000
01000000
00000000
00000000
00000000
00000000
00010000
00000000
00000000
01000000
00000000
00000000
00000000
00000000
00000000
00000000
00000000
00100000
00000000
00000000
00000000
00000000
10000000
00000000
00000000
01000000
00000000
00000000
00000000
00000000
10000000
00000000
00000000
01000000
00000000
00000000
00000000
00000000
00100000
00000000
00000000
00010000
00000000
00000000
00000000
00000000
00000000
00000000
00000000
10000000
00000000
00000000
00000000
00000000
00000000
00000000
00000000
,  // measure 45
01000000
00000000
00000000
00000000
00000000
00000000
00000000
00000000
00100000
00000000
00000000
00000000
00000000
00010000
00000000
00000000
10000000
00000000
00000000
00000000
00000000
00000000
00000000
00000000
01000000
00000000
00000000
00000000
00000000
00000000
00000000
00000000
10010000
00000000
00000000
00000000
00000000
00000000
00000000
00000000
10010000
00000000
00000000
00000000
00000000
00000000
00000000
00000000
10010000
00000000
00000000
00000000
00000000
00000000
00000000
00000000
00100000
00000000
00000000
00000000
00000000
00000000
00000000
00000000
,  // measure 46
01100000
00000000
00000000
01100000
00000000
00000000
00010000
00000000
10000000
00000000
00000000
00000000
00000000
00000000
00000000
00000000
,  // measure 47
01100000
00000000
00000000
01100000
00000000
00000000
10000000
00000000
00010000
00000000
10010000
00000000
10000000
00000000
11000000
00000000
,  // measure 48
01000000
00000000
10000000
00000000
00010000
00000000
10000000
00000000
00000000
00100000
00000000
00100000
10000000
00000000
01000000
00000000
,  // measure 49
10000000
00000000
00010000
00000000
10000000
00000000
00100000
00000000
00000000
01000000
00000000
01000000
00001000
00000000
00000100
00000000
,  // measure 50
00000010
00000000
00001000
00000000
00000001
00000000
00000100
00000000
00000000
00000010
00000000
00000010
00000001
00000000
00001000
00000000
,  // measure 51
00000100
00000000
00000000
00000000
00000000
00001000
00000000
00000000
00000100
00000000
00000000
00000000
00000000
00001000
00000000
00000000
00000100
00000000
00000000
00000000
00000000
00000010
00000000
00000000
00000100
00000000
00000000
00000000
00000000
00000010
00000000
00000000
00000100
00000000
00000000
00000000
00000000
00000000
00000000
00000000
00000001
00000000
00000000
00000000
00000000
00000100
00000000
00000000
00000001
00000000
00000000
00000000
00000000
00000000
00000000
00000000
00001000
00000000
00000000
00000000
00000000
00000000
00000000
00000000
,  // measure 52
00000100
00000000
00010000
00000000
00000010
00000000
00001000
00000000
00000000
00000100
00000000
00000100
00010000
00000000
01000000
00000000
,  // measure 53
10000000
00000000
10000000
00000000
01000000
00000000
00010000
00000000
00000000
01000000
00000000
01000000
10000000
00000000
01000000
00000000
,  // measure 54
00100000
00000000
00001000
00000000
00001000
00000000
00010000
00000000
00000000
01000000
00000000
01000000
00010000
00000000
00001000
00000000
,  // measure 55
00011000
00000000
00001000
00000000
00000100
00000000
00000100
00000000
00000000
00000001
00000000
00000001
00000010
00000000
00000100
00000000
,  // measure 56
00001000
00000000
00000000
00001000
00000010
00000000
00000000
00000010
00000001
00000000
00000000
00000001
00000010
00000000
00000000
00000010
,  // measure 57
00001000
00000100
00000010
00000001
00000100
00000010
00001000
00010000
01000000
00100000
10000000
00010000
,  // measure 58
00000000
01100000
00000000
00000000
;

//---------------dance-double - Edit by silenttype01----------------
#NOTES:
     dance-double:
     Edit by silenttype01:
     Edit:
     9:
     0.606,0.698,0.392,0.011,0.292:
00000000
00000000
00000000
00000000
,
00000000
00000000
00000000
00000000
,
00000000
00000000
00000000
00000000
,
MMMMMMMM
00000100
00001000
00000000
00000001
00000001
00000100
00000100
,
00001000
00000001
00001000
00000000
00000100
00000100
00010000
00010000
,
MMMMMMMM
00010000
10000000
00000000
01000000
01000000
00010000
10000000
,
00100000
00100000
00100000
00100000
,
00100000
00100000
00100000
00100000
,
00010000
10000000
01000000
00100000
01000000
10000000
00010000
00100000
,
00001000
00010000
01000000
00100000
01000000
00001000
00000100
00000100
,
00000100
00001000
00000001
00000010
00000100
00000010
00000001
00001000
,
00000100
00000000
00000000
00000000
00000000
00001000
00000000
00000000
00000100
00000000
00000000
00000000
00000000
00001000
00000000
00000000
00000100
00000000
00000000
00000000
00000000
00001000
00000000
00000000
00000100
00000000
00000000
00000000
00000000
00001000
00000000
00000000
00000100
00000000
00000000
00000000
00000000
00000000
00000000
00000000
00000010
00000000
00000000
00000000
00000000
00000001
00000000
00000000
00000010
00000000
00000000
00000000
00000000
00000000
00000000
00000000
00000100
00000000
00000000
00000000
00000000
00000000
00000000
00000000
,
00001001
00000100
00000010
00000001
00000100
00001000
00000100
00000001
,
00000100
00000010
00001000
00000001
00000100
00010000
01000000
01000000
,
01000000
00100000
00010000
00100000
10000000
00010000
01000000
00001000
,
00010000
00000000
00000000
00000000
00000000
00000000
00000000
00000000
01000000
00000000
00000000
00000000
00000000
00000000
00000000
00000000
10000000
00000000
00000000
00000000
00000000
00000000
00000000
00000000
00100000
00000000
00000000
00000000
00000000
00000000
00000000
00000000
00010000
00000000
00000000
00000000
00000000
00001000
00000000
00000000
00010000
00000000
00000000
00000000
00000000
00001000
00000000
00000000
00010000
00000000
00000000
00000000
00000000
00000000
00000000
00000000
00001000
00000000
00000000
00000000
00000000
00000000
00000000
00000000
,
00000110
00000110
00000001
00000000
00000110
00000000
00000000
00000010
,
00001001
00000000
00000000
00001010
00000000
00000101
00000000
00001001
,
00000100
00000010
00001000
00000010
00000001
00001000
00000100
00010000
,
00001000
00000000
00000000
00000000
00000000
00010000
00000000
00000000
00001000
00000000
00000000
00000000
00000000
00010000
00000000
00000000
00001000
00000000
00000000
00000000
00000000
00010000
00000000
00000000
00001000
00000000
00000000
00000000
00000000
00010000
00000000
00000000
00001000
00000000
00000000
00000000
00000000
00000000
00000000
00000000
00100000
00000000
00000000
00000000
00000000
00001000
00000000
00000000
00100000
00000000
00000000
00000000
00000000
00000000
00000000
00000000
00010000
00000000
00000000
00000000
00000000
00000000
00000000
00000000
,
01100000
01100000
10000000
00000000
01100000
00000000
00000000
00100000
,
10010000
00000000
00000000
00110000
00000000
11000000
00000000
10010000
,
01000000
00100000
01000000
00010000
00001000
00010000
01000000
00100000
,
01000000
00000000
00000000
00000000
00000000
00000000
00000000
00000000
10000000
00000000
00000000
00000000
00000000
00000000
00000000
00000000
00010000
00000000
00000000
00000000
00000000
00000000
00000000
00000000
01000000
00000000
00000000
00000000
00000000
00000000
00000000
00000000
00100000
00000000
00000000
00000000
00000000
00000000
00000000
00000000
00000000
00000000
00000000
00000000
00000000
01000000
00000000
00000000
00100000
00000000
00000000
00000000
00000000
00000000
00000000
00000000
01100000
00000000
00000000
00000000
00000000
00000000
00000000
00000000
,
MMMMMMMM
01000000
00010000
00000000
10000000
10000000
00010000
00010000
,
00100000
10000000
00010000
00000000
01000000
01000000
00001000
00001000
,
MMMMMMMM
00001000
00000001
00000000
00000100
00000100
00001000
00000001
,
00000100
00000001
00001000
00000000
00000001
00000001
00000010
00000100
,
MMMMMMMM
00010000
00100000
00000000
10000000
10000000
00010000
00010000
,
00100000
10000000
00010000
00000000
01000000
01000000
00010000
00010000
,
MMMMMMMM
01000000
00100000
00000000
10000000
10000000
00010000
01000000
,
00010000
00000100
00000100
00000000
00000001
00001000
00000100
00000100
,
00000020
00000000
00000000
00000000
,
00000100
00000000
00000000
00000100
00000000
00000000
00000100
00000000
00000100
00000000
00000000
00000000
00000000
00000000
00000000
00000000
,
00000100
00000000
00000000
00000100
00000000
00000000
00000100
00000000
00000130
00000000
00000000
00000000
00000000
00000000
00000000
00000000
,
00000010
00000000
00000000
00000011
00000000
00000000
00001001
00000000
00000101
00000000
00000000
00000000
00000000
00000000
00000000
00000000
,
00000010
00000000
00000000
00001010
00000000
00000000
00001001
00000000
00001100
00000000
00000000
00000000
00000000
00000000
00000000
00000000
,
00000110
00000000
00000000
00000000
00000000
00000000
00000000
00000010
,
00001001
00000000
00000000
00001010
00000000
00000101
00000000
00001001
,
00000100
00000000
00000000
00000000
,
00000000
00000000
00000000
00000000
00000000
00000000
00001000
00001000
,
00001000
00100000
00010000
01000000
00001000
00010000
00000010
00001000
,
00000100
00010000
00001000
00100000
00010000
01000000
00001000
00001000
,
00001000
00000000
00000000
00000000
00000000
00000000
00000000
00000000
01000000
00000000
00000000
00000000
00000000
00010000
00000000
00000000
01000000
00000000
00000000
00000000
00000000
00000000
00000000
00000000
00100000
00000000
00000000
00000000
00000000
10000000
00000000
00000000
01000000
00000000
00000000
00000000
00000000
10000000
00000000
00000000
01000000
00000000
00000000
00000000
00000000
00100000
00000000
00000000
00010000
00000000
00000000
00000000
00000000
00000000
00000000
00000000
10000000
00000000
00000000
00000000
00000000
00000000
00000000
00000000
,
01000000
00000000
00000000
00000000
00000000
00000000
00000000
00000000
00100000
00000000
00000000
00000000
00000000
00010000
00000000
00000000
10000000
00000000
00000000
00000000
00000000
00000000
00000000
00000000
01000000
00000000
00000000
00000000
00000000
00000000
00000000
00000000
10010000
00000000
00000000
00000000
00000000
00000000
00000000
00000000
10010000
00000000
00000000
00000000
00000000
00000000
00000000
00000000
10010000
00000000
00000000
00000000
00000000
00000000
00000000
00000000
00100000
00000000
00000000
00000000
00000000
00000000
00000000
00000000
,
01100000
00000000
00000000
01100000
00000000
00000000
00010000
00000000
10000000
00000000
00000000
00000000
00000000
00000000
00000000
00000000
,
01100000
00000000
00000000
01100000
00000000
00000000
10000000
00000000
00010000
00000000
10010000
00000000
10000000
00000000
11000000
00000000
,
MMMMMMMM
00000000
10000000
00000000
00010000
00000000
10000000
00000000
00000000
00100000
00000000
00100000
10000000
00000000
01000000
00000000
,
10000000
00000000
00010000
00000000
10000000
00000000
00100000
00000000
00000000
01000000
00000000
01000000
00001000
00000000
00000100
00000000
,
MMMMMMMM
00000000
00001000
00000000
00000001
00000000
00000100
00000000
00000000
00000010
00000000
00000010
00000001
00000000
00001000
00000000
,
00000100
00000000
00000000
00000000
00000000
00001000
00000000
00000000
00000100
00000000
00000000
00000000
00000000
00001000
00000000
00000000
00000100
00000000
00000000
00000000
00000000
00000010
00000000
00000000
00000100
00000000
00000000
00000000
00000000
00000010
00000000
00000000
00000100
00000000
00000000
00000000
00000000
00000000
00000000
00000000
00000001
00000000
00000000
00000000
00000000
00000100
00000000
00000000
00000001
00000000
00000000
00000000
00000000
00000000
00000000
00000000
00001000
00000000
00000000
00000000
00000000
00000000
00000000
00000000
,
MMMMMMMM
00000000
00010000
00000000
00000010
00000000
00001000
00000000
00000000
00000100
00000000
00000100
00010000
00000000
01000000
00000000
,
10000000
00000000
10000000
00000000
01000000
00000000
00010000
00000000
00000000
01000000
00000000
01000000
10000000
00000000
01000000
00000000
,
MMMMMMMM
00000000
00001000
00000000
00001000
00000000
00010000
00000000
00000000
01000000
00000000
01000000
00010000
00000000
00001000
00000000
,
MMMMMMMM
00000000
00001000
00000000
00000100
00000000
00000100
00000000
00000000
00000001
00000000
00000001
00000010
00000000
00000100
00000000
,
MMMMMMMM
00000000
00000000
00001000
00000010
00000000
00000000
00000010
00000001
00000000
00000000
00000001
00000010
00000000
00000000
00000010
,
MMMMMMMM
00000100
00000010
00000001
00000100
00000010
00001000
00010000
01000000
00100000
10000000
00010000
,
00000000
01100000
00000000
00000000
;
