#TITLE:DRILL INSTRUCTOR;
#SUBTITLE:(C-Jah Happy Mix);
#ARTIST:CAPTAIN JACK;
#TITLETRANSLIT:;
#SUBTITLETRANSLIT:;
#ARTISTTRANSLIT:;
#CREDIT:;
#BANNER:DRILL INSTRUCTOR (C-Jah Happy Mix).png;
#BACKGROUND:DRILL INSTRUCTOR (C-Jah Happy Mix)-bg.png;
#LYRICSPATH:;
#CDTITLE:DanceDanceRevolutionSolo2000.png;
#MUSIC:DRILL INSTRUCTOR (C-Jah Happy Mix).ogg;
#OFFSET:0.000;
#SAMPLESTART:60.000;
#SAMPLELENGTH:15.000;
#SELECTABLE:YES;
#DISPLAYBPM:170.000;
#BPMS:0.000=170.000;
#STOPS:;
#BGCHANGES:;

//---------------dance-single - ----------------
#NOTES:
     dance-single:
     :
     Easy:
     3:
     0.244,0.378,0.207,0.000,0.000:
0000
0000
0000
0000
,
0000
0000
0000
0000
,
0000
0000
0000
0000
,
0000
0000
0000
0000
,
0000
0000
0000
0000
,
0000
0000
0000
0000
,
0000
0000
0100
0000
,
1000
0000
0100
0000
,
1000
0000
0100
0000
,
1000
0000
0100
0010
,
0100
0000
0001
0000
,
0100
0000
0001
0000
,
0100
0000
0001
0000
,
1000
0000
0001
1000
,
0001
0000
0000
0000
,
0000
0000
0000
0000
,
0110
0000
1001
0000
,
0110
0000
0000
0000
,
1000
0010
0100
0001
,
1000
0100
0010
0000
,
0001
0000
1000
0000
,
1000
0000
0001
0000
,
0001
0010
0100
1000
,
0001
0100
0010
0000
,
1000
0000
0001
0000
,
0001
0000
1000
0000
,
1000
0100
0010
0001
,
1000
0100
0010
0000
,
0001
0000
1000
0000
,
0010
0000
0100
0000
,
0001
0100
0010
1000
,
0001
0100
0010
0000
,
1000
0000
0001
0000
,
0010
0000
0100
0000
,
0110
1001
0110
0000
,
1000
0000
0100
0000
,
1001
0110
1001
0000
,
0001
0000
0100
0000
,
0110
1001
1001
0000
,
0010
1000
0100
0001
,
1000
0000
0001
0000
0000
0100
0010
0000
,
0100
0000
0010
0000
0000
1000
0001
0000
,
0000
0000
0100
0000
,
1000
0000
0100
0000
,
1000
0000
0100
0000
,
0001
0000
0100
0000
,
0001
0000
0100
0010
,
1001
0000
0010
0000
,
0001
0000
0010
0000
,
1000
0000
0010
0000
,
0001
0000
0100
0010
,
1001
0000
1000
0000
,
0100
0000
1000
0000
,
0010
0000
0001
0000
,
0100
0000
0001
0000
,
0000
0000
0100
0010
,
1001
0000
1000
0000
,
0010
0000
0001
0000
,
0010
0000
1000
0000
,
1001
0000
0110
0000
,
1001
0000
0110
0000
,
0001
0010
0001
0010
,
0100
0010
1000
0010
,
1000
0000
0000
0000
;

//---------------dance-single - ----------------
#NOTES:
     dance-single:
     :
     Medium:
     4:
     0.279,0.378,0.218,0.000,0.000:
0000
0000
0000
0000
,
0000
0000
0000
0000
,
0000
0000
0000
0000
,
0000
0000
0000
0000
,
0000
0000
0000
0000
,
0000
0000
0000
0000
,
0000
0000
0100
1000
,
0100
1000
0100
1000
,
0001
0000
0000
0100
,
0001
0100
0001
0100
,
1000
0000
0100
0011
,
1100
0000
0000
0100
,
1000
0100
0010
0100
,
1000
0100
0001
1000
,
1001
0000
0000
0000
,
0000
0000
0000
0000
,
0011
0000
0010
0000
,
1010
0000
0000
0000
,
0001
0000
1010
0000
,
0001
0000
1000
0100
0000
0000
0000
0000
,
1000
0000
0001
0000
,
0001
0000
1000
0000
,
0001
0000
1100
0000
,
0001
0000
1000
0100
1000
0000
0000
0000
,
0001
0000
1000
0000
,
1000
0000
0001
0000
,
1000
0000
0011
0000
,
1000
0000
0001
0100
0000
0000
0000
0000
,
0100
0000
0010
0000
,
0010
0000
0100
0000
,
1000
0000
0101
0000
,
1000
0000
0001
0100
0001
0000
0000
0000
,
0010
0000
0100
0000
,
0100
0000
0010
0000
,
1000
0010
0100
0000
,
1000
0000
0010
0000
,
0001
0010
0100
0000
,
0001
0000
0010
0000
,
1000
0100
0001
0000
,
1000
0010
0001
0100
,
1000
0000
0010
0000
0000
0001
0100
0000
,
1000
0000
0010
0000
0000
0001
1000
0000
,
0000
0000
0100
1000
,
0100
1000
0100
1000
,
0011
0000
0000
0100
,
0001
0100
0001
0100
,
1000
0100
1000
0100
,
1001
0000
0100
1000
,
0100
1000
0100
1000
,
0011
0000
0000
0100
,
0001
0100
0001
0100
,
1001
0000
0001
1010
,
0101
0000
0000
0100
,
0001
0100
0010
0100
,
0001
0100
0010
0000
,
0000
0000
1000
0011
,
1100
0000
0000
0100
,
1000
0100
0010
0100
,
1000
0100
1001
0101
,
1100
0000
0000
0010
0001
0000
0000
0000
,
0100
0000
0000
0000
0001
0000
0000
0100
,
0010
0000
0000
0100
0010
0000
0000
0000
,
0001
0010
1000
0010
,
0100
0000
0000
0000
;

//---------------dance-single - ----------------
#NOTES:
     dance-single:
     :
     Hard:
     6:
     0.458,0.549,0.708,0.000,0.000:
0000
0000
0000
0000
,
0000
0000
0000
0000
,
0000
0000
0000
0000
,
0000
0000
0000
0000
,
0000
0000
0000
0000
,
0000
0000
0000
0000
,
0000
0000
1100
0010
,
0001
0000
0010
0000
1000
0000
1000
0001
,
0100
0000
0000
0000
0000
0000
1000
0100
,
1000
0000
0010
0000
1000
0000
1000
0001
,
0010
0000
0000
0000
1000
0000
0001
0010
,
0100
0000
0000
0000
0000
0000
1000
0100
,
1000
0010
0001
0010
,
1000
0000
0011
0000
1100
0000
1000
0100
,
1000
0000
0000
0000
1000
0000
0000
0001
,
0000
0010
0000
0100
0000
0010
0000
0000
,
0101
0011
1010
1100
,
1001
0000
0000
0000
,
1010
0000
0101
0000
1000
0001
0100
0000
,
0010
0000
1000
0001
0100
0000
0000
0000
,
0001
0100
1000
0010
,
0100
0010
1001
0000
,
1100
1010
1100
1010
,
1100
0000
1000
0001
0100
0000
0000
0000
,
1000
0100
0001
0010
,
0100
0010
1001
0000
,
1010
0000
0101
0000
1000
0001
0100
0000
,
0010
0000
1000
0001
0100
0000
0000
0000
,
0101
1100
1010
0011
,
0101
1100
1001
0000
,
0101
0011
0101
0011
,
0101
0000
0001
1000
0100
0000
0000
0000
,
1100
0101
0011
1010
,
1100
0101
1001
0100
,
1000
0010
0100
0001
1000
0000
0000
0000
,
0011
1010
0100
0000
,
0001
0010
0100
1000
0001
0000
0000
0000
,
1010
0011
0100
0000
,
1000
0010
0100
0001
1000
0000
0000
0000
,
1010
0001
0011
1000
,
0011
0000
1000
0000
0000
0001
0010
0000
,
1010
0000
0001
0000
0000
1000
0010
0000
,
0000
0000
1100
0010
,
0001
0000
0010
0000
1000
0000
0001
0100
,
1000
0000
0000
0000
0000
0000
1000
0010
,
1000
0000
0001
0010
0001
0000
1000
0100
,
1000
0000
0001
0100
0001
0000
1000
0001
,
0100
0000
1100
0010
,
0001
0000
0010
0000
1000
0000
0001
0100
,
1000
0000
0000
0000
0000
0000
1000
0100
,
1000
0000
0010
0000
1000
0000
0001
0100
,
1000
0000
0011
1100
,
0011
0000
0000
0000
0000
0000
1000
0100
,
1000
1000
0100
0001
0100
0100
0001
1000
,
0010
0010
0000
0100
0010
0000
0000
0000
,
0000
0000
1100
0011
,
1100
0000
0000
0000
0000
0000
1000
0100
,
1000
1000
0100
0001
0100
0100
0001
1000
,
0001
1100
0011
0101
,
1010
0000
0000
1000
0010
0000
0000
1010
,
0000
0011
0000
1010
0000
0011
0000
1000
,
0010
0000
0000
0001
0010
0000
0000
1100
,
0000
0011
0000
0110
0000
1000
0010
1000
,
0010
0000
0000
0000
;

//---------------dance-solo - ----------------
#NOTES:
     dance-solo:
     :
     Easy:
     3:
     0.244,0.378,0.207,0.000,0.000:
000000
000000
000000
000000
,
000000
000000
000000
000000
,
000000
000000
000000
000000
,
000000
000000
000000
000000
,
000000
000000
000000
000000
,
000000
000000
000000
000000
,
000000
000000
001000
000000
,
100000
000000
001000
000000
,
100000
000000
001000
000000
,
100000
000000
001000
000100
,
001000
000000
000001
000000
,
001000
000000
000001
000000
,
001000
000000
000001
000000
,
010000
000000
000010
100000
,
000001
000000
000000
000000
,
000000
000000
000000
000000
,
001100
000000
100001
000000
,
010010
000000
000000
000000
,
100000
000100
001000
000001
,
100000
001000
000100
000000
,
000001
000000
100000
000000
,
100000
000000
000001
000000
,
000001
000100
001000
100000
,
000001
001000
000100
000000
,
100000
000000
000001
000000
,
000001
000000
100000
000000
,
100000
001000
000100
000001
,
100000
001000
000100
000000
,
000010
000000
010000
000000
,
000100
000000
001000
000000
,
000001
001000
000100
100000
,
000001
001000
000100
000000
,
010000
000000
000010
000000
,
000100
000000
001000
000000
,
001100
100001
001100
000000
,
010000
000000
001000
000000
,
100001
001100
100001
000000
,
000010
000000
001000
000000
,
001100
100001
010010
000000
,
000100
100000
001000
000001
,
010000
000000
000010
000000
000000
001000
000100
000000
,
001000
000000
000100
000000
000000
010000
000010
000000
,
000000
000000
001000
000000
,
100000
000000
001000
000000
,
100000
000000
001000
000000
,
000001
000000
001000
000000
,
000001
000000
001000
000100
,
100001
000000
000100
000000
,
000001
000000
000100
000000
,
100000
000000
000100
000000
,
000001
000000
001000
000100
,
010010
000000
100000
000000
,
001000
000000
100000
000000
,
000100
000000
000001
000000
,
001000
000000
000001
000000
,
000000
000000
001000
000100
,
010010
000000
100000
000000
,
000100
000000
000001
000000
,
000100
000000
100000
000000
,
010010
000000
001100
000000
,
100001
000000
001100
000000
,
000001
000010
000001
000100
,
001000
000100
100000
010000
,
100000
000000
000000
000000
;

//---------------dance-solo - ----------------
#NOTES:
     dance-solo:
     :
     Medium:
     4:
     0.279,0.378,0.218,0.000,0.000:
000000
000000
000000
000000
,
000000
000000
000000
000000
,
000000
000000
000000
000000
,
000000
000000
000000
000000
,
000000
000000
000000
000000
,
000000
000000
000000
000000
,
000000
000000
001000
100000
,
001000
100000
001000
100000
,
000010
000000
000000
001000
,
000001
001000
000001
001000
,
010000
000000
001000
000101
,
101000
000000
000000
001000
,
100000
001000
000100
001000
,
100000
001000
000010
010000
,
100001
000000
000000
000000
,
000000
000000
000000
000000
,
000011
000000
000100
000000
,
110000
000000
000000
000000
,
000001
000000
100100
000000
,
000010
000000
100000
001000
000000
000000
000000
000000
,
100000
000000
000001
000000
,
000001
000000
100000
000000
,
000001
000000
101000
000000
,
000010
000000
100000
001000
100000
000000
000000
000000
,
000001
000000
100000
000000
,
100000
000000
000001
000000
,
100000
000000
000101
000000
,
010000
000000
000001
001000
000000
000000
000000
000000
,
001000
000000
000100
000000
,
000100
000000
001000
000000
,
100000
000000
001001
000000
,
010000
000000
000001
001000
000001
000000
000000
000000
,
000100
000000
001000
000000
,
001000
000000
000100
000000
,
100000
010000
001000
000000
,
010000
000000
010000
000000
,
000001
000010
001000
000000
,
000010
000000
000010
000000
,
100000
001000
000001
000000
,
100000
010000
000001
001000
,
100000
000000
010000
000000
000000
000001
001000
000000
,
100000
000000
010000
000000
000000
000001
100000
000000
,
000000
000000
001000
100000
,
001000
100000
001000
100000
,
000101
000000
000000
001000
,
000001
001000
000001
001000
,
100000
001000
100000
001000
,
010010
000000
001000
100000
,
001000
100000
001000
100000
,
000101
000000
000000
001000
,
000001
001000
000001
001000
,
010010
000000
000010
100100
,
001001
000000
000000
001000
,
000001
001000
000100
001000
,
000001
001000
000100
000000
,
000000
000000
010000
000101
,
101000
000000
000000
001000
,
100000
001000
000100
001000
,
100000
001000
010010
001001
,
101000
000000
000000
010000
000010
000000
000000
000000
,
001000
000000
000000
000000
000010
000000
000000
001000
,
000100
000000
000000
001000
000100
000000
000000
000000
,
000010
000100
010000
000100
,
001000
000000
000000
000000
;

//---------------dance-solo - ----------------
#NOTES:
     dance-solo:
     :
     Hard:
     7:
     0.458,0.549,0.708,0.000,0.000:
000000
000000
000000
000000
,
000000
000000
000000
000000
,
000000
000000
000000
000000
,
000000
000000
000000
000000
,
000000
000000
000000
000000
,
000000
000000
000000
000000
,
000000
000000
101000
000010
,
000001
000000
010000
000000
100000
000000
100000
000001
,
001000
000000
000000
000000
000000
000000
100000
001000
,
100000
000000
010000
000000
100000
000000
100000
000001
,
000100
000000
000000
000000
010000
000000
000010
000100
,
001000
000000
000000
000000
000000
000000
100000
001000
,
100000
000010
000001
010000
,
100000
000000
000101
000000
101000
000000
100000
001000
,
100000
000000
000000
000000
100000
000000
000000
000001
,
000000
000100
000000
001000
000000
000100
000000
000000
,
000110
000011
010100
110000
,
100001
000000
000000
000000
,
100100
000000
001001
000000
100000
000010
001000
000000
,
000100
000000
100000
000010
001000
000000
000000
000000
,
000001
001000
100000
000100
,
001000
000100
010010
000000
,
101000
100100
101000
100100
,
101000
000000
100000
000010
001000
000000
000000
000000
,
100000
001000
000001
000100
,
001000
000100
010010
000000
,
100100
000000
001001
000000
100000
000010
001000
000000
,
000100
000000
100000
000010
001000
000000
000000
000000
,
001001
101000
100100
000101
,
001001
101000
010010
000000
,
001001
000101
001001
000101
,
001001
000000
000001
010000
001000
000000
000000
000000
,
101000
001001
000101
100100
,
101000
001001
010010
001000
,
100000
010000
001000
000001
100000
000000
000000
000000
,
000101
100100
001000
000000
,
000001
000010
001000
100000
000001
000000
000000
000000
,
100100
000101
001000
000000
,
100000
010000
001000
000001
100000
000000
000000
000000
,
110000
000001
000011
100000
,
000011
000000
100000
000000
000000
000010
010000
000000
,
110000
000000
000001
000000
000000
010000
000010
000000
,
000000
000000
101000
000010
,
000001
000000
010000
000000
100000
000000
000001
001000
,
100000
000000
000000
000000
000000
000000
100000
000100
,
100000
000000
000001
000100
000001
000000
100000
001000
,
100000
000000
000001
001000
000001
000000
010000
000010
,
001000
000000
101000
000010
,
000001
000000
010000
000000
100000
000000
000001
001000
,
100000
000000
000000
000000
000000
000000
100000
001000
,
100000
000000
010000
000000
100000
000000
000001
001000
,
100000
000000
000101
101000
,
000101
000000
000000
000000
000000
000000
100000
001000
,
100000
100000
001000
000001
001000
001000
000001
100000
,
000100
000100
000000
001000
000100
000000
000000
000000
,
000000
000000
101000
000101
,
101000
000000
000000
000000
000000
000000
100000
001000
,
100000
100000
001000
000001
001000
001000
000001
100000
,
000001
101000
000101
001001
,
100100
000000
000000
100000
010000
000000
000000
010100
,
000000
000110
000000
010100
000000
000110
000000
100000
,
010000
000000
000000
000001
000010
000000
000000
101000
,
000000
000101
000000
001100
000000
100000
010000
100000
,
010000
000000
000000
000000
;

//---------------dance-double - Edit by silenttype01----------------
#NOTES:
     dance-double:
     Edit by silenttype01:
     Easy:
     4:
     0.227,0.378,0.196,0.033,0.000:
00000000
00000000
00000000
00000000
,
00000000
00000000
00000000
00000000
,
00000000
00000000
00000000
00000000
,
00000000
00000000
00000000
00000000
,
00000000
00000000
00000000
00000000
,
00000000
00000000
00000000
00000000
,
00000000
00000000
00000000
00000000
,
00000000
00000000
00000000
00000000
,
00000000
00000000
00000000
00000000
,
00000000
00000000
00000000
00000000
,
00010000
00000000
00100000
00000000
,
10000000
00000000
00100000
00000000
,
10000000
00000000
00100000
00000000
,
10000000
00000000
00100000
00100000
,
00200000
00000000
00000000
00000000
,
00300000
00000000
00000000
00000000
,
00011000
00000000
00000110
00000000
,
00001001
00000000
00000000
00000000
,
00000001
00000100
00000010
00001000
,
00000001
00000010
00000100
00000000
,
00001000
00000000
00000001
00000000
,
00001000
00000000
00010000
00000000
,
10000000
01000000
00100000
00010000
,
10000000
00100000
01000000
00000000
,
00001000
00000000
00010000
00000000
,
00000001
00000000
00001000
00000000
,
00000001
00000010
00000100
00001000
,
00000001
00000010
00000100
00000000
,
00010000
00000000
00001000
00000000
,
10000000
00000000
00010000
00000000
,
10000000
00100000
01000000
00010000
,
10000000
00100000
01000000
00000000
,
00010000
00000000
10000000
00000000
,
01000000
00000000
00100000
00000000
,
01100000
01100000
01100000
00000000
,
00020000
00000000
00031000
00000000
,
00011000
00011000
00011000
00000000
,
00002000
00000000
00013000
00000000
,
00000110
00000110
00000110
00000000
,
00000100
00000001
00000010
00001000
,
00010000
00000000
00001000
00000000
00000000
00000100
00000001
00000000
,
00000010
00000000
00001000
00000000
00000000
00010000
00001000
00000000
,
00000000
00000000
00010000
00000000
,
00100000
00000000
10000000
00000000
,
00100000
00000000
10000000
00000000
,
00100000
00000000
10000000
00000000
,
00100000
00000000
01000000
00100000
,
01100000
00000000
00100000
00000000
,
00010000
00000000
00001000
00000000
,
00000100
00000000
00000010
00000000
,
00001000
00000000
00000010
00000100
,
00000110
00000000
00000001
00000000
,
00000010
00000000
00000001
00000000
,
00000100
00000000
00001000
00000000
,
00010000
00000000
00001000
00000000
,
00000000
00000000
00100000
01000000
,
01100000
00000000
10000000
00000000
,
01000000
00000000
00010000
00000000
,
01000000
00000000
10000000
00000000
,
10010000
00000000
00000000
00000000
,
00011000
00000000
00000000
00000000
,
00001001
00000000
00000000
00000000
,
00000010
00000001
00000100
00001000
,
00010000
00000000
00000000
00000000
;

//---------------dance-single - Edit by silenttype01----------------
#NOTES:
     dance-single:
     Edit by silenttype01:
     Challenge:
     9:
     0.574,0.790,0.599,0.240,0.180: // measure 1
0000
0000
0000
0000
,  // measure 2
0000
0000
0000
0000
,  // measure 3
0000
0000
0000
0000
,  // measure 4
0000
0000
0000
0000
,  // measure 5
0000
0000
0000
0000
,  // measure 6
0000
0000
0000
0000
,  // measure 7
0000
0000
0000
0000
,  // measure 8
0000
0000
0000
0000
,  // measure 9
0000
0000
0000
0000
,  // measure 10
0000
0000
0000
0000
,  // measure 11
2002
0000
0000
0000
,  // measure 12
3003
0000
0000
0000
0000
0000
0000
0100
,  // measure 13
2002
0000
3003
0000
2002
0000
3003
0010
,  // measure 14
1001
0000
0100
0000
0010
0000
0100
0000
1000
0001
1000
0001
1000
0001
1000
0001
,  // measure 15
2000
0000
0000
0000
3002
0000
0000
1003
,  // measure 16
0000
0100
0000
0010
0000
0100
0000
1000
,  // measure 17
0002
0203
2300
3100
,  // measure 18
0110
0000
0000
0000
0110
0000
0000
0000
0100
0010
0100
0010
0100
0010
0100
0010
,  // measure 19
0100
0101
1001
0011
,  // measure 20
1100
0000
1000
0002
0000
0000
0003
0000
,  // measure 21
1000
0100
0010
0000
0001
0100
0010
0000
,  // measure 22
1000
0100
0010
0002
0000
0000
0003
0000
,  // measure 23
0110
1100
1001
1100
,  // measure 24
0110
0000
0010
0001
0200
0000
0000
0300
,  // measure 25
0001
0100
0010
0000
1000
0100
0010
0000
,  // measure 26
0001
0100
1000
0100
0002
0000
0000
0003
,  // measure 27
1001
0000
0101
0000
1001
0000
0101
0010
,  // measure 28
0010
0000
0000
0000
0000
0000
1000
0100
1000
0000
0000
1100
0000
0000
0110
0000
,  // measure 29
0001
0010
1000
0010
0001
0010
1000
0010
,  // measure 30
0002
0000
0000
0000
1000
0000
1000
0000
0003
0000
0000
0000
0000
0000
0001
0100
,  // measure 31
0001
0101
1100
0101
,  // measure 32
1100
0000
0100
0001
1000
0000
0000
0000
,  // measure 33
0001
0100
1000
0001
0010
1000
0001
0100
,  // measure 34
1000
0000
0001
0000
0010
0000
1000
0000
0100
0000
0100
0000
0010
0000
0010
0001
,  // measure 35
1000
0100
0010
0001
0010
0000
0000
0000
,  // measure 36
1100
0001
0011
0000
,  // measure 37
0001
0010
0100
1000
0100
0000
0000
0000
,  // measure 38
0011
1000
1100
0000
,  // measure 39
0100
0001
1000
0010
1000
0000
0000
0000
,  // measure 40
1000
0101
0011
1010
,  // measure 41
1000
0000
0101
0000
0000
0011
1010
0000
,  // measure 42
1000
0000
0101
0000
0000
0011
1010
0000
,  // measure 43
0000
0000
0000
0000
,  // measure 44
0001
0100
0010
0100
0001
0100
0010
0100
,  // measure 45
0002
1000
0100
0010
,  // measure 46
1003
0100
0010
0100
1000
0100
0010
0100
,  // measure 47
2000
0001
0100
3010
,  // measure 48
0110
0000
2000
3002
,  // measure 49
1003
0100
0001
0100
1000
0001
0100
1000
,  // measure 50
1100
0101
0011
0110
,  // measure 51
1001
0000
0000
0000
0100
0000
0000
0000
1000
0001
1000
0001
1000
0001
1000
0001
,  // measure 52
1000
0000
1100
0100
1000
0000
0101
0001
,  // measure 53
0100
0000
0110
0100
0001
0000
0010
0100
,  // measure 54
0001
0000
0010
0100
0001
0000
1100
0100
,  // measure 55
0010
0000
0000
0000
1100
0000
0100
0000
1000
0000
0000
0000
0001
0000
1000
0100
,  // measure 56
1000
0100
0000
1000
0100
0000
1000
0100
0000
1000
0100
0000
0010
0000
0010
0000
,  // measure 57
0001
0100
0000
0001
0100
0000
0001
0100
0000
0001
0100
0000
0010
0000
0010
0000
,  // measure 58
1002
0103
2001
3100
,  // measure 59
0110
0000
0010
0000
0110
0000
0100
0000
1000
0001
1000
0001
1000
0001
1000
0001
,  // measure 60
1000
0100
0000
0001
0000
1000
0000
0001
,  // measure 61
0000
0010
0000
0100
0000
1000
0000
0010
,  // measure 62
0000
0001
0000
0100
0000
1000
0000
0001
,  // measure 63
1001
0000
1000
0000
1001
0000
0001
0000
1000
0001
1000
0001
1000
0001
1000
0001
,  // measure 64
1000
0000
0000
0000
;

//---------------dance-double - Edit by silenttype01----------------
#NOTES:
     dance-double:
     Edit by silenttype01:
     Medium:
     8:
     0.431,0.549,0.697,0.033,0.000:
00000000
00000000
00000000
00000000
,
00000000
00000000
00000000
00000000
,
00000000
00000000
00000000
00000000
,
00000000
00000000
00000000
00000000
,
00000000
00000000
00000000
00000000
,
00000000
00000000
00000000
00000000
,
00000000
00000000
00000000
00000000
,
00000000
00000000
00000000
00000000
,
00000000
00000000
00000000
00000000
,
00000000
00000000
00000000
00000000
,
00000200
00000000
00000000
00000000
,
00000300
00000000
00000000
00000000
00000000
00000000
00000001
00000010
,
00000001
00000100
00001000
00010000
,
00100000
00000000
11000000
00000000
00110000
00000000
00010000
00100000
,
00020000
00000000
00000000
00000000
00031000
00000000
00000000
00001000
,
00000000
00000100
00000000
00000010
00000000
00000100
00000000
00000000
,
00001010
00001100
00000101
00000011
,
00001001
00000000
00000000
00000000
,
00000101
00000000
00001010
00000000
00000001
00001000
00000010
00000000
,
00000100
00000000
00000001
00001000
00000010
00000000
00000000
00000000
,
00010000
00001000
00000010
00000001
,
00000100
00000010
00001001
00000000
,
00000011
00000101
00001010
00001100
,
00011000
00000000
00001000
00010000
00100000
00000000
00000000
00000000
,
00010000
00100000
10000000
01000000
,
00100000
01000000
10010000
00000000
,
11000000
00000000
00110000
00000000
10000000
00010000
00100000
00000000
,
01000000
00000000
10000000
00010000
00100000
00000000
00000000
00000000
,
00011000
00001010
00000011
00000101
,
00001100
00011000
00110000
00000000
,
10100000
00110000
10100000
11000000
,
10100000
00000000
10000000
00010000
00100000
00000000
00000000
00000000
,
00101000
00011000
00001010
00000011
,
00000101
00001100
00011000
00010000
,
00100000
01000000
00100000
00010000
00001000
00000000
00000000
00000000
,
00001100
00000101
00000010
00000000
,
00001000
00000100
00000010
00000001
00001000
00000000
00000000
00000000
,
00001100
00110000
00001000
00000000
,
00010000
01000000
00100000
10000000
00010000
00000000
00000000
00000000
,
01010000
10000000
11000000
00010000
,
11000000
00000000
00010000
00000000
00000000
10000000
01000000
00000000
,
01010000
00000000
00010000
00000000
00000000
00001000
00000100
00000000
,
00000000
00000000
00000011
00000100
,
00001000
00000000
00000100
00000000
00000001
00000000
00001000
00000010
,
00000001
00000000
00000000
00000000
00000000
00000000
00000001
00000100
,
00000001
00000000
00001000
00000100
00001000
00000000
00000001
00000010
,
00001000
00000000
00010000
00001000
00010000
00000000
00100000
10000000
,
00010000
00000000
00110000
01000000
,
10000000
00000000
01000000
00000000
00010000
00000000
10000000
00100000
,
00010000
00000000
00000000
00000000
00000000
00000000
00010000
00100000
,
00010000
00000000
01000000
00000000
00010000
00000000
10000000
00100000
,
00010000
00000000
00110000
00001100
,
00110000
00000000
00000000
00000000
00000000
00000000
00001000
00000010
,
00001000
00001000
00010000
00100000
00010000
00010000
00001000
00000010
,
00001000
00001000
00010000
00200000
00000000
00000000
00000000
00300000
,
00000000
00000000
00110000
11000000
,
00110000
00000000
00000000
00000000
00000000
00000000
00010000
00100000
,
00010000
00010000
00001000
00000010
00001000
00001000
00010000
00100000
,
00010000
00011000
00001100
00001010
,
00000101
00000000
00000000
00000001
00000100
00000000
00000000
00000101
,
00000000
00001100
00000000
00010100
00000000
00011000
00000000
00001000
,
01000000
00000000
00000000
00001000
01000000
00000000
00000000
00101000
,
00000000
00011000
00000000
00010100
00000000
00001000
00000100
00001000
,
00000100
00000000
00000000
00000000
;

//---------------dance-double - Edit by silenttype01----------------
#NOTES:
     dance-double:
     Edit by silenttype01:
     Hard:
     9:
     0.571,0.790,0.588,0.240,0.174:
00000000
00000000
00000000
00000000
,
00000000
00000000
00000000
00000000
,
00000000
00000000
00000000
00000000
,
00000000
00000000
00000000
00000000
,
00000000
00000000
00000000
00000000
,
00000000
00000000
00000000
00000000
,
00000000
00000000
00000000
00000000
,
00000000
00000000
00000000
00000000
,
00000000
00000000
00000000
00000000
,
00000000
00000000
00000000
00000000
,
00002002
00000000
00000000
00000000
,
00003003
00000000
00000000
00000000
00000000
00000000
00000000
00000010
,
00002002
00000000
00003003
00000000
00002002
00000000
00003003
00000100
,
00001001
00000000
00000010
00000000
00000100
00000000
00000010
00000000
00000001
00001000
00000001
00001000
00000001
00001000
00000001
00001000
,
00000002
00000000
00000000
00000000
00002003
00000000
00000000
00003001
,
00000000
00000010
00000000
00001000
00000000
00010000
00000000
01000000
,
20000000
30200000
00320000
00130000
,
01100000
00000000
00000000
00000000
01100000
00000000
00000000
00000000
00100000
01000000
00100000
01000000
00100000
01000000
00100000
01000000
,
00100000
10100000
10010000
11000000
,
00110000
00000000
00001000
00020000
00000000
00000000
00030000
00000000
,
00000100
00001000
00000010
00000000
00000100
00000001
00000010
00000000
,
00000100
00010000
00000010
00002000
00000000
00000000
00003000
00000000
,
00000110
00010010
00001001
00001100
,
00011000
00000000
01000000
00100000
02000000
00000000
00000000
03000000
,
00100000
00010000
01000000
00000000
00100000
10000000
01000000
00000000
,
00100000
00001000
01000000
00100000
20000000
00000000
00000000
30000000
,
10010000
00000000
10100000
00000000
00110000
00000000
00011000
00010000
,
00001000
00000000
00000000
00000000
00000000
00000000
00000010
00000100
00000010
00000000
00000000
00001001
00000000
00000000
00000110
00000000
,
00000001
00000100
00001000
00000100
00000001
00000100
00001000
00010000
,
00200000
00000000
00000000
00000000
10000000
00000000
10000000
00000000
00300000
00000000
00000000
00000000
00000000
00000000
00100000
10000000
,
00100000
00110000
00011000
00110000
,
01100000
00000000
00100000
10000000
00010000
00000000
00000000
00000000
,
10000000
00100000
00010000
10000000
01000000
00010000
00000100
00000001
,
00001000
00000000
00000010
00000000
00000100
00000000
00000001
00000000
00000010
00000000
00000010
00000000
00000100
00000000
00000100
00001000
,
00000001
00000010
00000100
00001000
00000100
00000000
00000000
00000000
,
00011000
00100000
11000000
00000000
,
10000000
01000000
00100000
00010000
00100000
00000000
00000000
00000000
,
00011000
00000100
00000011
00000000
,
00000001
00000010
00001000
00010000
00001000
00000000
00000000
00000000
,
00000010
00000011
00000101
00001100
,
00001000
00000000
00011000
00000000
00000000
00010000
00100000
00000000
,
10000000
00000000
11000000
00000000
00000000
01000000
00010000
00000000
,
00000000
00000000
00000000
00000000
,
10000000
00100000
01000000
00100000
10000000
00100000
01000000
00100000
,
20000000
00010000
00100000
31000000
,
00010000
00100000
01000000
00100000
00001000
00100000
01000000
00100000
,
00002000
00100000
01000000
00013000
,
00011000
00000000
00000020
00000230
,
00000310
00000001
00000010
00001000
00010000
00001000
00000010
00000001
,
00000011
00000110
00011000
01100000
,
10010000
00000000
00000000
00000000
01000000
00000000
00000000
00000000
00010000
10000000
00010000
10000000
00010000
10000000
00010000
10000000
,
00010000
00000000
01010000
00010000
00100000
00000000
00001100
00001000
,
00000010
00000000
00000101
00000001
00000010
00000000
00001100
00001000
,
00000010
00000000
01010000
00010000
00100000
00000000
11000000
10000000
,
00100000
00000000
01010000
00010000
00100000
00000000
00011000
00010000
,
00001000
00010000
00000000
00001000
00010000
00000000
00001000
00010000
00000000
00001000
00010000
00000000
00000010
00000000
00000010
00000000
,
00010000
00001000
00000000
00010000
00001000
00000000
00010000
00001000
00000000
00010000
00001000
00000000
00100000
00000000
00100000
00000000
,
00201000
00310000
10020000
00130000
,
01100000
00000000
01000000
00000000
01100000
00000000
00100000
00000000
00001000
00010000
00001000
00010000
00001000
00010000
00001000
00010000
,
00001000
00010000
00000000
00100000
00000000
10000000
00000000
00010000
,
00000000
01000000
00000000
00001000
00000000
00010000
00000000
00000010
,
00000000
00001000
00000000
00000001
00000000
00000100
00000000
00000010
,
00000110
00000000
00000100
00000000
00000110
00000000
00000010
00000000
00000100
00000010
00000100
00000010
00000100
00000010
00000100
00000010
,
00000100
00000000
00000000
00000000
;
