#TITLE:DREAM A DREAM;
#SUBTITLE:(MIAMI BOOTY MIX);
#ARTIST:CAPTAIN JACK;
#TITLETRANSLIT:;
#SUBTITLETRANSLIT:;
#ARTISTTRANSLIT:;
#CREDIT:;
#BANNER:DREAM A DREAM (MIAMI BOOTY MIX).png;
#BACKGROUND:DREAM A DREAM (MIAMI BOOTY MIX)-bg.png;
#LYRICSPATH:;
#CDTITLE:./CDTITLES/DANCEMANIA BASS#4.PNG;
#MUSIC:DREAM A DREAM (MIAMI BOOTY MIX).ogg;
#OFFSET:0.000;
#SAMPLESTART:51.066;
#SAMPLELENGTH:15.000;
#SELECTABLE:YES;
#DISPLAYBPM:155.000;
#BPMS:0=156.5,4=155,68=156,72=155,96=156,100=154,102=155.5,104=155,144=156,148=155,164=155.5,168=155,177=157,179=154,180=155,206=155.5,208=155,212=155.5,216=155;
#STOPS:;
#BGCHANGES:;

//---------------dance-single - ----------------
#NOTES:
     dance-single:
     :
     Beginner:
     1:
     :
0000
0000
0000
0000
,
0000
0000
0000
0000
,
0000
0000
0000
0000
,
0000
0000
0000
0000
,
0000
0000
0000
0000
,
1000
0000
0000
0000
,
0000
0000
0000
0000
,
0010
0000
0000
0000
,
0000
0000
0000
0000
,
1000
0000
0000
0000
,
0001
0000
0000
0000
,
1000
0000
0000
0000
,
0001
0000
0010
0000
,
1000
0000
0000
0000
,
0001
0000
0000
0000
,
1000
0000
0000
0000
,
0001
0000
0010
0000
,
1001
0000
0000
0000
,
0100
0000
0010
0000
,
1000
0000
0001
0000
,
1000
0000
0001
0000
,
1001
0000
0000
0000
,
0100
0000
0010
0000
,
1000
0000
0001
0000
,
1000
0000
0001
0000
,
1000
0000
1000
0000
,
0001
0000
0001
0000
,
0010
0000
1000
0000
,
0001
0000
0001
0000
,
1000
0000
1000
0000
,
0001
0000
0001
0000
,
0010
0000
1000
0000
,
0001
0000
0001
0000
,
1000
0000
0010
0000
,
0100
0000
0100
0000
,
0001
0000
0010
0000
,
0100
0000
0100
0000
,
1000
0000
0010
0000
,
0100
0000
0100
0000
,
0001
0000
0010
0000
,
0100
0000
0100
0000
,
1000
0000
0010
0000
,
0100
0000
1000
0000
,
0001
0000
0010
0000
,
0100
0000
0001
0000
,
1000
0000
0100
0000
,
0010
0000
1000
0000
,
0100
0000
1000
0000
,
0010
0000
0001
0000
,
1000
0000
0000
0001
,
0000
1000
0000
1000
,
0000
0100
0000
0010
,
0000
0010
0000
0000
,
1000
0000
0000
0001
,
0000
0100
0000
0010
,
0000
1000
0000
0010
;

//---------------dance-single - ----------------
#NOTES:
     dance-single:
     :
     Easy:
     2:
     :
0000
0000
0000
0000
,
0000
0000
0000
0000
,
0000
0000
0000
0000
,
0000
0000
0000
0000
,
0000
0000
0000
0000
,
1000
0000
0000
0000
,
0000
0000
0000
0000
,
0010
0000
0000
0000
,
0000
0000
0000
0000
,
1000
0100
0000
0000
,
0001
0100
0000
0000
,
1000
0100
0000
0000
,
0001
0000
0010
0000
,
1000
0100
0000
0000
,
0001
0100
0000
0000
,
1000
0100
0000
0000
,
0001
0000
0010
0000
,
1001
0000
0000
0000
,
0100
0000
0010
0000
,
1000
0000
0001
0000
,
1000
0000
0001
0000
,
1001
0000
0000
0000
,
0100
0000
0010
0000
,
1000
0000
0001
0000
,
1000
0000
0001
0000
,
1000
1000
1000
0000
,
0001
0001
0001
0000
,
0010
0100
1000
0000
,
0001
0000
0001
0000
,
1000
1000
1000
0000
,
0001
0001
0001
0000
,
0010
0100
1000
0000
,
0001
0000
0001
0000
,
1000
0000
0010
0000
,
0100
0100
0100
0000
,
0001
0000
0010
0000
,
0100
0100
0100
0000
,
1000
0000
0010
0000
,
0100
0100
0100
0000
,
0001
0000
0010
0000
,
0100
0100
0100
0000
,
1000
0000
0010
0000
,
0100
0001
1000
0000
,
0001
0000
0010
0000
,
0100
1000
0001
0000
,
1000
0000
0100
0000
,
0010
0001
1000
0000
,
0100
0000
1000
0000
,
0010
0100
0001
0000
,
1000
0100
0000
0001
,
0000
1000
0000
1000
,
0000
0100
0000
0010
,
0001
0010
0001
0000
,
1000
0100
0000
0001
,
0000
0100
0000
0010
,
0000
1000
0001
0010
,
0001
0000
0000
0000
;

//---------------dance-single - ----------------
#NOTES:
     dance-single:
     :
     Medium:
     6:
     :
0000
0000
0000
0000
,
0000
0000
0000
0000
,
0000
0000
0000
0000
,
0000
0000
0000
0000
,
0000
0000
0000
0000
,
1000
0010
0000
0000
0000
0000
0000
0000
,
1000
0010
0000
0000
0000
0000
0000
0000
,
1000
0010
0000
0000
0000
0000
0000
0000
,
1000
1000
1000
1000
,
1000
0001
0100
0010
0000
0000
0000
0000
,
1000
0001
0100
0010
0000
0000
0000
0000
,
1000
0001
0100
0010
0000
0000
0000
0000
,
1000
0001
0100
0010
0000
0000
0001
0000
,
1000
0001
0010
0001
0000
0000
0000
0000
,
1000
0001
0010
0001
0000
0000
0000
0000
,
1000
0001
0010
0001
0000
0000
0000
0000
,
1000
0001
0000
0000
0100
0010
0100
0010
,
1000
0000
0000
0000
0001
0100
0001
0000
,
1000
0000
0000
0000
0001
0100
0001
0000
,
1000
0000
0000
0000
0001
0100
0001
0000
,
1000
0000
0000
0000
0001
0100
0001
0000
,
0010
0000
0000
0000
0100
1000
0001
0000
,
0100
0000
0000
0000
0001
1000
0100
0000
,
0010
0000
0000
0000
0001
0100
0001
0000
,
1000
0000
0000
0000
0100
1000
0001
0000
,
1000
0100
1000
0000
0001
0010
0001
0000
,
1000
0010
1000
0000
0001
0100
0001
0000
,
1000
0100
1000
0000
0001
0100
0001
0000
,
0110
1001
0110
0000
,
1000
0100
1000
0000
0001
0010
0001
0000
,
1000
0010
1000
0000
0001
0100
0001
0000
,
1000
0100
1000
0000
0001
0100
0001
0000
,
0110
1001
0110
0000
,
1000
0000
1000
0000
0001
0100
0001
0000
,
1000
0000
1000
0000
0001
0010
0001
0000
,
1000
0100
1000
0000
0001
0100
0001
0000
,
1000
0010
1000
0010
0000
0000
0000
0000
,
0001
0000
0001
0000
1000
0100
1000
0000
,
0001
0000
0001
0000
1000
0010
1000
0000
,
0001
0100
0001
0000
1000
0100
1000
0000
,
0001
0010
0001
0010
0000
0000
0000
0000
,
1000
0000
1000
0000
0001
0010
0001
0000
,
1000
0000
1000
0000
0001
0100
0001
0000
,
1000
0010
1000
0000
0001
0010
0001
0000
,
1000
0100
1000
0100
0000
0000
0000
0000
,
1000
0000
1000
0000
0001
0100
0001
0000
,
1000
0000
1000
0000
0001
0010
0001
0000
,
1000
0100
1000
0000
0001
1000
0001
0000
,
0010
0001
1000
0010
0000
0000
0000
0000
,
1000
0001
1000
0100
,
1000
1000
0001
0001
,
0100
0010
0100
0000
0001
0100
0001
0000
,
1000
0001
1000
0010
0000
0000
0000
0000
,
1000
0100
0010
0001
,
1000
0010
1000
0100
,
0000
0000
0010
0100
0010
0001
0010
0000
,
1001
0000
0000
0000
;

//---------------dance-single - ----------------
#NOTES:
     dance-single:
     :
     Hard:
     7:
     :
0000
0000
0000
0000
,
0000
0000
0000
0000
,
0000
0000
0000
0000
,
0000
0000
0000
0000
,
0000
0000
0000
0000
,
1000
0001
1000
0000
0000
0000
1000
0000
,
1000
0001
1000
0000
0000
0000
1000
0000
,
1000
0001
1000
0000
0000
0000
1000
0000
,
1000
0100
1000
0100
1000
0100
1000
0100
,
1000
0001
0100
0010
1000
0010
1000
0000
,
0001
0100
0001
0000
1000
0010
1000
0000
,
0001
0010
0100
1000
0001
0100
0010
1000
,
0100
0010
0001
1000
0010
0000
0000
0000
,
1000
0001
0100
0010
1000
0010
1000
0000
,
0001
0100
0001
0000
1000
0010
1000
0000
,
0001
0010
0100
1000
0001
0100
0010
1000
,
0100
0010
0001
1000
0010
0000
0000
0000
,
1000
0100
1000
0100
1000
0001
1000
0000
,
0010
1000
0010
0000
0100
0001
0100
0000
,
0010
0100
0010
0100
0010
0100
0001
1000
,
0001
1000
0100
1000
1000
0000
0000
0000
,
1000
0100
1000
0100
1000
0001
1000
0000
,
0010
1000
0010
0000
0100
0001
0100
0000
,
0010
0100
0010
0100
0010
0100
0001
1000
,
0001
1000
0100
1000
1000
0000
0000
0000
,
1000
0100
1000
0001
0001
0100
0001
0000
,
1000
0100
0010
0000
0001
0100
0010
0000
,
1000
0001
0100
0010
1000
0010
1000
0010
,
1000
0001
1000
0001
0001
0000
0000
0000
,
1000
0100
1000
0001
0001
0100
0001
0000
,
1000
0100
0010
0000
0001
0100
0010
0000
,
1000
0001
0100
0010
1000
0010
1000
0010
,
1000
0001
1000
0001
0001
0000
0000
0000
,
1000
0000
0100
0000
1000
0000
0001
0010
,
0001
0100
0001
0100
0001
0000
0100
0001
,
1000
0100
1000
0100
1000
0000
0100
1000
,
0001
0010
0001
0010
0000
0000
0000
0000
,
0100
0000
0100
0000
0100
0000
1000
0001
,
1000
0100
1000
0010
1000
0000
0001
0010
,
0001
0100
0001
0100
0001
0000
1000
0100
,
0010
0001
0010
0001
0000
0000
0000
0000
,
1000
0000
0010
0000
1000
0000
0001
0010
,
0001
0100
0001
0100
0001
0000
0100
0001
,
1000
0010
1000
0010
1000
0000
0100
1000
,
0001
0010
0001
0010
0000
0000
0000
0000
,
0100
0000
0100
0000
0100
0000
1000
0001
,
1000
0100
1000
0010
1000
0000
0001
0010
,
0001
0100
0001
0100
0001
0000
1000
0100
,
0010
0001
0010
0001
0000
0000
0000
0000
,
0010
0100
1000
0100
0000
1000
1000
1000
,
0000
0000
0001
0000
0001
0000
0100
0001
,
1000
0100
1000
0100
0010
0000
0001
0100
,
0010
1000
0010
1000
0000
0000
0000
0000
,
0100
0010
0001
0010
0000
0001
0001
0001
,
0000
1000
1000
1000
,
0000
1000
0100
0010
0001
0100
0001
1000
,
0010
0000
0000
0000
;

//---------------dance-double - ----------------
#NOTES:
     dance-double:
     :
     Beginner:
     1:
     0.145,0.186,0.022,0.000,0.000:
00000000
00000000
00000000
00000000
,
00000000
00000000
00000000
00000000
,
00000000
00000000
00000000
00000000
,
00000000
00000000
00000000
00000000
,
00000000
00000000
00000000
00000000
,
10000000
00000000
00000000
00000000
,
10000000
00000000
00000000
00000000
,
00100000
00000000
00000000
00000000
,
00000000
00000000
00000000
00000000
,
10000000
00000000
00000000
00000000
,
00010000
00000000
00000000
00000000
,
00001000
00000000
00000000
00000000
,
00000001
00000000
00000010
00000000
,
00001000
00000000
00000000
00000000
,
00000001
00000000
00000000
00000000
,
00001000
00000000
00000000
00000000
,
00010000
00000000
00100000
00000000
,
10010000
00000000
00000000
00000000
,
01000000
00000000
00100000
00000000
,
10000000
00000000
00010000
00000000
,
00011000
00000000
00000000
00000000
,
00000100
00000000
00000010
00000000
,
00001000
00000000
00000001
00000000
,
00001000
00000000
00010000
00000000
,
10000000
00000000
10000000
00000000
,
00010000
00000000
00010000
00000000
,
00100000
00000000
10000000
00000000
,
00010000
00000000
00010000
00000000
,
00001000
00000000
00001000
00000000
,
00000010
00000000
00000010
00000000
,
00000010
00000000
00000001
00000000
,
00001000
00000000
00001000
00000000
,
00000001
00000000
00000001
00000000
,
00001000
00000000
00001000
00000000
,
00000100
00000000
00010000
00000000
,
10000000
00000000
10000000
00000000
,
00010000
00000000
00100000
00000000
,
01000000
00000000
01000000
00000000
,
00010000
00000000
00000010
00000000
,
00000100
00000000
00000100
00000000
,
00000001
00000000
00000010
00000000
,
00000100
00000000
00000100
00000000
,
00010000
00000000
00100000
00000000
,
01000000
00000000
01000000
00000000
,
10000000
00000000
00100000
00000000
,
01000000
00000000
10000000
00000000
,
00010000
00000000
00000010
00000000
,
00000100
00000000
00000001
00000000
,
00001000
00000000
00000100
00000000
,
00000010
00000000
00001000
00000000
,
00000100
00000000
00001000
00000000
,
00100000
00000000
00010000
00000000
,
10000000
00000000
00010000
00000000
,
00000000
10000000
00000000
10000000
,
00000000
01000000
00000000
00100000
,
00000000
00010000
00000000
00010000
;

//---------------dance-double - ----------------
#NOTES:
     dance-double:
     :
     Easy:
     1:
     :
00000000
00000000
00000000
00000000
,
00000000
00000000
00000000
00000000
,
00000000
00000000
00000000
00000000
,
00000000
00000000
00000000
00000000
,
00000000
00000000
00000000
00000000
,
10000000
00000000
00000000
00000000
,
10000000
00000000
00000000
00000000
,
00100000
00000000
00000000
00000000
,
00000000
00000000
00000000
00000000
,
10000000
01000000
00000000
00000000
,
00010000
01000000
00000000
00000000
,
00001000
00000100
00000000
00000000
,
00000001
00000000
00000010
00000000
,
00001000
00000100
00000000
00000000
,
00000001
00000100
00000000
00000000
,
00001000
01000000
00000000
00000000
,
00010000
00000000
00100000
00000000
,
10010000
00000000
00000000
00000000
,
01000000
00000000
00100000
00000000
,
10000000
00000000
00010000
00000000
,
00011000
00000000
00000000
00000000
,
00000100
00000000
00000010
00000000
,
00001000
00000000
00000001
00000000
,
00001000
00000000
00010000
00000000
,
10000000
10000000
10000000
00000000
,
00010000
00010000
00010000
00000000
,
00100000
01000000
10000000
00000000
,
00010000
00000000
00010000
00000000
,
00001000
00001000
00001000
00000000
,
00000010
00000010
00000010
00000000
,
00000010
00000100
00000001
00000000
,
00001000
00000000
00001000
00000000
,
00000001
00000001
00000001
00000000
,
00001000
00001000
00001000
00000000
,
00000100
00001000
00010000
00000000
,
10000000
00000000
10000000
00000000
,
00010000
00000000
00100000
00000000
,
01000000
01000000
01000000
00000000
,
00010000
00000000
00000010
00000000
,
00000100
00000100
00000100
00000000
,
00000001
00000000
00000010
00000000
,
00000100
00000100
00000100
00000000
,
00010000
00000000
00100000
00000000
,
01000000
01000000
01000000
00000000
,
10000000
00000000
00100000
00000000
,
01000000
00100000
10000000
00000000
,
00010000
00000000
00000010
00000000
,
00000100
00001000
00000001
00000000
,
00001000
00000000
00000100
00000000
,
00000010
00000001
00001000
00000000
,
00000100
00000000
00001000
00000000
,
00100000
01000000
00010000
00000000
,
10000000
01000000
00010000
00000000
,
00000000
10000000
00000000
10000000
,
00000000
01000000
00000000
00100000
,
00001000
00010000
00001000
00010000
,
00011000
00000000
00000000
00000000
;

//---------------dance-double - ----------------
#NOTES:
     dance-double:
     :
     Medium:
     5:
     :
00000000
00000000
00000000
00000000
,
00000000
00000000
00000000
00000000
,
00000000
00000000
00000000
00000000
,
00000000
00000000
00000000
00000000
,
00000000
00000000
00000000
00000000
,
10000000
00010000
00000000
00000000
00000000
00000000
00000000
00000000
,
00010000
00001000
00000000
00000000
00000000
00000000
00000000
00000000
,
00000001
00001000
00000000
00000000
00000000
00000000
00000000
00000000
,
00000001
00000001
00000001
00000001
,
00000001
00001000
00000010
00000100
00000000
00000000
00000000
00000000
,
00000001
00000010
00000100
00001000
00000000
00000000
00000000
00000000
,
00000010
00010000
00001000
01000000
00000000
00000000
00000000
00000000
,
00100000
01000000
00010000
10000000
00000000
00000000
00000000
00100000
,
01000000
00010000
00100000
01000000
00000000
00000000
00000000
00000000
,
00100000
01000000
00010000
00001000
00000000
00000000
00000000
00000000
,
00000010
00000100
00001000
00000001
00000000
00000000
00000000
00000000
,
00001000
00000001
00000000
00000000
00000100
00000010
00000100
00000010
,
00010000
00000000
00000000
00000000
00001000
00010000
00001000
00000000
,
00100000
00000000
00000000
00000000
00010000
00100000
00010000
00000000
,
01000000
00000000
00000000
00000000
10000000
01000000
10000000
00000000
,
00010000
00000000
00000000
00000000
00100000
01000000
00100000
00000000
,
00001000
00000000
00000000
00000000
00010000
00001000
00010000
00000000
,
00000010
00000000
00000000
00000000
00001000
00000100
00001000
00000000
,
00000001
00000000
00000000
00000000
00000010
00001000
00000010
00000000
,
00010000
00000000
00000000
00000000
00001000
00000001
00001000
00000000
,
00000010
00000001
00000010
00000000
00001000
00000100
00001000
00000000
,
00000010
00001000
00000010
00000000
00000001
00000100
00000001
00000000
,
00000001
00000100
00001000
00000000
00010000
01000000
10000000
00000000
,
01100000
10010000
01100000
00000000
,
00010000
00100000
00010000
00000000
10000000
01000000
10000000
00000000
,
10000000
00100000
10000000
00000000
00010000
01000000
00010000
00000000
,
00100000
10000000
01000000
00000000
00100000
00010000
01000000
00000000
,
01100000
10010000
00011000
00000000
,
00000001
00000000
00000001
00000000
00001000
00000100
00001000
00000000
,
00000001
00000000
00000001
00000000
00001000
00000010
00001000
00000000
,
00000001
00000010
00000001
00000000
00001000
00000100
00001000
00000000
,
00001000
00000100
00010000
00001000
00000000
00000000
00000000
00000000
,
00100000
00000000
00100000
00000000
00100000
00010000
00001000
00000000
,
00000010
00000000
00000010
00000000
00000010
00001000
00010000
00000000
,
00001000
00010000
00001000
00000000
00010000
00001000
00010000
00000000
,
00001000
00010000
01000000
10000000
00000000
00000000
00000000
00000000
,
00010000
00000000
00010000
00000000
10000000
01000000
00010000
00000000
,
00001000
00000000
00001000
00000000
00000001
00000100
00000001
00000000
,
00000010
00000001
00000100
00000000
00000010
00001000
00000100
00000000
,
00000001
00001000
00000100
00000010
00000000
00000000
00000000
00000000
,
00000001
00000000
00000001
00000000
00000010
00000001
00000100
00000000
,
00001000
00000000
00001000
00000000
00010000
01000000
10000000
00000000
,
00100000
00010000
10000000
00000000
01000000
10000000
00010000
00000000
,
00100000
00010000
10000000
01000000
00000000
00000000
00000000
00000000
,
00100000
00010000
10000000
01000000
,
00010000
00010000
00001000
00001000
,
00000010
00000100
00000010
00000000
00001000
00000001
00001000
00000000
,
00000001
00000100
00000010
00001000
00000000
00000000
00000000
00000000
,
00000010
00001000
00010000
00100000
,
00100000
10000000
01000000
00010000
,
00000000
00100000
01000000
00100000
10000000
00010000
10000000
00000000
,
10010000
00000000
00000000
00000000
;

//---------------dance-double - ----------------
#NOTES:
     dance-double:
     :
     Hard:
     6:
     :
00000000
00000000
00000000
00000000
,
00000000
00000000
00000000
00000000
,
00000000
00000000
00000000
00000000
,
00000000
00000000
00000000
00000000
,
00000000
00000000
00000000
00000000
,
01000000
01000000
11000000
00000000
00000000
00000000
01010000
00000000
,
00010000
00010000
01010000
00000000
00000000
00000000
00011000
00000000
,
00001000
00001000
00001100
00000000
00000000
00000000
00001100
00000000
,
00000010
00000001
00000010
00000001
00000010
00000001
00001000
00000000
,
00000100
00001000
00000001
00000100
00000001
00001000
00000010
00000000
,
00001000
00000001
00000010
00000000
00000001
00001000
00000010
00000000
,
00000100
00000001
00001000
00000100
00001000
00000001
00001000
00000100
,
00001000
00000001
00000100
00001000
00020000
00000000
00030000
00000000
,
01000000
10000000
00010000
01000000
00010000
10000000
00100000
00000000
,
10000000
00010000
00100000
00000000
00010000
10000000
00100000
00000000
,
01000000
00010000
10000000
01000000
10000000
00010000
10000000
01000000
,
00010000
00001000
00000100
00000001
00002000
00000000
00003000
00000000
,
00000010
00001000
00000100
00000001
00000100
00010000
00001000
00000000
,
00010000
00001000
00010000
00000000
00001000
00010000
00001000
00000000
,
00010000
01000000
10000000
00100000
10000000
01000000
00100000
00001000
,
00010000
01000000
10000000
00010000
02000000
00000000
03000000
00000000
,
00100000
00010000
01000000
10000000
01000000
00001000
00010000
00000000
,
00001000
00010000
00001000
00000000
00010000
00001000
00010000
00000000
,
00001000
00000100
00000001
00000010
00000001
00000100
00000010
00010000
,
00001000
00000100
00000001
00001000
00000200
00000000
00000300
00000000
,
00001000
00000100
00001000
00000001
00000100
00000000
00000000
00001010
,
00000000
00000001
00000100
00000001
00001000
00000000
00000010
00000010
,
00000100
00000001
00001000
00000010
00001000
00000000
00000000
00000101
,
00000000
00000010
00001000
00000001
00000100
00000000
00001001
00000000
,
00000100
00001000
00010000
01000000
00100000
00000000
00000000
10010000
,
00000000
00010000
10000000
00010000
01000000
00000000
00100000
00100000
,
10000000
00010000
10000000
00010000
01000000
00000000
00000000
10010000
,
00000000
00010000
00100000
01000000
10000000
00000000
00000000
00000000
,
00110000
00000000
10010000
00000000
11000000
00000000
01000000
10000000
,
00100000
10000000
01000000
00100000
00010000
00000000
01000000
00001000
,
00010000
00000010
00010000
00001000
00000100
00000000
00000001
00000010
,
00000100
00001000
00000001
00000100
00000000
00000000
00000000
00000000
,
00001010
00000000
00001001
00000000
00000101
00000000
00000001
00001000
,
00000100
00001000
00000001
00001000
00000010
00000000
00001000
00000001
,
00000010
00000001
00001000
00000001
00000100
00000000
00000001
00000100
,
00001000
00010000
00100000
10000000
00000000
00000000
00000000
00000000
,
10010000
00000000
01100000
00000000
10010000
00000000
10000000
00010000
,
10000000
00100000
10000000
00010000
01000000
00000000
00010000
00100000
,
00010000
10000000
00010000
01000000
00010000
00000000
10000000
01000000
,
00010000
00001000
00000010
00000001
00000000
00000000
00000000
00000000
,
00000110
00000000
00001001
00000000
00000110
00000000
00000010
00000100
,
00001000
00000010
00000100
00000001
00000010
00000000
00000001
00000100
,
00001000
00000100
00001000
00010000
00001000
00000000
00010000
00001000
,
00010000
01000000
00010000
00001000
00000000
00000000
00000000
00010000
,
00000000
01000000
10000000
01000000
00000000
10000000
00100000
10000000
,
00000000
00000000
00000000
00000000
00000000
00000000
00010000
10000000
,
00100000
01000000
00100000
10000000
00010000
00000000
10000000
01000000
,
00010000
00001000
00000010
00000001
00000000
00000000
00000000
00000100
,
00000000
00000010
00001000
00000001
00000000
00001000
00000001
00000010
,
00000000
00000000
00000000
00000000
,
00000000
00000001
00001000
00000100
00000010
00000001
00001000
00000100
,
00001001
00000000
00000000
00000000
;

//---------------dance-solo - ----------------
#NOTES:
     dance-solo:
     :
     Easy:
     2:
     :
000000
000000
000000
000000
,
000000
000000
000000
000000
,
000000
000000
000000
000000
,
000000
000000
000000
000000
,
000000
000000
000000
000000
,
100000
000000
000000
000000
,
000000
000000
000000
000000
,
010000
000000
000000
000000
,
000000
000000
000000
000000
,
100000
001000
000000
000000
,
000001
001000
000000
000000
,
100000
001000
000000
000000
,
000001
000000
000010
000000
,
100000
001000
000000
000000
,
000001
001000
000000
000000
,
100000
001000
000000
000000
,
000001
000000
000010
000000
,
100001
000000
000000
000000
,
001000
000000
000100
000000
,
100000
000000
000010
000000
,
010000
000000
000001
000000
,
100001
000000
000000
000000
,
001000
000000
000100
000000
,
100000
000000
000010
000000
,
010000
000000
000001
000000
,
100000
100000
100000
000000
,
000001
000001
000001
000000
,
000100
001000
010000
000000
,
000001
000000
000001
000000
,
100000
100000
100000
000000
,
000001
000001
000001
000000
,
000100
001000
010000
000000
,
000001
000000
000001
000000
,
100000
000000
000100
000000
,
001000
001000
001000
000000
,
000001
000000
000100
000000
,
001000
001000
001000
000000
,
100000
000000
000100
000000
,
001000
001000
001000
000000
,
000001
000000
000100
000000
,
001000
001000
001000
000000
,
100000
000000
000100
000000
,
001000
000010
100000
000000
,
000001
000000
000100
000000
,
001000
010000
000001
000000
,
100000
000000
001000
000000
,
000100
000001
010000
000000
,
001000
000000
100000
000000
,
000100
001000
000010
000000
,
100000
001000
000000
000001
,
000000
100000
000000
100000
,
000000
001000
000000
000100
,
000001
000010
000001
000000
,
100000
001000
000000
000001
,
000000
001000
000000
000100
,
000000
100000
000001
000100
,
000010
000000
000000
000000
;

//---------------dance-solo - ----------------
#NOTES:
     dance-solo:
     :
     Medium:
     6:
     :
000000
000000
000000
000000
,
000000
000000
000000
000000
,
000000
000000
000000
000000
,
000000
000000
000000
000000
,
000000
000000
000000
000000
,
010000
000100
000000
000000
000000
000000
000000
000000
,
010000
000100
000000
000000
000000
000000
000000
000000
,
010000
000100
000000
000000
000000
000000
000000
000000
,
100000
100000
100000
100000
,
100000
000001
001000
000100
000000
000000
000000
000000
,
100000
000001
001000
000100
000000
000000
000000
000000
,
100000
000001
001000
000100
000000
000000
000000
000000
,
100000
000001
001000
000100
000000
000000
000010
000000
,
100000
000001
000100
000010
000000
000000
000000
000000
,
100000
000001
000100
000010
000000
000000
000000
000000
,
100000
000001
000100
000010
000000
000000
000000
000000
,
100000
000001
000000
000000
001000
000100
001000
000100
,
100000
000000
000000
000000
000001
001000
000010
000000
,
100000
000000
000000
000000
000001
001000
000010
000000
,
100000
000000
000000
000000
000001
001000
000010
000000
,
100000
000000
000000
000000
000001
001000
000010
000000
,
000100
000000
000000
000000
001000
100000
000010
000000
,
001000
000000
000000
000000
000001
100000
001000
000000
,
000100
000000
000000
000000
000001
001000
000010
000000
,
100000
000000
000000
000000
001000
010000
000001
000000
,
100000
001000
100000
000000
000001
000100
000001
000000
,
100000
000100
100000
000000
000001
001000
000001
000000
,
100000
001000
010000
000000
000001
001000
000010
000000
,
001100
100001
001100
000000
,
100000
001000
100000
000000
000001
000100
000001
000000
,
100000
000100
100000
000000
000001
001000
000001
000000
,
100000
001000
010000
000000
000001
001000
000010
000000
,
001100
100001
001100
000000
,
100000
000000
100000
000000
000001
001000
000001
000000
,
100000
000000
100000
000000
000001
000100
000001
000000
,
100000
001000
100000
000000
000001
001000
000001
000000
,
100000
000100
100000
010000
000000
000000
000000
000000
,
000001
000000
000001
000000
100000
001000
100000
000000
,
000001
000000
000001
000000
100000
000100
100000
000000
,
000001
001000
000001
000000
100000
001000
100000
000000
,
000001
000100
000001
000010
000000
000000
000000
000000
,
100000
000000
100000
000000
000010
000100
000010
000000
,
100000
000000
100000
000000
000001
001000
000001
000000
,
100000
000100
010000
000000
000001
000100
000010
000000
,
100000
001000
010000
001000
000000
000000
000000
000000
,
100000
000000
100000
000000
000001
001000
000010
000000
,
100000
000000
100000
000000
000001
000100
000010
000000
,
100000
001000
010000
000000
000001
100000
000010
000000
,
000100
000010
010000
000100
000000
000000
000000
000000
,
010000
000001
100000
001000
,
100000
100000
000001
000001
,
001000
000100
001000
000000
000010
001000
000010
000000
,
100000
000001
010000
000100
000000
000000
000000
000000
,
100000
001000
000100
000001
,
010000
000100
100000
001000
,
000000
000000
000100
001000
000100
000001
000010
000000
,
100001
000000
000000
000000
;

//---------------dance-solo - ----------------
#NOTES:
     dance-solo:
     :
     Hard:
     7:
     :
000000
000000
000000
000000
,
000000
000000
000000
000000
,
000000
000000
000000
000000
,
000000
000000
000000
000000
,
000000
000000
000000
000000
,
100000
000001
100000
000000
000000
000000
100000
000000
,
100000
000001
100000
000000
000000
000000
100000
000000
,
100000
000001
100000
000000
000000
000000
100000
000000
,
100000
001000
100000
001000
100000
001000
100000
001000
,
100000
000001
001000
000100
100000
000100
010000
000000
,
000010
000100
000010
000000
010000
000100
010000
000000
,
000001
000100
001000
100000
000001
001000
000100
100000
,
001000
000100
000001
010000
000100
000000
000000
000000
,
100000
000001
001000
000100
100000
000100
010000
000000
,
000010
000100
000010
000000
010000
000100
010000
000000
,
000001
000100
001000
100000
000001
001000
000100
100000
,
001000
000100
000001
010000
000100
000000
000000
000000
,
100000
001000
100000
001000
010000
000001
010000
000000
,
000100
100000
000100
000000
001000
000001
001000
000000
,
000100
001000
000100
001000
000100
001000
000001
100000
,
000010
010000
001000
100000
100000
000000
000000
000000
,
100000
001000
100000
001000
010000
000001
010000
000000
,
000100
100000
000100
000000
001000
000001
001000
000000
,
000100
001000
000100
001000
000100
001000
000001
100000
,
000010
010000
001000
100000
100000
000000
000000
000000
,
100000
001000
100000
000001
000001
001000
000001
000000
,
100000
001000
000100
000000
000001
001000
000100
000000
,
100000
000001
001000
000100
100000
010000
100000
000100
,
100000
000010
100000
000001
000001
000000
000000
000000
,
100000
001000
100000
000001
000001
001000
000001
000000
,
100000
001000
000100
000000
000001
001000
000100
000000
,
100000
000001
001000
000100
100000
010000
100000
000100
,
100000
000010
100000
000001
000001
000000
000000
000000
,
010000
000000
010000
000000
010000
000000
000010
000100
,
000001
001000
000001
001000
000001
000000
001000
000010
,
100000
000100
100000
000100
100000
000000
001000
010000
,
000001
000100
000001
000100
000000
000000
000000
000000
,
001000
000000
001000
000000
001000
000000
010000
000001
,
100000
001000
100000
000100
100000
000000
000010
000100
,
000001
001000
000001
001000
000001
000000
100000
001000
,
000100
000001
000010
000001
000000
000000
000000
000000
,
010000
000000
010000
000000
010000
000000
000010
000100
,
000001
001000
000001
001000
000001
000000
001000
000010
,
100000
000100
100000
000100
100000
000000
001000
010000
,
000001
000100
000001
000100
000000
000000
000000
000000
,
001000
000000
001000
000000
001000
000000
010000
000001
,
100000
001000
100000
000100
100000
000000
000010
000100
,
000001
001000
000001
001000
000001
000000
100000
001000
,
000100
000001
000010
000001
000000
000000
000000
000000
,
000100
001000
010000
001000
000000
100000
100000
100000
,
000000
000000
000001
000000
000001
000000
001000
000001
,
100000
001000
010000
001000
000100
000000
000001
001000
,
000100
100000
010000
100000
000000
000000
000000
000000
,
000100
001000
010000
001000
000000
100000
100000
100000
,
000000
000001
000001
000001
,
000000
010000
001000
000100
000001
001000
000010
100000
,
000100
000000
000000
000000
;

//---------------dance-double - Edit by silenttype01----------------
#NOTES:
     dance-double:
     Edit by silenttype01:
     Challenge:
     9:
     0.637,0.780,0.189,0.000,0.396: // measure 1
00000000
00000000
00000000
00000000
,  // measure 2
00000000
00000000
00000000
00000000
,  // measure 3
00000000
00000000
00000000
00000000
,  // measure 4
00000000
00000000
00000000
00000000
,  // measure 5
00000000
00000000
00000000
00000000
,  // measure 6
00000010
00000010
00000011
00000000
00000000
00000000
00001010
00000000
,  // measure 7
00001000
00001000
00001010
00000000
00000000
00000000
00011000
00000000
,  // measure 8
00010000
00010000
00110000
00000000
00000000
00000000
00110000
00000000
,  // measure 9
00100000
01000000
10000000
01000000
00100000
01000000
10000000
01000000
00100000
01000000
10000000
01000000
00100000
01000000
10000000
01000000
,  // measure 10
00100000
00000000
00000000
00110000
00000000
00000000
00110000
00000000
00000000
00010000
00100000
00000000
00000000
00000000
00010000
00000000
,  // measure 11
10000000
00000000
00000000
10100000
00000000
00000000
10100000
00000000
00000000
00100000
10000000
00000000
00000000
00000000
00100000
00000000
,  // measure 12
01000000
00000000
00000000
01001000
00000000
00000000
01001000
00000000
00000000
00001000
01000000
00000000
00000000
00000000
00001000
00000000
,  // measure 13
00010000
00000000
00000000
00011000
00000000
00000000
00011000
00000000
00000000
00001000
00010000
00000000
00000000
00000000
00000100
00001000
,  // measure 14
00000100
00000000
00000000
00010000
00000100
00000000
00001000
00000000
00000000
00000100
00001000
00000000
00000000
00000000
00000010
00001000
,  // measure 15
00000010
00000000
00000000
00010000
00000010
00000000
00001000
00000000
00000000
00000010
00001000
00000000
00000000
00000000
00000001
00000010
,  // measure 16
00000001
00000000
00000000
00000100
00000001
00000000
00000010
00000000
00000000
00000001
00000100
00000000
00000000
00000000
00000001
00001000
,  // measure 17
00000001
00001001
00000011
00000110
,  // measure 18
00001000
00001000
00000100
00000010
00000000
00000010
00000100
00000000
,  // measure 19
00000001
00000000
00000001
00000000
00000100
00000000
00001000
00000000
00000000
00000100
00001000
00000000
00000001
00000000
00000010
00000000
,  // measure 20
00001000
00001000
00000010
00000001
00000000
00000001
00001000
00000000
,  // measure 21
00000001
00000000
00000001
00000000
00000100
00000000
00001000
00000000
00000000
00000100
00000001
00000000
00000100
00000000
00001000
00000000
,  // measure 22
00010000
00010000
00001000
00010000
00000000
00010000
00001000
00000000
,  // measure 23
00010000
00000000
00010000
00000000
01000000
00000000
00010000
00000000
00000000
01000000
10000000
00000000
01000000
00000000
10000000
00000000
,  // measure 24
00100000
00000000
00100000
00000000
01000000
00000000
00010000
00000000
00000000
00000000
00010000
00000000
00100000
00000000
00010000
01000000
,  // measure 25
00010000
00000000
00000000
00010000
00100000
00000000
00000000
00100000
01000000
00000000
10000000
00000000
00010000
10000000
00010000
10000000
,  // measure 26
00010000
10000000
00100000
10000000
01000000
10000000
01000000
10000000
,  // measure 27
01000000
00010000
01000000
00010000
00001000
00010000
00001000
00010000
,  // measure 28
00001000
00000100
00001000
00000100
00000001
00000100
00000001
00000100
,  // measure 29
00000001
00000010
00000001
00000010
00001000
00000010
00001000
00000010
,  // measure 30
00001000
00000100
00001000
00000100
00010000
00001000
00010000
00001000
,  // measure 31
00100000
00010000
00100000
00010000
10000000
01000000
10000000
01000000
,  // measure 32
00010000
01000000
00010000
01000000
00100000
10000000
00010000
00100000
,  // measure 33
01000000
00000000
00000000
01000000
10000000
00000000
00000000
10000000
00100000
00000000
00100000
00000000
10000000
00010000
10000000
00010000
,  // measure 34
10000000
01000000
10000000
00100000
00000000
00100000
10000000
00000000
,  // measure 35
00010000
01000000
10000000
01000000
00000000
01000000
00010000
00100000
,  // measure 36
10000000
00010000
01000000
10000000
00000000
10000000
00100000
00000000
,  // measure 37
00010000
00001000
00010000
00100000
00000000
00010000
00001000
00010000
,  // measure 38
00001000
00000000
00000010
00000000
00000001
00000000
00000010
00000000
00000000
00000100
00000010
00000000
00000100
00000000
00000000
00000000
,  // measure 39
00000010
00000000
00000001
00000000
00000100
00000000
00000001
00000000
00000000
00000100
00000001
00000000
00000010
00000000
00000100
00000000
,  // measure 40
00010000
00000000
00000010
00000000
00000100
00000000
00000001
00000000
00000000
00000100
00000010
00000000
00001000
00000000
00000000
00000000
,  // measure 41
00000010
00000000
00010000
00000000
00000100
00000000
00001000
00000000
00000000
00000100
00001000
00000000
00000010
00000000
00000100
00000000
,  // measure 42
00001000
00000000
00010000
00001000
00010000
00000000
00001000
00000000
00000000
00010000
00001000
00000000
00010000
00000000
00000000
00000000
,  // measure 43
00001000
00000000
00100000
00010000
00100000
00000000
00010000
00000000
00000000
01000000
00010000
00000000
00100000
00000000
00001000
00000000
,  // measure 44
00010000
00000000
00001000
01000000
00001000
00000000
00010000
00000000
00000000
01000000
10000000
00000000
00010000
00000000
00000000
00000000
,  // measure 45
10000000
00000000
00100000
10000000
00100000
00000000
10000000
00000000
00000000
00010000
01000000
00000000
00010000
00000000
01000000
00000000
,  // measure 46
00100000
00000000
01000000
00100000
01000000
00000000
00010000
00000000
00000000
10000000
00100000
00000000
01000000
00000000
00000000
00000000
,  // measure 47
00100000
00000000
10000000
01000000
10000000
00000000
00100000
00000000
00000000
10000000
01000000
00000000
00100000
00000000
01000000
00000000
,  // measure 48
00010000
00000000
00001000
00010000
00001000
00000000
00010000
00000000
00000000
00000010
00000100
00000000
00000010
00000000
00000000
00000000
,  // measure 49
00000100
00000000
00001000
00010000
00001000
00000000
00100000
00000000
00000000
00001000
00100000
00000000
00001000
00000000
00010000
00000000
,  // measure 50
00100000
00000000
01000000
00010000
10000000
00000000
00010000
00000000
00000000
10000000
01000000
00000000
10000000
00000000
00000000
00000000
,  // measure 51
01000000
00000000
10000000
00010000
01000000
00000000
00010000
00000000
00000000
10000000
00100000
00000000
00010000
00000000
00001000
00000000
,  // measure 52
00000100
00000000
00000010
00001000
00000001
00000000
00001000
00000000
00000000
00000001
00000100
00000000
00000001
00000000
00000000
00000000
,  // measure 53
00001000
00000000
00000001
00000010
00000100
00000000
00000010
00000000
00000000
00001000
00010000
00000000
01000000
00000000
10000000
00000000
,  // measure 54
00100000
00000000
10000000
01000000
00100000
00000000
00010000
00000000
00000000
01000000
00100000
00000000
00010000
00000000
00000000
00000000
,  // measure 55
00100000
00000000
00010000
00001000
00000100
00000000
00001000
00000000
00000000
00010000
00100000
00000000
10000000
00000000
00100000
01000000
,  // measure 56
00M00000
M0000000
000M0000
0M000000
00M00000
M0000000
000M0000
0M000000
,  // measure 57
M00M0000
00000000
00000000
00000000
;

//---------------dance-double - Copied from----------------
#NOTES:
     dance-double:
     Copied from:
     Edit:
     9:
     0.624,0.718,0.100,0.000,0.396:
00000000
00000000
00000000
00000000
,
00000000
00000000
00000000
00000000
,
00000000
00000000
00000000
00000000
,
00000000
00000000
00000000
00000000
,
00000000
00000000
00000000
00000000
,
00000010
00000010
00000011
00000000
00000000
00000000
00001010
00000000
,
00001000
00001000
00001010
00000000
00000000
00000000
00011000
00000000
,
00010000
00010000
00110000
00000000
00000000
00000000
00110000
00000000
,
00100000
01000000
10000000
01000000
00100000
01000000
10000000
01000000
00100000
01000000
10000000
01000000
00100000
01000000
10000000
01000000
,
00100000
00000000
00000000
00100000
00000000
00000000
00100000
00000000
00000000
00010000
00100000
00000000
00000000
00000000
01000000
00000000
,
10000000
00000000
00000000
00100000
00000000
00000000
10000000
00000000
00000000
00100000
10000000
00000000
00000000
00000000
00100000
00000000
,
00010000
00000000
00000000
00001000
00000000
00000000
00010000
00000000
00000000
00001000
00010000
00000000
00000000
00000000
00001000
00000000
,
00000100
00000000
00000000
00000010
00000000
00000000
00010000
00000000
00000000
00001000
00010000
00000000
00000000
00000000
00000100
00001000
,
00000100
00000000
00000000
00000010
00000100
00000000
00001000
00000000
00000000
00000100
00001000
00000000
00000000
00000000
00000001
00000100
,
00000001
00000000
00000000
00000100
00000001
00000000
00001000
00000000
00000000
00000100
00001000
00000000
00000000
00000000
00000001
00000010
,
00000001
00000000
00000000
00000010
00000001
00000000
00000100
00000000
00000000
00000001
00000100
00000000
00000000
00000000
00000010
00010000
,
00000010
00010010
00001010
00000110
,
00000001
00000001
00000100
00000010
00000000
00000010
00000100
00000000
,
00000001
00000000
00000001
00000000
00000010
00000000
00000100
00000000
00000000
00000100
00001000
00000000
00000001
00000000
00000010
00000000
,
00001000
00001000
00010000
00001000
00000000
00001000
00010000
00000000
,
00001000
00000000
00001000
00000000
00000100
00000000
00001000
00000000
00000000
00001000
00010000
00000000
00100000
00000000
00010000
00000000
,
00100000
00100000
10000000
00010000
00000000
00010000
10000000
00000000
,
01000000
00000000
01000000
00000000
00100000
00000000
00001000
00000000
00000000
00001000
00010000
00000000
01000000
00000000
00100000
00000000
,
00010000
00000000
00010000
00000000
10000000
00000000
01000000
00000000
00000000
00000000
01000000
00000000
00100000
00000000
00010000
01000000
,
00010000
00000000
00000000
00010000
00100000
00000000
00000000
00100000
01000000
00000000
10000000
00000000
00010000
10000000
00010000
10000000
,
00010000
10000000
00100000
10000000
01000000
10000000
01000000
10000000
,
01000000
00010000
01000000
00010000
00001000
00010000
00001000
00010000
,
00001000
00000100
00001000
00000100
00000001
00000100
00000001
00000100
,
00000001
00000010
00000001
00000010
00001000
00000010
00001000
00000010
,
00001000
00000100
00001000
00000100
00010000
00001000
00010000
00001000
,
00100000
00010000
00100000
00010000
10000000
01000000
10000000
01000000
,
00010000
01000000
00010000
01000000
00100000
10000000
00010000
00100000
,
01000000
00000000
00000000
01000000
10000000
00000000
00000000
10000000
00100000
00000000
00100000
00000000
00010000
00001000
00010000
00001000
,
00010000
00000100
00001000
00000010
00000000
00000010
00001000
00000000
,
00000001
00000100
00001000
01000000
00000000
01000000
00010000
00100000
,
10000000
00010000
01000000
10000000
00000000
10000000
00100000
00000000
,
00010000
00000010
00000001
00001000
00000000
00000100
00000001
00000010
,
00000001
00000000
00001000
00000000
00000001
00000000
00000010
00000000
00000000
00001000
00010000
00000000
01000000
00000000
00000000
00000000
,
00010000
00000000
00001000
00000000
00010000
00000000
01000000
00000000
00000000
01000000
00010000
00000000
00001000
00000000
00000010
00000000
,
00000001
00000000
00000010
00000000
00000100
00000000
00000010
00000000
00000000
00001000
00010000
00000000
01000000
00000000
00000000
00000000
,
10000000
00000000
01000000
00000000
00010000
00000000
01000000
00000000
00000000
10000000
01000000
00000000
00010000
00000000
01000000
00000000
,
10000000
00000000
01000000
00100000
01000000
00000000
00100000
00000000
00000000
00001000
00010000
00000000
00001000
00000000
00000000
00000000
,
00010000
00000000
00100000
00010000
00100000
00000000
00010000
00000000
00000000
00100000
00010000
00000000
00001000
00000000
00000100
00000000
,
00000001
00000000
00000100
00000010
00000100
00000000
00000010
00000000
00000000
00010000
00001000
00000000
00010000
00000000
00000000
00000000
,
00001000
00000000
00000010
00001000
00000010
00000000
00001000
00000000
00000000
00000010
00001000
00000000
00010000
00000000
01000000
00000000
,
10000000
00000000
01000000
10000000
01000000
00000000
10000000
00000000
00000000
00010000
00100000
00000000
01000000
00000000
00000000
00000000
,
00100000
00000000
00001000
00010000
00001000
00000000
00100000
00000000
00000000
00001000
00000010
00000000
00001000
00000000
00000010
00000000
,
00000100
00000000
00000010
00000001
00000010
00000000
00000001
00000000
00000000
00001000
00000010
00000000
00000100
00000000
00000000
00000000
,
00000010
00000000
00010000
00001000
00010000
00000000
00000010
00000000
00000000
00010000
00100000
00000000
00010000
00000000
00100000
00000000
,
10000000
00000000
01000000
10000000
00100000
00000000
10000000
00000000
00000000
00100000
00010000
00000000
00001000
00000000
00000000
00000000
,
00010000
00000000
00001000
00010000
00000010
00000000
00000100
00000000
00000000
00000010
00001000
00000000
00000100
00000000
00010000
00000000
,
00001000
00000000
00000010
00000001
00001000
00000000
00000001
00000000
00000000
00000100
00001000
00000000
00010000
00000000
00000000
00000000
,
00001000
00000000
00010000
00100000
01000000
00000000
00010000
00000000
00000000
00100000
00001000
00000000
00010000
00000000
00100000
00000000
,
10000000
00000000
01000000
00100000
00010000
00000000
10000000
00000000
00000000
00100000
00010000
00000000
00100000
00000000
00000000
00000000
,
00010000
00000000
00001000
01000000
00010000
00000000
00100000
00000000
00000000
00001000
00010000
00000000
01000000
00000000
00100000
01000000
,
00M00000
000M0000
M0000000
0M000000
00M00000
000M0000
M0000000
0M000000
,
M00M0000
00000000
00000000
00000000
;

//---------------dance-single - Edit by silenttype01----------------
#NOTES:
     dance-single:
     Edit by silenttype01:
     Challenge:
     9:
     0.637,0.780,0.189,0.000,0.396:
0000
0000
0000
0000
,
0000
0000
0000
0000
,
0000
0000
0000
0000
,
0000
0000
0000
0000
,
0000
0000
0000
0000
,
0001
0001
0011
0000
0000
0000
0011
0000
,
1000
1000
1010
0000
0000
0000
1010
0000
,
0010
0010
0110
0000
0000
0000
0110
0000
,
0010
0100
0001
0100
0010
0100
0001
0100
0010
0100
0001
0100
0010
0100
0001
0100
,
0010
0000
0000
0110
0000
0000
0110
0000
0000
0100
0010
0000
0000
0000
1000
0000
,
0001
0000
0000
1001
0000
0000
1001
0000
0000
0001
1000
0000
0000
0000
0100
0000
,
1000
0000
0000
1100
0000
0000
1100
0000
0000
1000
0100
0000
0000
0000
0010
0000
,
0001
0000
0000
0011
0000
0000
0011
0000
0000
0001
0010
0000
0000
0000
0001
1000
,
0001
0000
0000
1000
0001
0000
1000
0000
0000
0001
1000
0000
0000
0000
0001
0010
,
0001
0000
0000
1000
0010
0000
1000
0000
0000
0001
0010
0000
0000
0000
0100
1000
,
0100
0000
0000
1000
0001
0000
0100
0000
0000
0001
1000
0000
0000
0000
0100
1000
,
0100
1100
0110
0011
,
1000
1000
0100
0010
0000
0010
0100
0000
,
0001
0000
0001
0000
0100
0000
0010
0000
0000
0100
0010
0000
0100
0000
1000
0000
,
0001
0001
0100
0010
0000
0010
0100
0000
,
1000
0000
1000
0000
0100
0000
0010
0000
0000
0100
0010
0000
0100
0000
0001
0000
,
1000
1000
0100
0010
0000
0010
0001
0000
,
0100
0000
0100
0000
0010
0000
1000
0000
0000
0100
0010
0000
0001
0000
0100
0000
,
0001
0000
0001
0000
0100
0000
0010
0000
0000
0000
0010
0000
1000
0000
0100
0010
,
0100
0000
0000
0010
0001
0000
0000
0001
1000
0000
0001
0000
1000
0001
1000
0001
,
1000
0100
1000
0100
0010
0001
0010
0001
,
1000
0100
0010
0001
1000
0100
0010
0001
,
0100
0001
0100
0001
1000
0010
1000
0010
,
0100
0001
1000
0010
0100
0001
1000
0010
,
0100
1000
0100
1000
0001
0010
0001
0010
,
0100
1000
0001
0010
0100
1000
0001
0010
,
0100
1000
0010
0100
1000
0001
0100
0010
,
0010
0000
0000
0010
1000
0000
0000
1000
0001
0000
0001
0000
0100
0001
0100
0001
,
0100
0001
0100
0010
0000
0010
0010
0000
,
1000
0100
1000
0100
0000
0100
0100
0010
,
0001
1000
0001
0100
0000
0100
0100
0000
,
0010
1000
0010
1000
0000
1000
1000
0100
,
0010
0000
0001
0000
0100
0000
0001
0000
0000
1000
0100
0000
1000
0000
0000
0000
,
0100
0000
1000
0000
0100
0000
0010
0000
0000
0100
1000
0000
0100
0000
0010
0000
,
0001
0000
0100
0000
0010
0000
1000
0000
0000
0001
0100
0000
0001
0000
0000
0000
,
0100
0000
0001
0000
0100
0000
0010
0000
0000
0100
0001
0000
1000
0000
0010
0000
,
0100
0000
0001
1000
0001
0000
1000
0000
0000
0100
0010
0000
0001
0000
0000
0000
,
1000
0000
0100
0010
0100
0000
0010
0000
0000
0001
1000
0000
0100
0000
0001
0000
,
0100
0000
0010
0100
0010
0000
0100
0000
0000
1000
0001
0000
0100
0000
0000
0000
,
0001
0000
0100
0010
0100
0000
1000
0000
0000
0100
0010
0000
1000
0000
0001
0000
,
0100
0000
0010
0100
0010
0000
1000
0000
0000
0001
0100
0000
1000
0000
0000
0000
,
0100
0000
0001
1000
0001
0000
0010
0000
0000
0100
1000
0000
0001
0000
0010
0000
,
0100
0000
1000
0001
1000
0000
0010
0000
0000
0100
0001
0000
1000
0000
0000
0000
,
0100
0000
1000
0100
1000
0000
0010
0000
0000
1000
0010
0000
0001
0000
0010
0000
,
1000
0000
0001
0100
0010
0000
1000
0000
0000
0100
0010
0000
0001
0000
0000
0000
,
1000
0000
0010
0100
0001
0000
1000
0000
0000
0010
0100
0000
0001
0000
1000
0000
,
0100
0000
0010
0001
0100
0000
0010
0000
0000
1000
0100
0000
0010
0000
0000
0000
,
0001
0000
0100
0010
1000
0000
0100
0000
0000
0010
0100
0000
1000
0000
0010
0000
,
0001
0000
0010
0100
0010
0000
0100
0000
0000
1000
0100
0000
0001
0000
0000
0000
,
1000
0000
0100
0010
0001
0000
1000
0000
0000
0001
0010
0000
1000
0000
0010
0100
,
00M0
M000
0M00
00M0
000M
0M00
000M
M000
,
00M0
0000
0000
0000
;
