#TITLE:DREAM A DREAM;
#SUBTITLE:(EURO SHORTMIX);
#ARTIST:CAPTAIN JACK;
#TITLETRANSLIT:;
#SUBTITLETRANSLIT:;
#ARTISTTRANSLIT:;
#CREDIT:;
#BANNER:DREAM A DREAM (EURO SHORTMIX).png;
#BACKGROUND:DREAM A DREAM (EURO SHORTMIX)-bg.png;
#LYRICSPATH:;
#CDTITLE:Dance Dance Revolution 4th Mix.png;
#MUSIC:DREAM A DREAM (EURO SHORTMIX).ogg;
#OFFSET:0.000;
#SAMPLESTART:64.674;
#SAMPLELENGTH:15.000;
#SELECTABLE:YES;
#DISPLAYBPM:141.000;
#BPMS:0.000=141.500,4.000=141.000;
#STOPS:;
#BGCHANGES:0.000=DREAM A DREAM (EURO SHORTMIX)-bg.png=1.000=0=0=1,
1.000=DREAM A DREAM (EURO SHORTMIX).avi=1.000=0=0=0,
203.000=DREAM A DREAM (EURO SHORTMIX)-bg.png=1.000=0=0=1,
99999=-nosongbg-=1.000=0=0=0 // don't automatically add -songbackground-
;

//---------------dance-single - ----------------
#NOTES:
     dance-single:
     :
     Beginner:
     1:
     0.163,0.194,0.102,0.000,0.000:
0000
0000
0000
0000
,
0000
0000
0000
0000
,
0000
0000
0000
0000
,
0000
0000
0000
0000
,
0000
0000
0000
0000
,
0000
0000
0000
0000
,
1000
0000
0001
0000
,
1000
0000
0010
0000
,
0001
0000
0010
0000
,
1000
1000
1000
0000
,
0001
0000
0100
0000
,
0010
0000
1000
0000
,
1000
0000
0010
0000
,
1001
0000
0000
0000
,
0010
0010
0000
0100
,
0000
0001
0000
1000
,
0000
0100
0000
1000
,
0000
0100
0100
0000
,
0010
0010
0000
0001
,
0000
1000
0000
0100
,
0000
0001
0000
0010
,
0000
1000
1000
0000
,
1001
0000
0010
0000
,
0001
0000
1000
0000
,
0001
0000
0100
0100
,
0000
1000
1000
0000
,
1001
0000
0100
0000
,
0001
0000
0100
0000
,
0001
0001
0000
0100
,
0000
1001
0000
0000
,
0010
0000
0010
0000
,
1000
0000
1000
0000
,
0010
0000
1000
0000
,
0010
0000
0001
0000
,
1000
0000
1000
0000
,
0100
0000
0100
0000
,
1000
0000
0010
0000
,
1000
0000
0100
0000
,
1001
0000
0110
0000
,
1000
0000
0100
0000
,
0010
0000
1000
1000
,
0000
0100
0100
0000
,
1001
0000
0110
0000
,
0001
0000
0100
0000
,
1000
0000
0100
0000
,
0001
0001
0001
0000
,
1000
0000
0100
0000
,
0010
0000
0001
0000
,
0001
0000
0010
0000
,
1001
0000
0000
0000
;

//---------------dance-single - ----------------
#NOTES:
     dance-single:
     :
     Easy:
     4:
     0.241,0.249,0.102,0.000,0.000:
0000
0000
0000
0000
,
0000
0000
0000
0000
,
0000
0000
0000
0000
,
0000
0000
0000
0000
,
0000
0000
0000
0000
,
0000
0000
0000
0000
,
1000
0000
0001
0000
,
1000
0100
0010
0000
,
0001
0100
0010
0000
,
1000
1000
1000
0000
,
0001
0000
0100
0000
,
0010
0000
1000
0000
,
1000
0100
0010
0001
,
1001
0000
0000
0000
,
0010
0010
0100
0100
,
0001
0001
1000
1000
,
0010
0100
0001
1000
,
0100
0100
0100
0000
,
0010
0010
0001
0001
,
1000
1000
0100
0100
,
0010
0001
0100
0010
,
1000
1000
1000
0000
,
1001
0000
0010
0100
,
0001
0100
1000
0100
,
0001
0010
0100
0100
,
1000
1000
1000
0000
,
1001
0000
0100
0010
,
0001
1000
0100
0010
,
0001
0001
0100
0100
,
0010
1001
0100
0000
,
0010
0001
0010
0001
,
1000
0100
1000
0100
,
0010
0001
1000
0100
,
0010
0001
0001
0000
,
1000
0010
1000
0010
,
0100
0001
0100
0001
,
1000
0100
0010
0001
,
1000
0100
0100
0000
,
1001
0000
0110
0000
,
1000
0100
0100
0000
,
0010
0001
1000
1000
,
0010
0100
0100
0000
,
1001
0000
0110
0000
,
0001
0010
0100
0000
,
1000
0010
0100
0000
,
0001
0001
0001
0000
,
1000
0000
0100
0000
,
0010
0000
0001
0000
,
0001
0100
0010
1000
,
1001
0000
0000
0000
;

//---------------dance-single - ----------------
#NOTES:
     dance-single:
     :
     Medium:
     6:
     0.328,0.360,0.181,0.000,0.000:
0000
0000
0000
0000
,
0000
0000
0000
0000
,
0000
0000
0000
0000
,
0000
0000
0000
0000
,
0000
0000
0000
0000
,
0000
0000
0000
0000
,
1000
0000
1000
0000
0001
0100
0001
0000
,
1000
0000
1000
0000
0001
0010
0001
0000
,
1000
0100
1000
0000
0001
0100
0001
0000
,
1000
0010
1000
0010
0000
0000
0000
0000
,
1000
0100
0010
0001
,
1000
0010
1000
0100
,
0000
0010
0100
0010
0100
0000
1001
0000
,
0110
0000
0000
0000
,
1000
0001
0100
0010
0000
0000
0000
0000
,
1001
0000
0110
0000
,
1000
0001
0100
0010
0000
0000
0000
0000
,
1000
0001
0100
0000
,
0010
1000
0100
0010
0000
0000
0000
0000
,
1001
0000
0110
0000
,
0001
0010
0100
1000
0000
0000
0000
0000
,
1001
0000
0110
0000
,
1000
0000
0000
0000
0001
0100
0001
0000
,
1000
0000
0000
0000
0001
0100
0001
0000
,
1000
0000
0000
0000
0001
0100
0001
0000
,
1000
0000
0000
0000
0001
0100
0001
0000
,
0010
0000
0000
0000
0100
1000
0001
0000
,
0100
0000
0000
0000
0001
1000
0100
0000
,
0010
0000
0000
0000
0001
0100
0001
0000
,
1000
0000
0000
0000
0100
1000
0001
0000
,
1000
0100
1000
0000
0001
0010
0001
0000
,
1000
0010
1000
0000
0001
0100
0001
0000
,
1000
0100
1000
0000
0001
0100
0001
0000
,
0110
1001
0110
0000
,
1000
0100
1000
0000
0001
0010
0001
0000
,
1000
0010
1000
0000
0001
0100
0001
0000
,
1000
0100
1000
0000
0001
0100
0001
0000
,
0110
1001
0110
0000
,
1000
0000
1000
0000
0001
0100
0001
0000
,
1000
0000
1000
0000
0001
0010
0001
0000
,
1000
0100
1000
0000
0001
0100
0001
0000
,
1000
0010
1000
0010
0000
0000
0000
0000
,
0001
0000
0001
0000
1000
0100
1000
0000
,
0001
0000
0001
0000
1000
0010
1000
0000
,
0001
0100
0001
0000
1000
0100
1000
0000
,
0001
0010
0001
0010
0000
0000
0000
0000
,
1000
0100
0010
0001
,
1000
0010
1000
0100
,
0000
0010
0100
0010
0100
0000
1001
0000
,
0110
0000
0000
0000
;

//---------------dance-single - ----------------
#NOTES:
     dance-single:
     :
     Hard:
     7:
     0.418,0.415,0.090,0.000,0.000:
0000
0000
0000
0000
,
0000
0000
0000
0000
,
0000
0000
0000
0000
,
0000
0000
0000
0000
,
0000
0000
0000
0000
,
0000
0000
0000
0000
,
0100
0000
0010
0000
0100
0000
1000
0001
,
1000
0100
1000
0010
1000
0000
0001
0010
,
0001
0100
0001
0100
0001
0000
1000
0100
,
0010
0001
0010
0001
0000
0000
0000
0000
,
0100
0010
1000
0010
0000
1000
1000
1000
,
0000
0001
1000
0001
,
0000
0010
0100
1000
0001
0100
0010
1000
,
0001
0000
0000
0000
,
1001
0000
1100
0000
0001
0100
0001
0000
,
0010
0100
0010
0000
0001
1000
0100
0000
,
1001
0000
0101
0000
1000
0100
1000
0000
,
0010
0100
0001
0010
0100
0000
0000
0000
,
1001
0000
1100
0000
0001
0100
0001
0000
,
0010
0100
0010
0000
0001
1000
0100
0000
,
1001
0000
0101
0000
1000
0100
1000
0000
,
0010
0100
0001
0010
0100
0000
0000
0000
,
1000
0100
1000
0100
1000
0001
1000
0000
,
0010
1000
0010
0000
0100
0001
0100
0000
,
0010
0100
0010
0100
0010
0100
0001
1000
,
0001
1000
0100
1000
1000
0000
0000
0000
,
1000
0100
1000
0100
1000
0001
1000
0000
,
0010
1000
0010
0000
0100
0001
0100
0000
,
0010
0100
0010
0100
0010
0100
0001
1000
,
0001
1000
0100
1000
1000
0000
0000
0000
,
1000
0100
1000
0001
0001
0100
0001
0000
,
1000
0100
0010
0000
0001
0100
0010
0000
,
1000
0001
0100
0010
1000
0010
1000
0010
,
1000
0001
1000
0001
0001
0000
0000
0000
,
1000
0100
1000
0001
0001
0100
0001
0000
,
1000
0100
0010
0000
0001
0100
0010
0000
,
1000
0001
0100
0010
1000
0010
1000
0010
,
1000
0001
1000
0001
0001
0000
0000
0000
,
1000
0000
0100
0000
1000
0000
0001
0010
,
0001
0100
0001
0100
0001
0000
0100
0001
,
1000
0100
1000
0100
1000
0000
0100
1000
,
0001
0010
0001
0010
0000
0000
0000
0000
,
0100
0000
0100
0000
0100
0000
1000
0001
,
1000
0100
1000
0010
1000
0000
0001
0010
,
0001
0100
0001
0100
0001
0000
1000
0100
,
0010
0001
0010
0001
0000
0000
0000
0000
,
0100
0010
1000
0010
0000
1000
1000
1000
,
0000
0001
1000
0001
,
0000
0010
0100
1000
0001
0100
0010
1000
,
0001
0000
0000
0000
;

//---------------dance-double - ----------------
#NOTES:
     dance-double:
     :
     Easy:
     4:
     0.261,0.305,0.147,0.000,0.000:
00000000
00000000
00000000
00000000
,
00000000
00000000
00000000
00000000
,
00000000
00000000
00000000
00000000
,
00000000
00000000
00000000
00000000
,
00000000
00000000
00000000
00000000
,
00000000
00000000
00000000
00000000
,
00100000
00000000
00000000
00000000
,
01000000
00100000
00001000
00000000
,
00010000
00000100
00000010
00000000
,
00000001
00001000
00000001
00000000
,
00000010
00000000
00000100
00000000
,
00010000
00000000
00001000
00000000
,
00100000
01000000
10000000
00010000
,
01100000
00000000
00000000
00000000
,
10000000
10000000
01000000
00100000
,
00001000
00000100
00010000
01000000
,
10000000
10000000
00100000
01000000
,
00001000
00010000
00000100
00000000
,
00000010
00000010
00000001
00000100
,
00001000
00100000
01000000
10000000
,
00010000
00010000
01000000
00001000
,
00010000
00000100
00000010
00000000
,
00001001
00000100
00010000
00010000
,
00001000
00100000
01000000
10000000
,
10010000
00100000
00001000
00001000
,
00010000
00000100
00000010
00000000
,
00001001
00000100
00010000
00010000
,
00001000
00100000
01000000
10000000
,
10010000
01000000
00001000
00001000
,
00010000
00000010
00000100
00001001
,
00000100
00010000
00000100
00000010
,
00000001
00001000
00000100
00010000
,
00001000
00100000
01000000
10000000
,
00010000
01000000
01000000
00000000
,
00001000
00010000
00000100
00000010
,
00000001
00000100
00001000
00000100
,
00010000
00001000
00100000
01000000
,
10010000
01100000
01100000
00000000
,
10000000
01000000
00100000
00010000
,
01000000
00001000
00001000
00010000
,
00000100
00000010
00000010
00000001
,
00001000
00000100
00010000
00000000
,
00001000
00100000
00100000
00010000
,
10000000
01000000
01000000
00100000
,
00001000
00010000
00000100
00000010
,
00000001
00001000
00001000
00000000
,
00000100
00010000
00000000
00011000
,
00000000
10010000
00000000
01100000
,
00000000
00010000
00100000
00001000
,
00011000
00000000
00000000
00000000
;

//---------------dance-double - ----------------
#NOTES:
     dance-double:
     :
     Medium:
     6:
     0.342,0.360,0.395,0.000,0.000:
00000000
00000000
00000000
00000000
,
00000000
00000000
00000000
00000000
,
00000000
00000000
00000000
00000000
,
00000000
00000000
00000000
00000000
,
00000000
00000000
00000000
00000000
,
00000000
00000000
00000000
00000000
,
10000000
00000000
00010000
00100000
00001000
00000000
00010000
00000000
,
00000100
00000000
00000010
00000001
00000100
00000000
00000010
00000000
,
00001000
00000000
00000100
00010000
00001000
00000000
00100000
00000000
,
00010000
10000000
01000000
00100000
,
00010000
00010000
01000000
01000000
,
00001000
00010000
00000100
00000010
,
00001001
00000000
00000000
00000000
,
00011000
00000000
00000000
00000000
,
00100000
01000000
10000000
00000000
00010000
00000000
00010000
00000000
,
01000000
00001000
00010000
00000000
00000100
00000010
00000001
00000000
,
00001000
00000000
00001000
00000000
00000100
00010000
00001000
00000000
,
00110000
10010000
11000000
00000000
,
00100000
00010000
01000000
00000000
00001000
00000000
00001000
00000000
,
00010000
00000100
00001000
00000000
00000001
00000100
00000010
00000000
,
00010000
00000000
00010000
00000000
00001000
00100000
00010000
00000000
,
11000000
01010000
00011000
00000000
,
00001001
00000000
00000100
00001000
00000100
00000000
00000000
00000000
,
00000000
00000000
00011000
00000000
00100000
00010000
00100000
00000000
,
00000000
00000000
11000000
00000000
00100000
00010000
00100000
00000000
,
00011000
00001010
00000101
00000000
,
00001100
00000000
00000000
00000000
00010000
00001000
00010000
00000000
,
00000000
00000000
00110000
00000000
10000000
00100000
01000000
00000000
,
00000000
00000000
00011000
00000000
00000100
00000010
00000001
00000000
,
00000101
00001100
00011000
00000000
,
00100000
00010000
10000000
01100000
,
00001000
00010000
00000100
00001001
,
00000100
00000010
00001000
00000000
00000100
00000000
00011000
00000000
,
00100000
01000000
10000000
00000000
,
00100000
01000000
00010000
00011000
,
00000100
00000010
00000001
00001100
,
00010000
00001000
00100000
00000000
00010000
00000000
01001000
00000000
,
00010000
00000000
00000100
00000010
00000001
00000000
00000000
00000000
,
00001000
00000000
00000100
00000000
00010000
00001000
00100000
00000000
,
01000000
10000000
00010000
01000000
,
00001000
00010000
00000100
00000000
00001000
00000000
00000001
00000000
,
00000110
00001100
00010010
00000000
,
00001000
00000000
01000000
00000000
00100000
00000000
10000000
01000000
,
00100000
00000000
00010000
00000000
01000000
00000000
00001000
00010000
,
00000100
00000010
00000001
00001000
,
00010100
00101000
10010000
00000000
,
01000000
00000000
00100000
00000000
00001000
00000000
00010000
00000100
,
00000000
00001001
00000000
00000110
,
00000001
00000000
00000100
00000000
00000010
00010000
00001000
00000000
,
10010000
00000000
00000000
00000000
;

//---------------dance-double - ----------------
#NOTES:
     dance-double:
     :
     Hard:
     7:
     0.378,0.443,0.316,0.000,0.000:
00000000
00000000
00000000
00000000
,
00000000
00000000
00000000
00000000
,
00000000
00000000
00000000
00000000
,
00000000
00000000
00000000
00000000
,
00000000
00000000
00000000
00000000
,
00000000
00000000
00000000
00000000
,
10000000
00000000
00010000
00000000
01000000
00000000
00001000
00001000
,
00001000
00000000
00000000
00000000
00000000
00000000
00010000
00010000
,
00010000
00000000
00000000
00000000
00000000
00000000
00000100
00000100
,
00000100
00000000
00000000
00000000
,
00000010
00000000
00001001
00000000
,
00000100
00000000
00011000
00000000
,
00100000
01000000
10000000
00010000
,
00000000
00000000
00000000
00000000
,
00011000
00000000
00000000
00000000
00000010
00000100
00000001
00000000
,
00001000
00000000
00000100
00000000
00010000
00001000
00100000
00000000
,
10010000
01100000
10010000
01100000
,
10000000
01000000
00100000
00010000
01000000
00000000
00011000
00000000
,
00000100
00000010
00000001
00001000
00000100
00010000
00001000
00000000
,
00100000
00010000
10000000
00000000
00001000
00010000
00001000
00000000
,
01000000
00100000
10000000
01000000
00100000
00010000
01000000
00000000
,
00010010
00001001
00000110
00000000
,
00001000
00000001
00000000
00000100
00000010
00010000
00010000
00000000
,
00001000
10000000
00000000
01000000
00100000
00001000
00001000
00000000
,
00010000
00000100
00000000
00000010
00000001
00001000
00001000
00000000
,
00011000
10010000
11000000
00000000
,
00100000
00010000
00000000
01000000
00001000
00010000
00010000
00000000
,
00000100
00000010
00000000
00000001
00001000
00000100
00000100
00000000
,
00010000
00001000
00000000
10010000
00000000
01100000
00000000
10010000
,
00000000
01100000
00000000
01100000
00000000
01100000
00000000
00000000
,
10000000
01000000
00100000
00010000
01000000
00000000
00000000
00000000
,
00001000
00010000
00000100
00000010
00000001
00000000
00000000
00000000
,
00001000
00000100
00010000
00001000
00100000
00010000
10000000
00000000
,
00100000
00100000
00100000
00100000
00000000
00000000
10010000
00000000
,
00100000
00001000
00010000
00000100
00000000
00000100
00000100
00000000
,
00000010
00000001
00001000
00000100
00000000
00000100
00000100
00000000
,
00010000
00001000
00100000
00010000
10000000
01000000
00100000
00000000
,
10010000
01100000
10010000
00000000
,
01000000
01000000
00001000
00001000
00010000
00000000
00000000
00000000
,
00000100
00000100
00000010
00000010
00000001
00000000
00000000
00000000
,
00001000
00000100
00010000
00000000
00001000
01000000
00010000
00000000
,
00100000
01000000
10000000
00010000
00000000
00000000
00000000
00000000
,
01000000
01000000
00010000
00010000
00100000
00000000
00000000
00000000
,
00001000
00001000
00010000
00010000
00000100
00000000
00000000
00000000
,
00000010
00000001
00000100
00000010
00001000
00000100
00010000
00000000
,
00101000
10010000
01001000
00000000
,
00010000
00000100
00000010
00000001
00000000
00000100
00000100
00000100
,
00000000
00000000
00001100
00000000
00010000
00001000
00010000
00000000
,
00000000
00000010
00001000
00000100
00010000
00001000
01000000
00100000
,
10000000
00000000
00000000
00000000
;

//---------------dance-couple - ----------------
#NOTES:
     dance-couple:
     :
     Challenge:
     2:
     0.368,0.498,0.452,0.000,0.000:
00000000
00000000
00000000
00000000
,
00000000
00000000
00000000
00000000
,
00000000
00000000
00000000
00000000
,
00000000
00000000
00000000
00000000
,
00000000
00000000
00000000
00000000
,
00000000
00000000
00000000
00000000
,
10000000
00000000
00010000
00000000
,
10000000
01000000
00100000
00000000
,
00010000
01000000
00100000
00000000
,
10000000
10000000
10000000
00000000
,
00001000
00000100
00000010
00000000
,
00000001
00000000
00001000
00000000
,
00000001
00000100
00000010
00000000
,
00001000
00001000
00001000
00000000
,
10010001
00000000
11000000
00000000
00010000
01000000
00010000
00000000
,
00100001
01000000
00100000
00000000
00010000
10000000
01000000
00000000
,
10010001
00000000
01010000
00000000
10000000
01000000
10000000
00000000
,
00100001
01000000
00010000
00100000
01000000
00000000
00000000
00000000
,
10001001
00000000
00001100
00000000
00000001
00000100
00000001
00000000
,
10000010
00000100
00000010
00000000
00000001
00001000
00000100
00000000
,
10001001
00000000
00000101
00000000
00001000
00000100
00001000
00000000
,
10000010
00000100
00000001
00000010
00000100
00000000
00000000
00000000
,
10000000
00000000
00000000
00000000
00010000
01000000
00010000
00000000
,
00001000
00000000
00000000
00000000
00000001
00000100
00000001
00000000
,
10000000
00000000
00000000
00000000
00010000
01000000
00010000
00000000
,
00001000
00000000
00000000
00000000
00000001
00000100
00000001
00000000
,
00100000
00000000
00000000
00000000
01000000
10000000
00010000
00000000
,
00000010
00000000
00000000
00000000
00000100
00001000
00000001
00000000
,
01000000
00000000
00000000
00000000
00010000
10000000
01000000
00000000
,
00000100
00000000
00000000
00000000
00000001
00001000
00000100
00000000
,
10000000
01000000
10000000
00000000
00001000
00000100
00001000
00000000
,
00010000
00100000
00010000
00000000
00000001
00000010
00000001
00000000
,
10000000
00100000
10000000
00000000
00001000
00000010
00001000
00000000
,
01100000
00001001
01100000
00000000
,
00001000
00000100
00001000
00000000
10000000
01000000
10000000
00000000
,
00000001
00000010
00000001
00000000
00010000
00100000
00010000
00000000
,
00001000
00000010
00001000
00000000
10000000
00100000
10000000
00000000
,
00000110
10010000
00000110
00000000
,
10010000
00000001
01100000
00000001
,
10000000
01000001
01000000
00000001
,
00100000
00010001
10000000
10000001
,
00100000
01000000
01000000
00000000
,
00001001
10000000
00000110
10000000
,
00001000
10000100
00000100
10000000
,
00000010
10000001
00001000
10001000
,
00000010
00000100
00000100
00000000
,
00011000
00100100
01000010
10000001
,
00000000
00100100
00000000
01000010
,
00000000
00100100
01000010
00100100
01000010
00000000
10011001
00000000
,
01100110
00000000
00000000
00000000
;

//---------------dance-solo - ----------------
#NOTES:
     dance-solo:
     :
     Easy:
     4:
     0.252,0.305,0.136,0.000,0.000:
000000
000000
000000
000000
,
000000
000000
000000
000000
,
000000
000000
000000
000000
,
000000
000000
000000
000000
,
000000
000000
000000
000000
,
000000
000000
000000
000000
,
000010
000000
001000
000000
,
000001
100000
001000
000000
,
000100
000001
100000
000000
,
001000
001000
001000
000000
,
010000
000000
000001
000000
,
000100
000010
010000
000000
,
001000
000100
000001
100000
,
001000
000000
000000
000000
,
000001
000001
100000
100000
,
000010
000100
000001
100000
,
000100
000100
001000
001000
,
000010
100000
000100
000000
,
010000
010000
000010
000010
,
100000
001000
000100
000001
,
001000
001000
000100
000100
,
100001
001100
100001
000000
,
001000
000000
000100
000001
,
100000
001000
010000
000001
,
001000
000000
000010
100000
,
001000
001000
001000
000000
,
100001
000000
001000
000100
,
100000
000000
001000
000000
,
100001
000000
000100
001000
,
010000
000010
000100
000000
,
001000
001000
100000
100000
,
000001
000001
001000
000010
,
100000
100000
001000
001000
,
000100
000001
010000
000010
,
100000
100000
001000
001000
,
000100
000001
010000
000010
,
001000
001000
000100
000100
,
100001
001100
100001
000000
,
010000
001000
000100
100001
,
000010
001000
000100
000000
,
100000
001000
000001
001000
,
000100
000100
000100
000000
,
100000
001000
010000
100001
,
001000
000010
100000
000000
,
000100
010000
001000
001000
,
000100
000001
100000
000000
,
100001
001000
000000
000100
,
000000
000001
010000
000010
,
000000
000100
001000
000100
,
100001
000000
000000
000000
;

//---------------dance-solo - ----------------
#NOTES:
     dance-solo:
     :
     Medium:
     5:
     0.336,0.360,0.113,0.000,0.000:
000000
000000
000000
000000
,
000000
000000
000000
000000
,
000000
000000
000000
000000
,
000000
000000
000000
000000
,
000000
000000
000000
000000
,
000000
000000
000000
000000
,
000001
000000
000001
000000
100000
001000
100000
000000
,
000001
000000
000001
000000
100000
000100
100000
000000
,
000001
001000
000001
000000
100000
001000
100000
000000
,
000001
000100
000001
000010
000000
000000
000000
000000
,
000100
001000
100000
000001
,
010000
001000
000100
000001
,
000000
100000
000100
001000
000010
000000
100001
000000
,
001100
000000
000000
000000
,
100000
000000
100000
000000
001000
010000
001000
000000
,
000100
000100
000001
000001
,
010000
000000
010000
000000
000010
000100
000010
000000
,
001000
000100
100000
000000
,
000001
000000
000001
000000
001000
000010
001000
000000
,
000100
000100
100000
100000
,
000010
000000
000010
000000
010000
000100
010000
000000
,
001000
000100
000001
000000
,
100000
000000
000000
000000
000001
001000
000010
000000
,
100000
000000
000000
000000
000001
001000
000010
000000
,
100000
000000
000000
000000
000001
001000
000010
000000
,
100000
000000
100000
000000
000001
001000
000010
000000
,
000100
000000
000000
000000
001000
100000
000010
000000
,
001000
000000
000000
000000
000001
100000
001000
000000
,
000100
000000
000000
000000
000001
001000
000010
000000
,
100000
000000
100000
000000
001000
010000
000001
000000
,
100000
001000
100000
000000
000001
000100
000001
000000
,
100000
000100
100000
000000
000001
001000
000001
000000
,
100000
001000
010000
000000
000001
001000
000010
000000
,
001100
100001
001100
000000
,
100000
001000
100000
000000
000001
000100
000001
000000
,
100000
000100
100000
000000
000001
001000
000001
000000
,
100000
001000
010000
000000
000001
001000
000010
000000
,
001100
100001
001100
000000
,
100000
000000
100000
000000
000001
001000
000001
000000
,
100000
000000
100000
000000
000001
000100
000001
000000
,
100000
001000
100000
000000
000001
001000
000001
000000
,
100000
000100
100000
010000
000000
000000
000000
000000
,
000001
000000
000001
000000
100000
001000
100000
000000
,
000001
000000
000001
000000
100000
000100
100000
000000
,
000001
001000
000001
000000
100000
001000
100000
000000
,
000001
000100
000001
000010
000000
000000
000000
000000
,
010000
000010
001000
000001
,
100000
000100
001000
000001
,
000000
000100
001000
010000
000001
000000
100010
000000
,
001100
000000
000000
000000
;

//---------------dance-solo - ----------------
#NOTES:
     dance-solo:
     :
     Hard:
     7:
     0.410,0.388,0.068,0.000,0.000:
000000
000000
000000
000000
,
000000
000000
000000
000000
,
000000
000000
000000
000000
,
000000
000000
000000
000000
,
000000
000000
000000
000000
,
000000
000000
000000
000000
,
001000
000000
001000
000000
001000
000000
010000
000001
,
100000
001000
100000
000100
100000
000000
000010
000100
,
000001
001000
000001
001000
000001
000000
100000
001000
,
000100
000001
000010
000001
000000
000000
000000
000000
,
000100
001000
010000
001000
000000
100000
100000
100000
,
000000
000001
000001
000001
,
000000
010000
001000
000100
000001
001000
000010
100000
,
000100
000000
000000
000000
,
010000
001000
000100
000001
010000
001000
001000
000000
,
000000
100001
000000
001100
,
010000
000001
100000
000100
001000
000001
100000
000010
,
000000
010100
000000
100001
,
001000
000100
000001
010000
000010
100000
001000
000000
,
000000
001001
000000
101000
,
000100
000001
010000
000010
100000
000100
001000
000001
,
000100
000010
000010
000000
,
100000
001000
100000
001000
010000
000001
010000
000000
,
000100
100000
000100
000000
001000
000001
001000
000000
,
000100
001000
000100
001000
000100
001000
000001
100000
,
000010
010000
001000
100000
100000
000000
000000
000000
,
100000
001000
100000
001000
010000
000001
010000
000000
,
000100
100000
000100
000000
001000
000001
001000
000000
,
000100
001000
000100
001000
000100
001000
000001
100000
,
000010
010000
001000
100000
100000
000000
000000
000000
,
100000
001000
100000
000001
000001
001000
000001
000000
,
100000
001000
000100
000000
000001
001000
000100
000000
,
100000
000001
001000
000100
100000
010000
100000
000100
,
100000
000010
100000
000001
000001
000000
000000
000000
,
100000
001000
100000
000001
000001
001000
000001
000000
,
100000
001000
000100
000000
000001
001000
000100
000000
,
100000
000001
001000
000100
100000
010000
100000
000100
,
100000
000010
100000
000001
000001
000000
000000
000000
,
010000
000000
010000
000000
010000
000000
000010
000100
,
000001
001000
000001
001000
000001
000000
001000
000010
,
100000
000100
100000
000100
100000
000000
001000
010000
,
000001
000100
000001
000100
000000
000000
000000
000000
,
001000
000000
001000
000000
001000
000000
010000
000001
,
100000
001000
100000
000100
100000
000000
000010
000100
,
000001
001000
000001
001000
000001
000000
100000
001000
,
000100
000001
000010
000001
000000
000000
000000
000000
,
000100
001000
010000
001000
000000
100000
100000
100000
,
000000
000001
000001
000001
,
000000
010000
001000
000100
000001
001000
000010
100000
,
000100
000000
000000
000000
;

//---------------dance-single - Edit by silenttype01----------------
#NOTES:
     dance-single:
     Edit by silenttype01:
     Challenge:
     7:
     0.484,0.573,0.418,0.158,0.011:
0000
0000
0000
0000
,
0000
0000
0000
0000
,
0000
0000
0000
0000
,
0000
0000
0000
0000
,
0000
0000
0000
0000
,
0000
0000
0000
0000
,
0000
0001
0000
0001
0000
0001
0000
0001
,
0000
0010
0000
0010
0000
0010
0000
0010
,
0000
0100
0000
0100
0000
0100
0000
0100
,
0000
1000
0000
1000
0000
1000
0000
2000
,
0000
3010
0100
0001
0000
1000
0100
0010
,
0001
1000
0001
1000
0001
0000
0100
0000
0010
0000
1000
0000
0100
0000
1000
0000
,
0001
0100
1000
0100
0010
1000
0001
0100
,
0220
0000
0330
0000
,
0100
1000
0001
1000
0010
0100
0101
0000
,
0010
0100
1100
0000
0100
0001
1001
0000
,
0100
0001
1000
0001
0010
0100
1000
0010
,
0100
0001
1000
0100
0020
0000
0030
0000
,
0100
1000
0001
1000
0010
0100
1001
0000
,
0001
0100
1100
0000
1000
0100
0101
0000
,
1000
0100
0001
0100
1000
0010
0100
0001
,
1000
0010
1000
0100
0002
0000
0003
0000
,
0100
0000
1000
0000
0001
0100
0002
0000
,
1003
0010
2000
0000
3100
1000
0002
0000
,
0103
0000
0001
0000
1000
0100
1000
0010
,
0100
0100
0110
0000
,
0001
0000
0010
0000
0100
1000
0200
0000
,
0310
0001
0020
0000
0031
0100
0002
0000
,
1003
0100
0010
0001
0100
0010
1000
0001
,
0010
0100
1000
0001
0100
1000
1100
0000
,
0001
0010
0001
0100
1000
0000
1000
0001
,
0000
1000
0100
0001
1000
0000
1000
0100
,
0010
0001
0100
0010
1000
0000
1000
0010
,
0000
0010
0100
1000
0001
0000
0100
1000
,
0001
0100
0010
1000
0100
0000
0100
0001
,
0000
1000
0001
0100
1000
0000
1000
0010
,
0100
0001
1000
0100
0010
0000
0010
0001
,
0000
0001
0100
1000
0010
0000
0000
0000
,
1100
0110
0011
0101
,
1100
0000
0110
0000
0011
0000
0110
1010
,
1001
0000
1100
0000
0110
0000
0011
2001
,
0100
0100
0100
3100
,
0011
0110
1100
1010
,
0011
0000
0110
0000
1100
0000
0101
1001
,
1100
0000
0101
0000
1010
0000
0110
0012
,
0100
0100
0100
0103
,
0001
0000
0001
0000
0001
0000
0001
0010
,
0100
0000
0100
0000
0100
0000
0100
0010
,
0001
0100
1000
0100
0001
0010
1000
0010
,
1000
0100
0000
0001
0000
1000
0000
0001
,
0200
0000
0000
0300
;

//---------------dance-double - Edit by silenttype01----------------
#NOTES:
     dance-double:
     Edit by silenttype01:
     Challenge:
     7:
     0.484,0.573,0.418,0.158,0.011: // measure 1
00000000
00000000
00000000
00000000
,  // measure 2
00000000
00000000
00000000
00000000
,  // measure 3
00000000
00000000
00000000
00000000
,  // measure 4
00000000
00000000
00000000
00000000
,  // measure 5
00000000
00000000
00000000
00000000
,  // measure 6
00000000
00000000
00000000
00000000
,  // measure 7
00000000
10000000
00000000
10000000
00000000
10000000
00000000
10000000
,  // measure 8
00000000
00100000
00000000
00100000
00000000
00100000
00000000
00100000
,  // measure 9
00000000
01000000
00000000
01000000
00000000
01000000
00000000
01000000
,  // measure 10
00000000
00010000
00000000
00010000
00000000
00010000
00000000
00020000
,  // measure 11
00000000
00130000
01000000
10000000
00000000
00010000
01000000
00100000
,  // measure 12
10000000
00010000
10000000
00010000
10000000
00000000
01000000
00000000
00100000
00000000
00010000
00000000
01000000
00000000
00010000
00000000
,  // measure 13
10000000
01000000
00010000
01000000
00100000
00010000
10000000
01000000
,  // measure 14
02200000
00000000
03300000
00000000
,  // measure 15
10000000
01000000
00100000
00010000
00001000
00000100
00001100
00000000
,  // measure 16
00000010
00000001
00000011
00000000
00001000
00000100
00001100
00000000
,  // measure 17
00000001
00000100
00000010
00001000
00010000
01000000
00100000
10000000
,  // measure 18
00100000
01000000
00010000
00001000
00000020
00000000
00000030
00000000
,  // measure 19
00000001
00000010
00000100
00001000
00010000
00100000
00110000
00000000
,  // measure 20
01000000
10000000
11000000
00000000
00010000
00100000
00110000
00000000
,  // measure 21
10000000
00100000
01000000
00010000
00001000
00000010
00000100
00000001
,  // measure 22
00000100
00000010
00001000
00010000
00200000
00000000
00300000
00000000
,  // measure 23
01000000
00000000
10000000
00000000
00010000
01000000
00020000
00000000
,  // measure 24
10030000
00100000
20000000
00000000
30010000
01000000
00020000
00000000
,  // measure 25
10030000
00000000
01000000
00000000
00010000
00001000
00010000
00001000
,  // measure 26
00010000
00010000
00011000
00000000
,  // measure 27
00000100
00000000
00000001
00000000
00001000
00000100
00002000
00000000
,  // measure 28
00003001
00000010
00000002
00000000
00001003
00000100
00002000
00000000
,  // measure 29
00003001
00000100
00001000
00010000
01000000
10000000
01000000
00010000
,  // measure 30
00001000
00000100
00000100
00000100
00000001
00000001
00001001
00000000
,  // measure 31
00000001
00000100
00000010
00000100
00001000
00000000
00001000
00000100
,  // measure 32
00000000
00000100
00001000
00010000
01000000
00000000
01000000
00100000
,  // measure 33
01000000
00010000
01000000
10000000
00010000
00000000
00010000
10000000
,  // measure 34
00000000
10000000
00100000
01000000
00010000
00000000
00010000
00100000
,  // measure 35
01000000
10000000
00010000
01000000
00100000
00000000
00100000
00010000
,  // measure 36
00000000
00010000
00001000
00000100
00000010
00000000
00001000
00000001
,  // measure 37
00000010
00000100
00000010
00000001
00001000
00000000
00001000
00010000
,  // measure 38
00000000
00010000
01000000
10000000
00100000
00000000
00000000
00000000
,  // measure 39
11000000
01100000
00110000
00001100
,  // measure 40
00000110
00000000
00000011
00000000
00000101
00000000
00001010
00001001
,  // measure 41
00000101
00000000
00000110
00000000
00001010
00000000
01010000
02100000
,  // measure 42
00100000
00100000
00100000
03100000
,  // measure 43
10100000
00110000
00011000
00001100
,  // measure 44
00000101
00000000
00001001
00000000
00000011
00000000
00001010
00011000
,  // measure 45
01010000
00000000
11000000
00000000
10010000
00000000
10100000
01200000
,  // measure 46
01000000
01000000
01000000
01300000
,  // measure 47
00100000
00000000
00100000
00000000
00100000
00000000
00100000
00010000
,  // measure 48
00000010
00000000
00000010
00000000
00000010
00000000
00000010
00001000
,  // measure 49
00000100
00000001
00000100
00001000
00000010
00000001
00000010
00001000
,  // measure 50
00010000
01000000
00000000
01000000
00000000
01000000
00000000
01000000
,  // measure 51
02000000
00000000
00000000
03000000
;
