#TITLE:Dragon Blade;
#SUBTITLE:;
#ARTIST:Kozo Nakamura;
#TITLETRANSLIT:;
#SUBTITLETRANSLIT:;
#ARTISTTRANSLIT:;
#CREDIT:;
#BANNER:Dragon Blade.png;
#BACKGROUND:Dragon Blade-bg.png;
#LYRICSPATH:;
#CDTITLE:./CDTITLES/GuitarFreaks & DrumMania.png;
#MUSIC:Dragon Blade.mp3;
#OFFSET:0.899;
#SAMPLESTART:27.310;
#SAMPLELENGTH:10.000;
#SELECTABLE:YES;
#BPMS:0.000=240.000;
#STOPS:;
#BGCHANGES:;

//---------------dance-single - ----------------
#NOTES:
     dance-single:
     :
     Easy:
     5:
     0.398,0.445,0.086,0.021,0.000:
0000
0000
0000
0000
,
0000
0000
0000
0000
,
0000
0000
0000
0000
,
0000
0000
0000
0000
,
0000
0000
0000
0000
,
1000
0100
1000
0000
,
0001
0010
0001
0000
,
1000
0100
1000
0000
,
0001
0010
0001
0000
,
0010
0010
0100
0000
,
0010
0010
0100
0000
,
1000
0100
1000
0100
,
0010
0001
0010
0001
,
1000
0100
0010
0001
,
1000
0100
0010
0001
,
1000
0000
0100
1000
,
0001
0000
0010
0001
,
1000
0000
0000
0001
0000
1000
0000
0100
,
0000
0000
0000
0010
0000
0100
0000
0000
,
1000
0100
1000
0100
,
0010
0001
0010
0001
,
1000
0100
0010
0001
,
1000
0100
0010
0001
,
1000
0001
1000
0000
,
0000
0001
1000
0001
,
0100
0000
0100
0000
,
0010
0000
0010
0000
,
1000
0000
0000
0000
0001
0000
0000
1000
,
0000
0010
0010
0000
,
0100
0000
0000
0001
0000
0000
1000
0000
,
0000
0010
0010
0000
,
1000
0001
0100
0000
,
0001
1000
0100
0000
,
1000
0001
0010
0000
,
0001
1000
0010
0000
,
1000
0000
0000
0000
0001
0000
0000
0010
,
0000
0100
0000
0100
0000
0100
0000
0000
,
0010
0000
0000
0010
0000
0000
0010
0000
,
0001
0000
1000
0000
,
0100
0000
0100
0000
,
0010
0000
0010
0000
,
0001
0000
0000
0001
0000
0000
1000
0000
,
0000
1000
0000
0000
0001
0000
1000
0000
,
0100
0000
0000
0100
0000
0000
0010
0000
,
0000
0100
0100
0100
,
0010
0000
1000
0000
,
0001
0000
0100
0000
,
0010
0000
1000
0000
,
0001
0000
0100
0000
,
1000
0000
0001
0000
,
0010
0000
0100
0000
,
1000
0000
1000
0000
,
0001
0000
0001
0000
,
0010
1000
0010
0000
,
0100
0001
0100
0000
,
0010
1000
0001
0000
,
0100
0001
1000
0000
,
0010
1000
0010
0000
,
0100
0001
0100
0000
,
0010
1000
0001
0000
,
0100
0001
1000
0000
,
0100
0000
0100
0000
,
0010
0001
1000
0000
,
0100
0000
0100
0000
,
0010
0001
1000
0000
,
0100
0000
0100
0000
,
0010
0001
1000
0000
,
0100
0000
0100
0000
,
1000
0000
0001
0000
,
1000
1000
1000
0000
,
0001
0001
0001
0000
,
1001
0000
0000
1001
0000
0000
1001
0000
,
0000
0100
0100
0000
,
1000
0100
1000
0100
,
0010
0001
0010
0001
,
1000
0100
0010
0001
,
1000
0100
0010
0001
,
1000
0000
0100
1000
,
0001
0000
0010
0001
,
1000
0000
0000
0001
0000
1000
0000
0100
,
0000
0000
0000
0010
0000
0100
0000
0000
,
1000
0100
1000
0100
,
0010
0001
0010
0001
,
1000
0100
0010
0001
,
1000
0100
0010
0001
,
1000
0000
0100
1000
,
0001
0000
0010
0001
,
1000
0001
1000
0000
,
1001
0000
0110
0000
,
1001
0000
0110
0000
,
0000
0000
0000
0000
,
2002
0000
0000
0000
,
3003
0000
0000
0000
;

//---------------dance-single - ----------------
#NOTES:
     dance-single:
     :
     Medium:
     6:
     0.493,0.494,0.086,0.021,0.000:
0000
0000
0000
0000
,
0000
0000
0000
0000
,
0000
0000
0000
0000
,
0000
0000
0000
0000
,
0000
0000
0000
0000
,
1000
0100
1000
0010
,
0100
0001
0010
0001
,
1000
0100
0010
0001
,
0100
0010
1000
0001
,
0010
0010
1000
0000
,
0010
0010
0001
0000
,
1000
1000
0100
0100
,
0001
0001
0100
0100
,
1000
0100
0001
0100
,
0010
1000
0010
0001
,
1000
1000
0100
0100
,
0010
0010
0001
0001
,
0010
0100
0000
0100
0000
0100
0000
1000
,
0000
0001
0000
0001
0000
0001
0000
0000
,
1000
1000
0100
0100
,
0001
0001
0100
0100
,
1000
0100
0001
0100
,
0010
1000
0010
0001
,
1000
0000
0001
0000
1000
0000
0000
0100
,
0000
1000
0001
1000
,
0001
0100
0001
0000
,
1000
0010
1000
0000
,
0001
0000
0000
0000
1000
0000
0001
1000
,
0000
0100
0100
0100
,
0010
0000
0000
0001
0000
0000
1000
0000
,
0000
0010
0010
0010
,
1000
0001
0100
0001
,
1000
0001
0010
0001
,
1000
0001
0100
0010
,
1000
0001
0010
0100
,
1000
0000
0000
0000
0001
0100
0000
0010
,
0000
0100
0000
0001
0000
1000
0000
0010
,
0100
0000
0000
0100
0000
0000
0100
0000
,
0010
1000
0001
0000
,
0100
0000
1000
0000
,
0010
0000
0001
0000
,
0010
0001
0000
0001
1000
0000
1000
0010
,
0000
0010
0100
0000
0001
0000
1000
0000
,
0001
1000
0000
0010
0100
0000
0001
1000
,
0000
0100
0010
0100
,
0010
0000
1000
1000
,
0001
0001
0100
0000
,
0010
0000
1000
1000
,
0001
0001
0100
0000
,
1000
0000
0001
0000
,
0010
0000
0000
0000
0100
0010
0000
0000
,
0001
0001
1000
1000
,
0010
0010
0100
0000
,
0010
1000
0100
1000
,
0010
1000
0010
0001
,
0010
1000
0001
0100
,
0010
0010
0100
0000
,
0010
0001
0100
0001
,
0010
0001
0010
1000
,
0010
0001
1000
0100
,
0010
0010
0100
0000
,
0010
0100
1000
0001
,
0100
0000
0010
1000
0000
0000
0010
0000
,
1000
0001
0010
0100
,
1000
0000
0001
0100
0000
0000
0001
0000
,
0010
0100
1000
0001
,
0100
0000
0000
0010
0000
0000
1000
0000
,
0001
1000
0010
0100
,
0001
0000
1000
0000
0100
0010
0100
0000
,
1000
0000
1000
0000
0001
0100
0000
0000
,
0001
0000
0001
0000
1000
0100
0000
0000
,
1100
0000
0000
1001
0000
0000
0011
0000
,
0000
0100
0100
0000
,
1000
1000
0100
0100
,
0001
0001
0100
0100
,
1000
0100
0001
0100
,
0010
1000
0010
0001
,
1000
1000
0100
0100
,
0010
0010
0001
0001
,
0010
0100
0000
0100
0000
0100
0000
1000
,
0000
0001
0000
0001
0000
0001
0000
0000
,
1000
1000
0100
0100
,
0001
0001
0100
0100
,
1000
0100
0001
0100
,
0010
1000
0010
0001
,
1000
0000
0001
0000
1000
0000
0000
0100
,
0000
1000
0001
1000
,
0001
0100
0001
0000
,
1100
0000
0011
0000
,
0101
0000
1010
0000
,
0000
0000
0000
0000
,
2002
0000
0000
0000
,
3003
0000
0000
0000
;

//---------------dance-single - ----------------
#NOTES:
     dance-single:
     :
     Hard:
     8:
     0.615,0.593,0.043,0.021,0.043:
0000
0000
0000
0000
,
0000
0000
0000
0000
,
0000
0000
0000
0000
,
0000
0000
0000
0000
,
0000
0000
0000
0000
,
1000
0100
1000
0010
,
0100
0001
0010
0001
,
1000
0100
0010
0001
,
0100
0000
0010
0000
1000
0001
1000
0000
,
0001
0000
0001
0000
1000
0001
0000
0100
,
0010
0000
0010
0000
0100
0010
0000
1000
,
0001
0100
0001
0000
1000
0010
1000
0000
,
0001
0100
0010
1000
,
0001
0010
0001
0000
1000
0100
1000
0000
,
0001
0010
0100
1000
,
0010
0100
0010
0000
1000
0001
1000
0000
,
0100
0010
0100
0000
1000
0001
1000
0000
,
0010
1000
0000
1000
0000
1000
0000
0100
,
0000
0001
0000
0001
0000
0001
0000
0000
,
0100
1000
0100
0000
0010
0001
0010
0000
,
0001
0100
0010
1000
,
0001
0100
0001
0000
1000
0010
1000
0000
,
0001
0010
0100
1000
,
0010
0100
0010
0000
1000
0000
0100
0010
,
0000
0001
1000
0000
0001
0000
0100
0000
,
0010
1000
0010
0000
1000
0000
1000
0000
,
0001
0100
0001
0000
0100
0000
0100
0000
,
0010
0000
0010
0000
1000
0001
1000
0001
,
0000
0100
0100
0100
,
0010
0000
1000
0100
0000
0100
0010
0000
,
0000
0001
0100
0001
,
0010
0000
0001
1000
0001
0000
0100
0000
,
0010
0000
1000
0001
1000
0000
0100
0000
,
0010
0000
1000
0001
1000
0000
0100
0000
,
0010
0000
0001
1000
0001
0000
0100
0000
,
0010
0000
1000
0000
0001
0100
0000
0010
,
0000
0100
0000
0001
0000
1000
0000
0010
,
0100
0000
0000
0100
0000
0000
0100
0000
,
0010
1000
0001
0100
,
0010
0000
1000
0100
1000
0000
0001
1000
,
0001
0000
0010
0001
0010
0000
0100
0000
,
0010
0001
0000
0001
1000
0000
1000
0010
,
0000
0010
0100
0000
0001
0000
1000
0000
,
0001
1000
0000
0010
0100
0000
0001
1000
,
0000
0100
0010
0100
,
1000
0001
0000
0000
0100
0000
0010
0000
,
1000
0000
0001
0000
0010
0100
0000
0000
,
1000
0001
0000
0000
0100
0000
0010
0000
,
1000
0001
0100
0000
,
0010
0100
0000
0000
0001
1000
0000
0000
,
0010
0100
0000
0000
0001
1000
0000
0000
,
0001
0001
1000
1000
,
0010
0100
0010
0000
0100
0000
0000
0000
,
0010
1000
0100
1000
,
0010
1000
0010
0001
,
0010
1000
0001
0100
,
0010
1000
0010
0000
0001
0000
0001
0000
,
0010
0001
0100
0001
,
0010
0001
0010
1000
,
0010
0001
1000
0100
,
0010
0001
0010
0000
1000
0000
1000
0000
,
0010
0100
0001
1000
,
0100
0000
0010
0001
0000
0001
0010
0000
,
0001
1000
0010
0100
,
0001
0000
1000
0100
0000
0100
1000
0000
,
0010
0100
0001
1000
,
0100
0000
0010
0001
0000
0001
0010
0000
,
0001
1000
0010
0100
,
0001
0100
0001
0000
1000
0010
1000
0000
,
0010
0000
0010
0000
1000
0100
0000
0100
,
0010
0000
0010
0000
0001
1000
0000
0000
,
0101
0000
0000
1001
0000
0000
1010
0000
,
0000
0000
0100
0010
0100
0000
0000
0000
,
0001
0100
0001
0000
1000
0010
1000
0000
,
0001
0100
0010
1000
,
0001
0010
0001
0000
1000
0100
1000
0000
,
0001
0010
0100
1000
,
0010
0100
0010
0000
1000
0001
1000
0000
,
0100
0010
0100
0000
1000
0001
1000
0000
,
0010
1000
0000
1000
0000
1000
0000
0100
,
0000
0001
0000
0001
0000
0001
0000
0000
,
0100
1000
0100
0000
0010
0001
0010
0000
,
0001
0100
0010
1000
,
0001
0100
0001
0000
1000
0010
1000
0000
,
0001
0010
0100
1000
,
0010
0100
0010
0000
1000
0000
0100
0010
,
0000
0001
1000
0000
0001
0000
0100
0000
,
0010
1000
0010
0000
1000
0000
1000
0000
,
0001
0000
0000
0000
0000
0000
0000
0000
0000
0000
0100
0000
0000
0000
0000
0000
0000
0000
0000
0000
0000
0001
0000
0000
0000
0000
0000
0000
0000
0000
0000
0000
1000
0000
0000
0000
0000
0000
0000
0000
0000
0000
0010
0000
0000
0000
0000
0000
0000
0000
0000
0000
0000
1000
0000
0000
0000
0000
0000
0000
0000
0000
0000
0000
,
0001
0000
0000
0000
0000
0000
0000
0000
0000
0000
1000
0000
0000
0000
0000
0000
0000
0000
0000
0000
0000
0001
0000
0000
0000
0000
0000
0000
0000
0000
0000
0000
0010
0000
0000
0000
0000
0000
0000
0000
0000
0000
0100
0000
0000
0000
0000
0000
0000
0000
0000
0000
0000
0010
0000
0000
0000
0000
0000
0000
0000
0000
0000
0000
,
0000
0000
0000
0000
,
2002
0000
0000
0000
,
3003
0000
0000
0000
;

//---------------dance-double - ----------------
#NOTES:
     dance-double:
     :
     Easy:
     6:
     0.396,0.445,0.086,0.021,0.000:
00000000
00000000
00000000
00000000
,
00000000
00000000
00000000
00000000
,
00000000
00000000
00000000
00000000
,
00000000
00000000
00000000
00000000
,
00000000
00000000
00000000
00000000
,
10000000
01000000
10000000
00000000
,
01000000
00010000
01000000
00000000
,
00010000
00001000
00010000
00000000
,
00001000
00000010
00001000
00000000
,
00000010
00000010
00000001
00000000
,
00001000
00001000
00000001
00000000
,
00000010
00000001
00000010
00000001
,
00000100
00001000
00000100
00001000
,
00010000
00100000
10000000
00100000
,
10000000
01000000
00100000
00010000
,
10000000
00000000
01000000
10000000
,
00010000
00000000
00100000
00010000
,
10000000
00000000
00000000
01000000
00000000
00010000
00000000
01000000
,
00000000
00000000
00000000
00010000
00000000
00001000
00000000
00000000
,
00000010
00000001
00000010
00000001
,
00000100
00001000
00000100
00001000
,
00010000
00100000
10000000
00010000
,
10000000
01000000
00100000
00010000
,
10000000
00010000
10000000
00000000
,
00000000
01000000
00100000
01000000
,
00100000
00000000
00100000
00000000
,
00001000
00000000
00001000
00000000
,
00010000
00000000
00000000
00000000
00001000
00000000
00000000
00010000
,
00000000
00000010
00000010
00000000
,
00000100
00000000
00000000
00000001
00000000
00000000
00001000
00000000
,
00000000
00000010
00000010
00000000
,
00000100
00001000
00010000
00000000
,
00001000
00010000
00100000
00000000
,
10000000
00010000
00100000
00000000
,
01000000
00010000
00001000
00000000
,
00000000
00000000
01000000
00000000
00100000
00000000
00000000
10000000
,
00000000
01000000
00000000
00010000
00000000
00001000
00000000
00000000
,
00000100
00000000
00000000
00000100
00000000
00000000
00000100
00000000
,
00000001
00000000
00001000
00000000
,
00000100
00000000
00000100
00000000
,
00000010
00000000
00000010
00000000
,
00000001
00000000
00000000
00000100
00000000
00000000
00000010
00000000
,
00000000
00010000
00000000
00000000
00001000
00000000
01000000
00000000
,
00100000
00000000
00000000
00100000
00000000
00000000
00100000
00000000
,
00000000
10000000
10000000
10000000
,
00100000
00000000
10000000
00000000
,
01000000
00000000
00010000
00000000
,
00001000
00000000
00010000
00000000
,
00000100
00000000
00000010
00000000
,
00000001
00000000
00001000
00000000
,
00000100
00000000
00010000
00000000
,
00001000
00000000
00100000
00000000
,
00010000
00000000
00010000
00000000
,
00100000
00010000
00100000
00000000
,
01000000
00010000
01000000
00000000
,
00010000
00001000
00010000
00000000
,
00000010
00000100
00000001
00000000
,
00000010
00000100
00000010
00000000
,
00000001
00001000
00000100
00000000
,
00010000
00001000
00100000
00000000
,
01000000
10000000
00010000
00000000
,
01000000
00000000
01000000
00000000
,
00100000
10000000
00010000
00000000
,
01000000
00000000
01000000
00000000
,
00001000
00010000
00000100
00000000
,
00000010
00000000
00000010
00000000
,
00000001
00001000
00000100
00000000
,
00010000
00000000
00010000
00000000
,
00000010
00000000
00000100
00000000
,
00001000
00001000
00001000
00000000
,
00010000
00010000
00010000
00000000
,
00011000
00000000
00000000
00011000
00000000
00000000
00011000
00000000
,
00000000
00000100
00000100
00000000
,
00000010
00000001
00000010
00000001
,
00000100
00001000
00000100
00001000
,
00010000
00100000
10000000
00100000
,
10000000
01000000
00100000
00010000
,
10000000
00000000
01000000
10000000
,
00010000
00000000
00100000
00010000
,
10000000
00000000
00000000
01000000
00000000
00010000
00000000
01000000
,
00000000
00000000
00000000
00010000
00000000
00001000
00000000
00000000
,
00000010
00000001
00000010
00000001
,
00000100
00001000
00000100
00001000
,
00010000
00100000
10000000
00010000
,
10000000
01000000
00100000
00010000
,
10000000
00010000
10000000
00000000
,
00000000
01000000
00100000
01000000
,
00001000
00000000
00001000
00000000
,
00011000
00000000
00010100
00000000
,
00000110
00000000
00000011
00000000
,
00000000
00000000
00000000
00000000
,
00002002
00000000
00000000
00000000
,
00003003
00000000
00000000
00000000
;

//---------------dance-double - ----------------
#NOTES:
     dance-double:
     :
     Medium:
     7:
     0.485,0.494,0.043,0.021,0.000:
00000000
00000000
00000000
00000000
,
00000000
00000000
00000000
00000000
,
00000000
00000000
00000000
00000000
,
00000000
00000000
00000000
00000000
,
00000000
00000000
00000000
00000000
,
00100000
10000000
01000000
00010000
,
01000000
00010000
00001000
00000010
,
00000001
00000100
00001000
00000100
,
00001000
00010000
00011000
00000000
,
00100000
00100000
00100000
00000000
,
10000000
10000000
10000000
00000000
,
00100000
10000000
01000000
00010000
,
01000000
00010000
00001000
00000010
,
00001000
00000010
00000001
00000100
,
00000001
00000100
00001000
00010000
,
00100000
00100000
10000000
10000000
,
01000000
01000000
00010000
00010000
,
00001000
00010000
00000000
00001000
00000000
00010000
00000000
00001000
,
00000000
00000010
00000000
00000001
00000000
00001000
00000000
00000000
,
00000010
00000001
00000100
00001000
,
00000100
00001000
00010000
00100000
,
00010000
00100000
10000000
01000000
,
10000000
01000000
00010000
00001000
,
00000010
00000000
00000001
00000000
00000010
00000000
00000000
00000001
,
00000000
00001000
00000100
00000010
,
00000001
00001000
00000001
00000000
,
00000100
00000010
00000100
00000000
,
00000001
00000000
00000000
00000000
00001000
00000000
00000001
00000100
,
00000000
00001000
00010000
00100000
,
10000000
00000000
00000000
00010000
00000000
00000000
10000000
00000000
,
00000000
00010000
10000000
01000000
,
00100000
00010000
10000000
01000000
,
00010000
00001000
00000010
00000001
,
00001000
00000010
00000100
00001000
,
00010000
00100000
10000000
00010000
,
00100000
00000000
00000000
00000000
01000000
00100000
00000000
00010000
,
00000000
10000000
00000000
01000000
00000000
00010000
00000000
00001000
,
00010000
00000000
00000000
00001000
00000000
00000000
00010000
00000000
,
00000010
00000100
00000010
00000000
,
00001000
00000000
00001000
00000000
,
00000001
00000000
00000001
00000000
,
00000100
00000010
00000000
00000010
00010000
00000000
00010000
00001000
,
00000000
00001000
01000000
00000000
00100000
00000000
01000000
00000000
,
00010000
01000000
00000000
00100000
01000000
00000000
00010000
10000000
,
00000000
00010000
00010000
00010000
,
10000000
00000000
01000000
00100000
,
00001000
00010000
00000100
00000000
,
00000010
00000000
00000001
00001000
,
00000100
00000010
00000001
00000000
,
00000100
00000000
00000010
00000000
,
00010000
00000000
00000000
00000000
00001000
00010000
00000000
00000000
,
00001000
00010000
00100000
10000000
,
00010000
10000000
00010000
00000000
,
00100000
01000000
00010000
00001000
,
00000010
00000100
00010000
00001000
,
01000000
00100000
10000000
01000000
,
00010000
00001000
00011000
00000000
,
00000010
00000100
00001000
00010000
,
00100000
01000000
00001000
00010000
,
00000100
00000010
00000001
00000100
,
00001000
00010000
00011000
00000000
,
01000000
00100000
00010000
10000000
,
00010000
00000000
01000000
00100000
00000000
00000000
10000000
00000000
,
01000000
00010000
00001000
00000010
,
00000001
00000000
00000100
00000010
00000000
00000000
00001000
00000000
,
00000001
00000100
00001000
00010000
,
00000100
00000000
00000000
00000010
00000000
00000000
00000001
00000000
,
00000100
00001000
00010000
00001000
,
01000000
00000000
00100000
00000000
10000000
00010000
10000000
00000000
,
00100000
00000000
01000000
00000000
10000000
00010000
00000000
00000000
,
10000000
00000000
01000000
00000000
00100000
01000000
00000000
00000000
,
00010000
00000000
00000000
00001000
00000000
00000000
00010000
00000000
,
00000000
00000010
00000100
00000000
,
00000100
00000001
00000010
00001000
,
00000010
00001000
00010000
01000000
,
00010000
01000000
10000000
00100000
,
10000000
00100000
00010000
00001000
,
00000100
00000100
00000001
00000001
,
00000010
00000010
00001000
00001000
,
00010000
00001000
00000000
00010000
00000000
00001000
00000000
00010000
,
00000000
01000000
00000000
10000000
00000000
00010000
00000000
00000000
,
01000000
10000000
00100000
00010000
,
00100000
00010000
00001000
00000100
,
00001000
00000100
00000001
00000010
,
00000001
00000010
00001000
00010000
,
01000000
00000000
10000000
00000000
01000000
00000000
00000000
10000000
,
00000000
00010000
00100000
01000000
,
10000000
00010000
10000000
00000000
,
01000000
00000000
01000000
00000000
,
00100000
00000000
00100000
00000000
,
00000000
00000000
00000000
00000000
,
00022000
00000000
00000000
00000000
,
00033000
00000000
00000000
00000000
;

//---------------dance-double - ----------------
#NOTES:
     dance-double:
     :
     Hard:
     8:
     0.612,0.593,0.011,0.021,0.043:
00000000
00000000
00000000
00000000
,
00000000
00000000
00000000
00000000
,
00000000
00000000
00000000
00000000
,
00000000
00000000
00000000
00000000
,
00000000
00000000
00000000
00000000
,
00100000
10000000
01000000
00010000
,
01000000
00010000
00001000
00000010
,
00000001
00000100
00001000
00000100
,
00001000
00000000
00010000
00000000
00100000
01000000
00100000
00000000
,
10000000
00000000
10000000
00000000
01000000
00100000
00000000
00100000
,
01000000
00000000
01000000
00000000
00010000
00001000
00000000
00001000
,
00000010
00000001
00000010
00000000
00000001
00001000
00000001
00000000
,
00000100
00001000
00010000
00100000
,
10000000
01000000
10000000
00000000
00010000
10000000
00010000
00000000
,
10000000
01000000
00010000
00001000
,
00000010
00000001
00000010
00000000
00000001
00001000
00000001
00000000
,
00000100
00000010
00000100
00000000
00000010
00010000
00000010
00000000
,
00001000
00000100
00000000
00010000
00000000
00001000
00000000
00100000
,
00000000
01000000
00000000
10000000
00000000
00100000
00000000
00000000
,
00100000
10000000
00100000
00000000
10000000
00010000
10000000
00000000
,
01000000
00010000
00001000
00000010
,
00000001
00000100
00000001
00000000
00001000
00000001
00001000
00000000
,
00000001
00000100
00001000
00010000
,
00100000
10000000
00100000
00000000
10000000
00000000
01000000
00100000
,
00000000
00100000
01000000
00000000
00010000
00000000
00001000
00000000
,
00000010
00000001
00000010
00000000
00000100
00000000
00010000
00000000
,
00001000
00010000
00001000
00000000
01000000
00000000
00100000
00000000
,
10000000
00000000
00010000
00000000
01000000
00100000
01000000
00010000
,
00000000
10000000
01000000
00010000
,
00001000
00000000
00000010
00000100
00000000
00000100
00000010
00000000
,
00000000
00000001
00000100
00001000
,
00010000
00000000
00001000
00010000
00001000
00000000
00100000
00000000
,
01000000
00000000
00100000
01000000
00100000
00000000
00010000
00000000
,
10000000
00000000
01000000
00100000
01000000
00000000
00010000
00000000
,
00001000
00000000
00000010
00000100
00000010
00000000
00000001
00000000
,
00001000
00000000
00000001
00000000
00000100
00000010
00000000
00000100
,
00000000
00001000
00000000
00010000
00000000
00001000
00000000
01000000
,
00100000
00000000
00000000
00100000
00000000
00000000
00100000
00000000
,
10000000
01000000
00010000
00001000
,
00000010
00000000
00000001
00001000
00000001
00000000
00000100
00000010
,
00000100
00000000
00000010
00010000
00000010
00000000
00001000
00000000
,
00000001
00000010
00000000
00000100
00000010
00000000
00000100
00010000
,
00000000
00001000
00010000
00000000
00001000
00000000
01000000
00000000
,
00100000
10000000
00000000
00100000
01000000
00000000
00010000
01000000
,
00000000
00100000
10000000
00010000
,
10000000
01000000
00000000
00000000
10000000
00000000
01000000
00000000
,
00010000
00000000
00001000
00000000
00010000
00001000
00000000
00000000
,
00000010
00000001
00000000
00000000
00000010
00000000
00000001
00000000
,
00000100
00001000
00010000
00000000
,
00100000
10000000
00000000
00000000
00010000
10000000
00000000
00000000
,
01000000
10000000
00000000
00000000
00010000
10000000
00000000
00000000
,
01000000
00010000
00001000
00000100
,
00000010
00001000
00000010
00000000
00000100
00000000
00000000
00000000
,
00000010
00001000
00000100
00010000
,
00001000
01000000
00010000
00100000
,
01000000
00010000
00001000
00000010
,
00000100
00000010
00000100
00000000
00000010
00000000
00000001
00000000
,
00000100
00000010
00010000
00001000
,
01000000
00010000
10000000
00100000
,
10000000
01000000
00010000
00001000
,
00000010
00000100
00000010
00000000
00000001
00000000
00001000
00000000
,
00000001
00000010
00001000
00010000
,
01000000
00000000
00100000
00010000
00000000
00010000
10000000
00000000
,
01000000
00010000
00001000
00000010
,
00000001
00000000
00001000
00000001
00000000
00000001
00000100
00000000
,
00001000
00010000
00100000
10000000
,
01000000
00000000
00100000
00010000
00000000
00010000
10000000
00000000
,
01000000
00010000
00001000
00000010
,
00000001
00001000
00000001
00000000
00000100
00000010
00000100
00000000
,
00000001
00000000
00000100
00000000
00000010
00010000
00000000
00010000
,
00001000
00000000
01000000
00000000
00100000
10000000
00000000
10000000
,
00010000
00000000
00000000
00010000
00000000
00000000
00010000
00000000
,
00000000
00000000
01000000
00100000
01000000
00000000
00000000
00000000
,
00100000
10000000
00100000
00000000
10000000
00010000
10000000
00000000
,
01000000
00010000
00001000
00000010
,
00000001
00000100
00000001
00000000
00001000
00000001
00001000
00000000
,
00000001
00000100
00001000
00010000
,
00100000
10000000
00100000
00000000
10000000
00010000
10000000
00000000
,
01000000
00100000
01000000
00000000
00100000
00001000
00100000
00000000
,
00010000
01000000
00000000
00001000
00000000
00010000
00000000
00000010
,
00000000
00000100
00000000
00000001
00000000
00000010
00000000
00000000
,
00000010
00000001
00000010
00000000
00000001
00001000
00000001
00000000
,
00000100
00001000
00010000
00100000
,
10000000
01000000
10000000
00000000
00010000
10000000
00010000
00000000
,
10000000
01000000
00010000
00001000
,
00000010
00000001
00000010
00000000
00000001
00000000
00000100
00000010
,
00000000
00000010
00000100
00000000
00001000
00000000
00010000
00000000
,
00100000
10000000
00100000
00000000
01000000
00000000
00001000
00000000
,
00010000
00000000
00000000
00000000
00000000
00000000
00000000
00000000
00000000
00000000
00001000
00000000
00000000
00000000
00000000
00000000
00000000
00000000
00000000
00000000
00000000
00001000
00000000
00000000
00000000
00000000
00000000
00000000
00000000
00000000
00000000
00000000
00010000
00000000
00000000
00000000
00000000
00000000
00000000
00000000
00000000
00000000
00001000
00000000
00000000
00000000
00000000
00000000
00000000
00000000
00000000
00000000
00000000
00001000
00000000
00000000
00000000
00000000
00000000
00000000
00000000
00000000
00000000
00000000
,
01000000
00000000
00000000
00000000
00000000
00000000
00000000
00000000
00000000
00000000
00100000
00000000
00000000
00000000
00000000
00000000
00000000
00000000
00000000
00000000
00000000
00100000
00000000
00000000
00000000
00000000
00000000
00000000
00000000
00000000
00000000
00000000
01000000
00000000
00000000
00000000
00000000
00000000
00000000
00000000
00000000
00000000
00100000
00000000
00000000
00000000
00000000
00000000
00000000
00000000
00000000
00000000
00000000
00100000
00000000
00000000
00000000
00000000
00000000
00000000
00000000
00000000
00000000
00000000
,
00000000
00000000
00000000
00000000
,
20020000
00000000
00000000
00000000
,
30030000
00000000
00000000
00000000
;

//---------------dance-single - ----------------
#NOTES:
     dance-single:
     :
     Beginner:
     2:
     0.259,0.391,0.075,0.000,0.000:
0000
0000
0000
0000
,
0000
0000
0000
0000
,
0000
0000
0000
0000
,
0000
0000
0000
0000
,
0000
0000
0000
0000
,
1000
0000
1000
0000
,
0001
0000
0001
0000
,
1000
0000
1000
0000
,
0001
0000
0001
0000
,
0010
0010
0000
0000
,
0010
0010
0000
0000
,
1000
0000
1000
0000
,
0010
0000
0010
0000
,
1000
0000
0010
0000
,
1000
0000
0010
0000
,
1000
0000
0100
0000
,
0001
0000
0010
0000
,
1000
0000
0000
0000
,
0000
0000
0000
0000
,
1000
0000
1000
0000
,
0010
0000
0010
0000
,
1000
0000
0010
0000
,
1000
0000
0010
0000
,
1000
0000
1000
0000
,
0000
0001
0000
0001
,
0000
0000
0100
0000
,
0010
0000
0010
0000
,
1000
0000
0001
0000
,
0000
0010
0010
0000
,
0100
0000
0000
1000
,
0000
0010
0010
0000
,
1000
0000
0100
0000
,
0001
0000
0100
0000
,
1000
0000
0010
0000
,
0001
0000
0010
0000
,
1000
0000
0001
0000
,
0000
0000
0000
0000
,
0010
0000
0000
0010
,
0000
0000
1000
0000
,
0100
0000
0100
0000
,
0010
0000
0010
0000
,
0001
0000
0000
1000
,
0000
0000
0001
0000
,
0100
0000
0000
0010
,
0000
0100
0100
0100
,
0000
0000
1000
0000
,
0001
0000
0100
0000
,
0010
0000
1000
0000
,
0001
0000
0100
0000
,
1000
0000
0001
0000
,
0010
0000
0100
0000
,
1000
0000
1000
0000
,
0001
0000
0001
0000
,
0010
0000
0010
0000
,
0100
0000
0100
0000
,
0010
0000
0001
0000
,
0100
0000
1000
0000
,
0010
0000
0010
0000
,
0100
0000
0100
0000
,
0010
0000
0001
0000
,
0100
0000
1000
0000
,
0100
0000
0100
0000
,
0010
0000
1000
0000
,
0100
0000
0100
0000
,
0010
0000
1000
0000
,
0100
0000
0100
0000
,
0010
0000
1000
0000
,
0100
0000
0100
0000
,
1000
0000
0001
0000
,
1000
1000
1000
0000
,
0001
0001
0001
0000
,
1001
0000
0000
1001
,
0000
0100
0100
0000
,
1000
0000
1000
0000
,
0010
0000
0010
0000
,
1000
0000
0010
0000
,
1000
0000
0010
0000
,
1000
0000
0100
0000
,
0001
0000
0010
0000
,
1000
0000
0000
0000
,
0000
0000
0000
0000
,
1000
0000
1000
0000
,
0010
0000
0010
0000
,
1000
0000
0010
0000
,
1000
0000
0010
0000
,
1000
0000
0100
0000
,
0001
0000
0010
0000
,
1000
0000
1000
0000
,
1001
0000
0110
0000
,
1001
0000
0110
0000
,
0000
0000
0000
0000
,
1001
0000
0000
0000
;

//---------------dance-single - ----------------
#NOTES:
     dance-single:
     :
     Challenge:
     10:
     0.912,0.942,0.333,0.161,0.059: // measure 1
0000
0000
0000
0000
,  // measure 2
1000
0100
1000
0100
0000
0000
1000
0001
,  // measure 3
0000
0000
0100
0001
0100
0001
0000
0000
,  // measure 4
1000
0010
1000
0010
0000
0000
1000
0001
,  // measure 5
0000
0000
0100
0010
0100
1000
0100
0001
,  // measure 6
0100
0001
0010
0100
,  // measure 7
0010
0001
0100
1000
,  // measure 8
0100
0001
0010
0100
,  // measure 9
1000
0000
0001
0000
0010
0100
0010
0100
,  // measure 10
0010
0000
0100
0000
1000
0001
0000
0100
,  // measure 11
0010
1000
0100
0000
0010
0001
0000
1000
,  // measure 12
0100
1000
0100
1000
0100
1000
0100
1000
,  // measure 13
0000
0001
0100
0001
0100
0001
0000
1000
,  // measure 14
0010
1000
0010
1000
0010
1000
0010
1000
,  // measure 15
0010
1000
0010
1000
0010
0000
0000
0000
,  // measure 16
1000
0100
1000
0001
1000
0100
1000
0001
,  // measure 17
1000
0100
1000
0001
1000
0100
1000
0001
,  // measure 18
1000
0110
0000
0110
0000
0110
0000
0101
,  // measure 19
0000
0101
0000
0101
0000
0101
0000
0000
,  // measure 20
1000
0100
0010
0001
0100
0001
0100
0001
,  // measure 21
0000
1000
0010
1000
0010
1000
0000
0001
,  // measure 22
1000
0001
0100
0001
1000
0001
0100
0001
,  // measure 23
1000
0100
0010
0001
0100
0000
0000
0000
,  // measure 24
0010
1000
0010
1000
0010
1000
0010
1000
,  // measure 25
0000
0100
0001
0100
0001
0100
0001
0100
,  // measure 26
0001
0100
1000
0100
0010
0100
0001
0100
,  // measure 27
1000
0100
0010
0100
0001
0100
1000
0100
,  // measure 28
0020
0000
0000
0000
0031
0100
0001
0100
,  // measure 29
0000
0000
0010
1000
0010
1000
0010
1000
,  // measure 30
0020
0000
0000
0230
0000
0000
0302
0000
,  // measure 31
0000
0000
1003
0100
0010
0001
1000
0100
,  // measure 32
0010
0000
0010
0100
1000
0001
0010
0100
,  // measure 33
1000
0000
1000
0001
0010
0100
1000
0001
,  // measure 34
0010
0000
0010
0100
1000
0001
0010
0100
,  // measure 35
1000
0000
1000
0001
0010
0100
1000
0001
,  // measure 36
0020
0000
0000
0000
0130
1000
0001
1000
,  // measure 37
0000
0010
0000
0100
0000
1000
0000
0100
,  // measure 38
0001
0000
1000
0100
0000
0010
0001
0000
,  // measure 39
0000
1000
0010
1000
0001
0100
0010
0000
,  // measure 40
0020
0000
1030
0100
2000
0000
3100
0001
,  // measure 41
0200
0000
0310
1000
0020
0000
0130
0001
,  // measure 42
0100
1000
0000
1000
0001
0000
0001
0010
,  // measure 43
0000
0010
0100
0000
0100
1000
0010
0100
,  // measure 44
0001
1000
0000
0010
1000
0000
0001
0100
,  // measure 45
0000
0000
0010
0000
0100
0001
0100
0000
0010
0000
1000
0000
0010
0000
1000
0000
,  // measure 46
0100
1000
0000
0001
1000
0010
0100
0010
,  // measure 47
1000
0100
0010
0001
0010
0200
0000
0000
,  // measure 48
1300
0001
0000
1000
0001
0010
0100
0010
,  // measure 49
0001
0100
0010
1000
0010
0200
0000
0000
,  // measure 50
0310
0010
0000
0000
1000
1000
0000
0000
,  // measure 51
0001
0001
0000
0000
0100
0200
0000
0000
,  // measure 52
0301
1000
0001
1000
,  // measure 53
0001
0000
1000
0000
0001
0000
1000
0000
0001
1000
0001
1000
0001
0000
1000
0000
,  // measure 54
0001
0100
0001
1000
0001
0100
0001
1000
,  // measure 55
0001
0100
0001
1000
0001
0100
0001
1000
,  // measure 56
0001
0100
0001
1000
0001
0100
0001
1000
,  // measure 57
0001
0010
0100
1000
0100
0010
0001
0100
,  // measure 58
0010
0001
0010
0100
0010
0001
0010
0100
,  // measure 59
0010
0001
0010
0100
0010
0001
0010
0100
,  // measure 60
0010
0001
0010
0100
0010
0001
0010
0100
,  // measure 61
0001
1000
0100
0001
0100
1000
0010
0100
,  // measure 62
0001
1001
1000
1010
,  // measure 63
0010
0000
0110
0001
1000
0001
0110
0000
,  // measure 64
0100
1100
1000
1001
,  // measure 65
0001
0000
0101
0010
1000
0010
0101
0100
,  // measure 66
0100
1001
0010
1001
,  // measure 67
0100
1010
0001
1100
,  // measure 68
0010
0101
1000
0110
,  // measure 69
0001
1000
0001
1000
0001
1000
0001
0000
,  // measure 70
0010
0000
0010
0000
0100
0001
0000
0001
,  // measure 71
1000
0100
0010
0000
1000
0001
0000
0000
,  // measure 72
0010
0000
0000
0110
0000
0000
0110
0000
,  // measure 73
0000
0000
1000
0001
1000
0000
0000
0000
,  // measure 74
0010
0100
0010
0100
0010
0100
0010
0100
,  // measure 75
0000
0100
0001
1000
0001
1000
0000
1000
,  // measure 76
0100
0010
0001
1000
0100
0010
0001
0100
,  // measure 77
0010
1000
0001
0010
0100
0000
0000
0000
,  // measure 78
0010
0001
0010
1000
0010
0001
0010
1000
,  // measure 79
0010
0001
0010
1000
0010
0001
0010
1000
,  // measure 80
0010
1001
0000
1001
0000
1001
0000
0110
,  // measure 81
0000
0110
0000
0110
0000
0110
0000
0000
,  // measure 82
0100
0001
1000
0100
0010
0100
1000
0001
,  // measure 83
0000
0001
0100
0010
0100
0001
0000
1000
,  // measure 84
0010
0100
0001
1000
0010
0100
0001
1000
,  // measure 85
0100
0010
0001
0100
2000
0000
0000
0000
,  // measure 86
3100
0001
1000
0100
0001
0100
1000
0010
,  // measure 87
0000
0010
0100
0001
1000
0100
0010
0100
,  // measure 88
1000
0010
0100
0001
0100
1000
0100
0001
,  // measure 89
0010
0000
1000
0000
0001
0000
1000
0000
0010
0000
0001
0000
,  // measure 90
0100
0000
1000
0000
0001
0000
1000
0000
0010
0000
0100
0000
,  // measure 91
0000
0000
0000
0000
,  // measure 92
2002
0000
0000
0000
,  // measure 93
0000
3003
0000
0000
;
