#TITLE:DON'T CLOCK ME;
#SUBTITLE:;
#ARTIST:POPULA DEMAND feat. THE GET FRESH GIRLS;
#TITLETRANSLIT:;
#SUBTITLETRANSLIT:;
#ARTISTTRANSLIT:;
#CREDIT:;
#BANNER:DON'T CLOCK ME.png;
#BACKGROUND:DON'T CLOCK ME-bg.png;
#LYRICSPATH:;
#CDTITLE:Dance Dance Revolution Solo.png;
#MUSIC:DON'T CLOCK ME.ogg;
#OFFSET:0.000;
#SAMPLESTART:24.889;
#SAMPLELENGTH:15.000;
#SELECTABLE:YES;
#DISPLAYBPM:124.000;
#BPMS:0.000=124.400,4.000=124.000,26.000=124.500,28.000=124.000,32.000=125.000,34.000=124.000,42.000=125.000,44.000=124.000,46.000=124.500,48.000=124.000,52.000=124.500,56.000=124.000,66.000=125.500,68.000=124.000,72.000=124.500,76.000=124.000,82.000=126.000,84.000=124.000,88.000=124.500,92.000=124.000,96.000=124.700,100.000=124.000,104.000=124.700,108.000=124.000,114.000=125.000,116.000=124.000,120.000=124.500,128.000=124.000,132.000=124.500,136.000=124.000,137.000=124.500,140.000=124.000,142.000=124.500,144.000=124.000,146.000=125.000,148.000=124.000,152.000=125.000,154.000=124.000,160.000=125.000,162.000=124.000,164.000=124.500,168.000=124.000,174.000=125.000,176.000=124.000;
#STOPS:;
#BGCHANGES:;

//---------------dance-single - ----------------
#NOTES:
     dance-single:
     :
     Beginner:
     1:
     0.161,0.201,0.045,0.000,0.000:
0000
0000
0000
0000
,
0000
0000
0000
0000
,
0000
0000
0000
0000
,
0000
0000
0000
0000
,
1000
1000
1000
1000
,
0000
0000
0000
0000
,
0100
0100
0100
0100
,
0000
0000
0000
0000
,
0001
0001
0001
0001
,
0001
0001
0000
0000
,
1000
1000
0000
0000
,
0001
0001
0001
0000
,
1000
1000
1000
1000
,
1000
0000
0001
0000
,
1000
0000
0001
0000
,
0010
0010
0010
0000
,
0100
0100
0100
0000
,
0001
0000
1000
0000
,
0001
0000
1000
0000
,
0010
0010
0010
0000
,
0100
0100
0100
0000
,
0100
0000
0010
0000
,
1000
0000
0100
0000
,
1000
0000
0001
0000
,
0010
0000
0010
0000
,
0000
1000
0000
0100
,
0000
0001
0000
0001
,
0000
1000
0000
0100
,
0100
0100
0100
0100
,
0100
0000
0010
0000
,
0001
0000
0100
0000
,
0001
0000
1000
0000
,
0010
0000
0010
0000
,
0000
0001
0000
0100
,
0000
0000
0000
0000
,
1001
1001
1001
1001
,
0000
0000
0000
0000
,
1000
0000
0001
0000
,
1000
0000
0001
0000
,
0010
0010
0010
0000
,
0100
0100
0100
0000
,
0001
0000
1000
0000
,
0001
0000
1000
0000
,
0010
0010
0010
0000
,
0100
0100
0100
0100
;

//---------------dance-single - ----------------
#NOTES:
     dance-single:
     :
     Easy:
     2:
     0.177,0.201,0.000,0.000,0.000:
0000
0000
0000
0000
,
0000
0000
0000
0000
,
0000
0000
0000
0000
,
0000
0000
0000
0000
,
0000
0000
0000
0000
,
0000
0100
0000
0100
,
0000
0010
0000
0001
,
0000
0010
0100
1000
,
0001
1000
0001
1000
,
0000
0010
0000
0010
,
0000
0010
0000
0010
,
0001
0001
1000
1000
,
0100
0100
0010
0010
,
0001
0000
1000
0000
,
0001
0000
1000
0000
,
0001
1000
0001
1000
,
0000
0010
0010
0010
,
0001
0000
1000
0001
,
0000
0000
1000
0100
,
0001
1000
0001
1000
,
0000
0001
0001
0001
,
0100
0000
0010
0000
,
1000
0000
0100
0000
,
1000
0010
0001
0100
,
0010
0100
0010
0000
,
0000
1000
0000
0100
,
0000
0001
0000
0001
,
0000
1000
0000
0100
,
1000
0001
1000
0010
,
0001
0000
0100
0100
,
0010
0010
0001
1000
,
0000
0010
0000
0001
,
0000
1000
0000
0001
,
0000
0010
0000
0010
,
0000
0100
0000
0001
,
0100
0100
0100
0100
,
0000
0100
1000
0000
,
0010
0000
0001
0000
,
1000
0000
0001
0000
,
0010
0100
0010
0100
,
0000
1000
1000
1000
,
0010
0000
1000
0010
,
0000
0000
0001
0100
,
1000
0001
1000
0001
,
0000
0000
0100
0001
;

//---------------dance-single - ----------------
#NOTES:
     dance-single:
     :
     Medium:
     4:
     0.283,0.327,0.304,0.000,0.000:
0000
0000
0000
0000
,
0000
0000
0000
0000
,
0000
0000
0000
0000
,
0000
0000
0000
0000
,
0000
0100
0100
1100
,
0000
0100
0000
0100
,
0010
0100
0010
0101
,
0000
0010
0100
1000
,
0101
0000
1010
0000
0100
0100
1000
0100
,
0000
0001
0000
0010
,
0000
0001
0000
0010
,
1000
0010
1000
0010
,
1100
0101
1001
1100
,
0001
0000
1000
0001
,
1000
0100
0100
0001
,
1000
0010
0001
1000
,
0101
1100
1001
0101
,
0010
0000
0000
0000
0001
1000
0100
0000
,
0001
0010
1000
0100
,
0001
1000
0001
0100
,
0000
1010
0101
1001
,
1000
1000
0001
0001
,
0100
0010
0100
0001
,
0010
1000
0010
0001
,
1000
0010
0001
0010
,
0100
0100
1000
0000
0001
0000
0100
0000
,
0010
0000
0100
0000
0100
0100
0001
0000
,
0000
1100
0000
0011
,
0101
1010
1001
0100
,
0000
0000
0001
0000
0000
0000
0010
0010
,
0000
0000
1000
0000
0100
0000
0010
0010
,
0000
1000
0000
0001
,
0000
1000
0001
1000
,
0001
0001
1000
1000
,
0010
0100
0010
1000
,
0101
0010
0010
0010
,
0000
0000
0001
0000
1000
0100
0000
0000
,
0001
0000
1000
0001
,
1000
0100
0100
0001
,
1000
0010
0001
1000
,
0000
0101
1100
1001
,
0101
0000
0000
0000
0001
1000
0100
0000
,
0001
0010
1000
0100
,
0001
1000
0001
0100
,
0000
0010
0010
0000
1010
0000
0101
0000
;

//---------------dance-single - ----------------
#NOTES:
     dance-single:
     :
     Hard:
     6:
     0.402,0.504,0.495,0.000,0.000:
0000
0000
0000
0000
,
0000
0000
0000
0000
,
0000
0000
0000
0000
,
0000
0000
0000
0000
,
0000
0000
0000
0000
0000
1000
0001
0000
,
1000
1000
0001
0001
0010
0100
0010
0000
,
1000
0001
0110
1001
,
1000
1000
0001
0001
0010
0010
0010
0001
,
0010
1000
0010
0001
0010
0100
1000
0100
,
0000
0011
0000
1010
,
0000
1100
0000
0101
,
0011
1010
1100
0101
,
1010
0101
1010
0101
0011
1100
0011
0000
,
1001
1001
1000
0001
,
0000
1000
0100
0001
0100
0000
1001
0000
,
0010
1000
0001
0010
0001
0001
1000
1000
,
0000
1000
0001
1100
,
0101
0000
0000
0001
0100
0000
1000
0000
,
0000
0010
1000
0100
0010
0001
0100
0000
,
0001
0001
1000
0100
0010
0010
1000
1000
,
0000
1000
0001
0110
,
1000
1000
0001
0010
0001
0001
0100
0000
,
0001
0001
1000
0010
1000
1000
0001
0000
,
1000
0010
0001
0010
1000
0100
0001
0000
,
0100
0000
0100
0000
0001
1000
0100
0000
,
0100
0100
0100
0000
0010
0001
0100
0000
,
0010
0010
0010
0000
0100
0001
0100
0000
,
0000
1000
0000
0001
,
0011
1100
1001
1001
,
0001
0000
0001
0100
1000
0000
0100
0100
,
1000
1000
1000
0100
0001
0000
0010
0010
,
0000
0010
0010
1001
,
1100
0101
0011
1010
,
0100
0000
1000
1000
0001
0000
1000
0000
,
0010
1000
0100
0000
0010
0001
0100
0000
,
0100
0001
0010
0100
,
0000
0000
1001
0000
1000
0100
0000
0000
,
1001
1001
1000
0001
,
0000
1000
0100
0001
0100
0000
1001
0000
,
0010
1000
0001
0010
0001
0001
1000
1000
,
0000
1000
0001
1100
,
0101
0000
0000
0001
0100
0000
1000
0000
,
0000
0010
1000
0100
0010
0001
0100
0000
,
1001
0010
0010
0010
,
0000
1010
1100
0101
0011
0000
1001
0000
;

//---------------dance-double - ----------------
#NOTES:
     dance-double:
     :
     Easy:
     2:
     0.140,0.176,0.000,0.000,0.000: // measure 1
00000000
00000000
00000000
00000000
,  // measure 2
00000000
00000000
00000000
00000000
,  // measure 3
00000000
00000000
00000000
00000000
,  // measure 4
00000000
00000000
00000000
00000000
,  // measure 5
00000000
00000000
00000000
00000000
,  // measure 6
00000000
00000100
00000000
00000100
,  // measure 7
00000000
00001000
00000000
00000000
,  // measure 8
00000000
00100000
01000000
10000000
,  // measure 9
00010000
10000000
00010000
00001000
,  // measure 10
00000000
00000010
00000000
00000010
,  // measure 11
00000000
00000010
00000000
00000010
,  // measure 12
00000001
00000001
00001000
00001000
,  // measure 13
01000000
01000000
00100000
00100000
,  // measure 14
00000000
00000000
00000000
00000000
,  // measure 15
00000000
00000000
00000000
00000000
,  // measure 16
00010000
10000000
00010000
10000000
,  // measure 17
00000000
00100000
00100000
00100000
,  // measure 18
00010000
00000000
00000000
00000000
,  // measure 19
00000000
00000000
00001000
00000100
,  // measure 20
00000001
00001000
00000001
00001000
,  // measure 21
00000000
00000001
00000001
00000001
,  // measure 22
00000100
00000000
00100000
00000000
,  // measure 23
10000000
00000000
01000000
00000000
,  // measure 24
00000000
00000000
00000000
00000000
,  // measure 25
00100000
01000000
00100000
00000000
,  // measure 26
00000000
10000000
00000000
01000000
,  // measure 27
00000000
00010000
00000000
00001000
,  // measure 28
00000000
00000001
00000000
00000100
,  // measure 29
00000001
00001000
00000000
00000000
,  // measure 30
00000000
00000000
00000100
00000100
,  // measure 31
00000010
00000010
00000001
00001000
,  // measure 32
00000000
00000000
00000000
00000000
,  // measure 33
00000000
00000100
00000000
00001000
,  // measure 34
00000000
00100000
00000000
00100000
,  // measure 35
00000000
01000000
00000000
00010000
,  // measure 36
00000010
00000010
00000010
00000010
,  // measure 37
00000000
00000100
00001000
00000000
,  // measure 38
00000000
00000000
00000000
00000000
,  // measure 39
00000000
00000000
00000000
00000000
,  // measure 40
00100000
01000000
00100000
01000000
,  // measure 41
00000000
10000000
00000000
10000000
,  // measure 42
00100000
00000000
00000000
00000000
,  // measure 43
00000000
00000000
00010000
01000000
,  // measure 44
00001000
00010000
00001000
00010000
,  // measure 45
00000000
00000000
00000100
00000001
;

//---------------dance-double - ----------------
#NOTES:
     dance-double:
     :
     Medium:
     4:
     0.301,0.327,0.304,0.000,0.000: // measure 1
00000000
00000000
00000000
00000000
,  // measure 2
00000000
00000000
00000000
00000000
,  // measure 3
00000000
00000000
00000000
00000000
,  // measure 4
00000000
00000000
00000000
00000000
,  // measure 5
00000001
00000000
00000001
00001000
00000001
00000000
00000101
00000000
,  // measure 6
00000000
00001000
00000000
00010000
,  // measure 7
00100000
00000000
01000000
00100000
01000000
00000000
11000000
00000000
,  // measure 8
00000000
00100000
01000000
10000000
,  // measure 9
00110000
00000000
00011000
00000000
00000100
00000100
00010000
00000100
,  // measure 10
00010000
00001000
00010000
00001000
,  // measure 11
00010000
00000100
00001000
01000000
,  // measure 12
00010000
00000010
00001000
00100000
,  // measure 13
00011000
01000000
00011000
00000100
,  // measure 14
00011000
00000000
00000000
00010000
,  // measure 15
10000000
01000000
01000000
00010000
,  // measure 16
10000000
00000000
01000000
00000000
00010000
10000000
00010000
00000000
,  // measure 17
01000000
00011000
00001100
00000101
,  // measure 18
00000010
00000000
00000000
00000000
00000001
00001000
00000100
00000000
,  // measure 19
00000001
00000010
00001000
00000100
,  // measure 20
00000001
00001000
00010000
01000000
,  // measure 21
00100000
10100000
00110000
01010000
,  // measure 22
10000000
10000000
00010000
00010000
,  // measure 23
00000100
00000010
00000100
00000001
,  // measure 24
00000000
00001000
00000000
00010000
,  // measure 25
00000000
10000000
00000000
10000000
,  // measure 26
01000000
01000000
10000000
00000000
00010000
00000000
00011000
00000000
,  // measure 27
00000100
00000000
00000010
00000000
00000001
00000001
00000101
00000000
,  // measure 28
00001000
00000001
00000100
00000000
00000010
00001000
00000100
00000000
,  // measure 29
00001000
00000000
00010000
00000000
00010000
00001000
00010000
00000000
,  // measure 30
00011000
00010000
00000000
11000000
,  // measure 31
00000000
00000000
00000000
00000000
00010000
00000010
00001000
00000000
,  // measure 32
00000000
00000000
00000000
00010000
,  // measure 33
00000100
00000100
00010000
00000100
,  // measure 34
00010000
00010000
00000100
00000100
,  // measure 35
00001000
01000000
00001000
01000000
,  // measure 36
01010000
01010000
01010000
01010000
,  // measure 37
00000000
00000000
00010000
00000000
00001000
00010000
00001000
00000000
,  // measure 38
00001100
00000000
00000000
00001000
,  // measure 39
00000001
00000100
00000100
00001000
,  // measure 40
00000001
00000000
00000100
00000000
00001000
00000001
00001000
00000000
,  // measure 41
00000100
00011000
01010000
11000000
,  // measure 42
00100000
00000000
00000000
00000000
10000000
00010000
01000000
00000000
,  // measure 43
10000000
00100000
00010000
01000000
,  // measure 44
10000000
00010000
00001000
00000100
,  // measure 45
00000010
00000001
00000010
00000000
00001010
00000000
00001100
00000000
;

//---------------dance-double - ----------------
#NOTES:
     dance-double:
     :
     Hard:
     4:
     0.442,0.554,0.608,0.023,0.000: // measure 1
00000000
00000000
00000000
00000000
,  // measure 2
00000000
00000000
00000000
00000000
,  // measure 3
00000000
00000000
00000000
00000000
,  // measure 4
00000000
00000000
00000000
00000000
,  // measure 5
00000000
00000000
00000000
00000000
,  // measure 6
00000010
00000001
00000100
00001000
00010000
01000000
10000000
00000000
,  // measure 7
00100000
10010000
01000000
10010000
,  // measure 8
00100000
10000000
01000000
00010000
00001000
00000100
00000001
00000000
,  // measure 9
00000011
00000000
00001100
00000000
00000001
00000100
00001000
00000000
,  // measure 10
00011000
01000000
00011000
00000100
,  // measure 11
00011000
01000000
00011000
00000100
,  // measure 12
00101000
00010010
01001000
00010100
,  // measure 13
00101000
00101000
00010010
00010010
01001000
01001000
00010100
00000000
,  // measure 14
00001001
00000000
00000100
00000000
00001000
00001000
00000100
00000000
,  // measure 15
00001001
00000000
00000100
00000000
00000001
00000001
00000100
00000000
,  // measure 16
00001001
00000000
00000100
00000000
00000010
00000001
00000100
00001000
,  // measure 17
00000000
00001001
00011000
10010000
,  // measure 18
10010000
00000000
01000000
00000000
00010000
00010000
01000000
00000000
,  // measure 19
10010000
00000000
01000000
00000000
10000000
10000000
01000000
00000000
,  // measure 20
10010000
00000000
01000000
00000000
00100000
10000000
01000000
00010000
,  // measure 21
00000000
10010000
00011000
00001001
,  // measure 22
00000010
00000001
00000010
00000001
00000010
00000001
00000010
00000001
,  // measure 23
00000100
00001000
00000100
00001000
00000100
00001000
00000100
00001000
,  // measure 24
00010000
01000000
00010000
01000000
00010000
01000000
00010000
01000000
,  // measure 25
10000000
00100000
10000000
00100000
10000000
00100000
10000000
00000000
,  // measure 26
01000000
10000000
01000000
10000000
01000000
10000000
01000000
10000000
,  // measure 27
00100000
00010000
00100000
00010000
00100000
00010000
00100000
00000000
,  // measure 28
00001000
00000010
00001000
00000010
00001000
00000010
00001000
00000010
,  // measure 29
00000001
00000100
00000001
00000100
00000001
00000100
00000001
00000000
,  // measure 30
00001010
00000001
00000010
00000000
00000011
00001000
00000010
00000000
,  // measure 31
00000001
00000100
00001000
00010000
00100000
10000000
01000000
00000000
,  // measure 32
00110000
10000000
00100000
00000000
10100000
00010000
00100000
00000000
,  // measure 33
10000000
01000000
00010000
00001000
00000010
00000001
00000100
00000000
,  // measure 34
00001010
00000001
00000010
00000000
00000011
00001000
00000010
00000000
,  // measure 35
00000001
00000100
00001000
00010000
00100000
10000000
01000000
00000000
,  // measure 36
01001000
00010100
01001000
00010100
,  // measure 37
01001000
00000000
00000000
00000000
,  // measure 38
00001001
00000000
00000100
00000000
00001000
00001000
00000100
00000000
,  // measure 39
00001001
00000000
00000100
00000000
00000001
00000001
00000100
00000000
,  // measure 40
00001001
00000000
00000100
00000000
00000010
00000001
00000100
00001000
,  // measure 41
00000000
00001001
00011000
10010000
,  // measure 42
10010000
00000000
01000000
00000000
00010000
00010000
01000000
00000000
,  // measure 43
10010000
00000000
01000000
00000000
10000000
10000000
01000000
00000000
,  // measure 44
20020000
00000000
00000000
30030000
,  // measure 45
00000000
00100000
00110000
00000000
00011000
00000000
00001010
00000000
;

//---------------dance-solo - ----------------
#NOTES:
     dance-solo:
     :
     Easy:
     2:
     0.177,0.201,0.000,0.000,0.000:
000000
000000
000000
000000
,
000000
000000
000000
000000
,
000000
000000
000000
000000
,
000000
000000
000000
000000
,
000000
000000
000000
000000
,
000000
001000
000000
001000
,
000000
000100
000000
000010
,
000000
000100
001000
100000
,
000001
100000
000001
100000
,
000000
000100
000000
000100
,
000000
000100
000000
000100
,
000001
000001
100000
100000
,
001000
001000
000100
000100
,
000010
000000
010000
000000
,
000010
000000
010000
000000
,
000001
100000
000001
100000
,
000000
000100
000100
000100
,
000001
000000
010000
000010
,
000000
000000
100000
001000
,
000001
100000
000001
100000
,
000000
000001
000001
000001
,
001000
000000
000100
000000
,
100000
000000
001000
000000
,
010000
010000
000010
000010
,
000100
001000
000100
000000
,
000000
100000
000000
001000
,
000000
000001
000000
000001
,
000000
100000
000000
001000
,
100000
000001
010000
010000
,
000010
000000
001000
001000
,
000100
000100
000001
100000
,
000000
010000
000000
000010
,
000000
100000
000000
000001
,
000000
000100
000000
000100
,
000000
001000
000000
000001
,
001000
001000
001000
001000
,
000000
001000
100000
000000
,
010000
000000
000010
000000
,
010000
000000
000010
000000
,
000100
001000
000100
001000
,
000000
100000
100000
100000
,
000100
000000
010000
000010
,
000000
000000
000001
001000
,
100000
000001
100000
000001
,
000000
000000
001000
000001
;

//---------------dance-solo - ----------------
#NOTES:
     dance-solo:
     :
     Medium:
     4:
     0.283,0.327,0.304,0.000,0.000:
000000
000000
000000
000000
,
000000
000000
000000
000000
,
000000
000000
000000
000000
,
000000
000000
000000
000000
,
000000
001000
001000
101000
,
000000
001000
000000
001000
,
000100
001000
000100
001001
,
000000
000100
001000
100000
,
000101
000000
100100
000000
001000
001000
100000
001000
,
000000
000010
000000
000010
,
000000
000010
000000
000010
,
010000
010000
010000
010000
,
101000
001001
100001
101000
,
000010
000000
010000
000001
,
100000
001000
001000
000001
,
010000
010000
000010
010000
,
001001
101000
100001
001001
,
000100
000000
000000
000000
000001
100000
001000
000000
,
000001
000100
100000
001000
,
000001
100000
000001
001000
,
000000
100100
000101
010010
,
100000
100000
000001
000001
,
001000
000100
001000
000001
,
010000
100000
000010
000001
,
010000
000100
000010
000100
,
001000
001000
100000
000000
000001
000000
001000
000000
,
000100
000000
001000
000000
001000
001000
000001
000000
,
000000
101000
000000
000101
,
010001
100010
100001
001000
,
000000
000000
000001
000000
000000
000000
000100
000100
,
000000
000000
010000
000000
001000
000000
000100
000100
,
000000
010000
000000
000010
,
000000
100000
000001
100000
,
000001
000001
100000
100000
,
000100
001000
000100
100000
,
001001
000100
000100
000100
,
000000
000000
000001
000000
100000
001000
000000
000000
,
000010
000000
010000
000001
,
100000
001000
001000
000001
,
010000
010000
000010
010000
,
000000
001001
101000
100001
,
001001
000000
000000
000000
000001
100000
001000
000000
,
000001
000100
100000
001000
,
000001
100000
000001
001000
,
000000
000100
000100
000000
100100
000000
001001
000000
;

//---------------dance-solo - ----------------
#NOTES:
     dance-solo:
     :
     Hard:
     7:
     0.424,0.554,0.653,0.000,0.000:
000000
000000
000000
000000
,
000000
000000
000000
000000
,
000000
000000
000000
000000
,
000000
000000
000000
000000
,
000000
000000
000000
000000
000000
010000
000010
000000
,
100000
100000
000001
000001
000100
001000
000100
000000
,
110000
000011
001100
100001
,
100000
100000
000001
000001
000100
000100
000100
000010
,
000010
010000
010000
000010
000010
010000
100000
001000
,
000000
000101
000000
100100
,
000000
101000
000000
001001
,
000101
100100
101000
001001
,
000101
100100
101000
001001
000101
100100
101000
000000
,
010010
100001
110000
000011
,
000000
100000
001000
000001
001000
000000
100001
000000
,
010000
010000
000010
000010
100000
100000
000001
000001
,
000000
110000
000011
101000
,
001001
000000
000000
000001
001000
000000
100000
000000
,
000000
010000
100000
001000
000010
000001
001000
000000
,
000001
000001
010000
010000
000100
000100
100000
100000
,
000000
110000
000011
001100
,
100000
100000
000001
000100
000001
000001
001000
000000
,
000001
000001
100000
000100
100000
100000
000001
000000
,
010000
010000
000010
000010
100000
001000
000001
000000
,
000100
000000
000100
000000
000001
100000
001000
000000
,
001000
001000
001000
000000
000010
000001
001000
000000
,
000100
000100
000100
000000
010000
100000
001000
000000
,
000000
110000
000000
000011
,
010001
100010
100001
010010
,
000001
000000
000001
001000
100000
000000
000100
000100
,
100000
100000
100000
001000
000001
000000
000100
000100
,
000000
000100
000100
010010
,
101000
001001
000101
100100
,
001000
000000
100000
100000
000001
000000
100000
000000
,
010000
100000
001000
000000
000010
000001
001000
000000
,
001000
000010
000010
000010
,
000000
000000
100001
000000
100000
001000
000000
000000
,
010010
100001
110000
000011
,
000000
100000
001000
000001
001000
000000
100001
000000
,
010000
010000
000010
000010
100000
100000
000001
000001
,
000000
110000
000011
101000
,
001001
000000
000000
000001
001000
000000
100000
000000
,
000000
010000
100000
001000
000010
000001
001000
000000
,
100001
000100
000100
000100
,
000000
100100
101000
001001
000101
000000
100001
000000
;

//---------------dance-double - Edit by silenttype01----------------
#NOTES:
     dance-double:
     Edit by silenttype01:
     Challenge:
     5:
     0.699,0.658,0.461,0.000,0.743: // measure 1
00000000
00000000
00000000
00000000
,  // measure 2
00000000
00000000
00000000
00000000
,  // measure 3
00000000
00000000
00000000
00000000
,  // measure 4
00000000
00000000
00000000
00000000
,  // measure 5
00000000
00000000
00000000
00000000
,  // measure 6
00000001
00000000
00000001
00000000
00000010
00000000
00000010
00000000
00000100
00001000
00000000
00001100
00000000
00001000
00000100
00001000
,  // measure 7
00000100
00000010
00000001
00000010
00000001
00001000
00000010
00001000
00000010
00000000
00000100
00000001
00000100
00000000
00000000
00000000
,  // measure 8
00000001
00000000
00000001
00000000
00000100
00000000
00000100
00000000
00001000
00010000
00000000
00011000
00000000
00000000
00010000
00010000
,  // measure 9
00100000
00100000
00010000
00010000
00100000
00100000
10000000
10000000
00010000
00100000
01000000
00000000
10000000
00010000
10000000
00000000
,  // measure 10
10100000
00000000
00000000
01000000
00100000
00000000
10000000
00000000
00010000
00000000
00100000
00010000
00000000
00100000
00010000
00000000
,  // measure 11
01100000
00000000
00000000
00000000
00001000
00000000
00100000
00010000
00100000
00000000
00001000
00010000
00000000
00001000
00010000
00001000
,  // measure 12
00011000
00000000
00000000
00010000
00000010
00000000
00001000
00000000
00000100
00000000
00001000
00000100
00000000
00001000
00000100
00000000
,  // measure 13
00001100
00000110
00001100
00000110
00000011
00000110
00001001
00000000
,  // measure 14
00000001
00000000
00000010
00000000
00000100
00001000
00000000
00000100
00010000
00000000
00001000
00010000
00000000
00001000
00010000
00001000
,  // measure 15
00010000
00000000
00100000
00000000
01000000
10000000
00000000
01000000
00010000
00000000
10000000
00010000
00000000
10000000
01000000
10000000
,  // measure 16
01000000
00000000
00100000
00000000
00001000
00010000
00000000
00000010
00001000
00000000
00000100
00010000
00000000
00001000
00010000
00001000
,  // measure 17
00010000
00000000
00001000
00000000
00000010
00000001
00000000
00001000
00000000
00000100
00000000
00000100
00000010
00000100
00000010
00000000
,  // measure 18
00000001
00000000
00001000
00000000
00000010
00000100
00000000
00000001
00001000
00000000
00000100
00001000
00000000
00000001
00000100
00000001
,  // measure 19
00000100
00000000
00000100
00000000
00001000
01000000
00000000
00001000
00000100
00000000
00001000
01000000
00000000
00001000
00010000
00001000
,  // measure 20
00010000
00000000
00010000
00000000
00100000
01000000
00000000
00010000
10000000
00000000
01000000
10000000
00000000
00010000
00100000
01000000
,  // measure 21
10000000
00000000
10000000
00000000
10000000
10000000
00000000
10000000
00000000
10000000
01000000
00100000
00100000
01000000
01000000
10000000
,  // measure 22
00010000
00000000
00010000
00000000
10000000
00100000
00000000
00010000
00100000
00000000
10000000
00100000
00000000
00010000
00001000
00010000
,  // measure 23
00001000
00000000
00001000
00000000
01000000
00100000
00000000
00010000
00001000
00000000
01000000
00100000
00000000
00010000
00001000
00010000
,  // measure 24
00001000
00000000
00001000
00000000
00000100
00000001
00000000
00000100
00001000
00000000
00000100
00000001
00000000
00001000
00000100
00001000
,  // measure 25
00000100
00000000
00000100
00000000
00000010
00000001
00000000
00001000
00000000
00000100
00000000
00000100
00000010
00000100
00000010
00000001
,  // measure 26
00001000
00000000
00001000
00000000
00000001
00000010
00000000
00001000
00000010
00000000
00000001
00000010
00000000
00001000
00010000
00001000
,  // measure 27
00010000
00000000
00010000
00000000
00000100
00000010
00000000
00001000
00010000
00000000
00000100
00000010
00000000
00001000
00010000
00001000
,  // measure 28
00010000
00000000
00010000
00000000
01000000
10000000
00000000
01000000
00010000
00000000
01000000
10000000
00000000
00010000
01000000
00010000
,  // measure 29
01000000
00000000
01000000
00000000
00100000
10000000
00000000
00010000
00000000
00010000
01000000
00010000
00010000
00100000
01000000
01000000
,  // measure 30
01000000
00000000
00000000
10000000
01000000
00000000
11000000
00000000
00010000
00000000
11000000
00000000
10000000
00000000
00100000
00000000
,  // measure 31
00011000
00000100
00000001
00000011
00000100
00000011
00000001
00000100
,  // measure 32
00000100
00000000
00000000
00000001
00000100
00000000
00000101
00000000
00001000
00000000
00000101
00000000
00000001
00000000
00000010
00000000
,  // measure 33
00011000
01000000
10000000
10100000
01000000
10100000
10000000
01000000
,  // measure 34
01000000
00000000
00000000
10000000
00100000
00000000
10100000
00000000
00010000
00000000
10100000
00000000
00100000
00000000
00010000
00000000
,  // measure 35
00001100
00000100
00000010
00001001
00001000
00001001
00000001
00000100
,  // measure 36
00000100
00000000
00000000
00000001
00000010
00000000
00000011
00000000
00001000
00000000
00000011
00000000
00000010
00000000
00001000
00000000
,  // measure 37
00010000
00000000
00010000
00000000
00010000
10000000
00000000
00010000
10000000
00000000
01100000
00000000
10000000
00010000
10000000
00000000
,  // measure 38
00010000
00000000
00000000
00010000
00100000
00000000
00100000
00000000
01000000
00000000
01100000
00000000
00100000
00000000
00010000
00000000
,  // measure 39
10010000
10000000
00100000
00110000
00010000
00001000
00000100
00000010
,  // measure 40
00001000
00000000
00000000
00001000
00000100
00000000
00000001
00000000
00000001
00000000
00000101
00000000
00000100
00000000
00001000
00000000
,  // measure 41
00000010
00000010
00001100
00000100
00000011
00000010
00000101
00000001
,  // measure 42
00001001
00000000
00000000
00001000
00000010
00000000
00000010
00000000
00000100
00000000
00000110
00000000
00000010
00000000
00001000
00000000
,  // measure 43
00001001
00000001
00000010
00001010
00001000
00010000
01000000
00100000
,  // measure 44
10000000
00000000
10000000
00000000
10000000
10000000
00000000
10000000
00000000
10000000
01000000
00100000
01000000
00100000
00100000
00000000
,  // measure 45
10000000
00000000
10000000
00000000
10000000
10000000
00000000
10000000
00000000
10000000
01000000
00100000
01000000
00100000
00100000
01000000
;

//---------------dance-single - Edit by silenttype01----------------
#NOTES:
     dance-single:
     Edit by silenttype01:
     Challenge:
     10:
     0.701,0.658,0.473,0.000,0.743:
0000
0000
0000
0000
,
0000
0000
0000
0000
,
0000
0000
0000
0000
,
0000
0000
0000
0000
,
0000
0000
0000
0000
,
1000
0000
1000
0000
0100
0000
0100
0000
0010
0001
0000
0011
0000
0001
0010
0001
,
0010
0100
1000
0100
1000
0001
0100
0001
0100
0000
0010
1000
0010
0000
0000
0000
,
0001
0000
0001
0000
0010
0000
0010
0000
0100
1000
0000
1100
0000
0000
0001
0001
,
1000
1000
0100
0100
0010
0010
0001
0001
1000
0100
0010
0000
0001
1000
0001
0000
,
0101
0000
0000
0010
0100
0000
0001
0000
1000
0000
0100
1000
0000
0100
1000
0000
,
0110
0000
0000
0000
0001
0000
1000
0010
1000
0000
0001
0100
0000
0001
0100
0001
,
0101
0000
0000
1000
0010
0000
0100
0000
0001
0000
0010
0001
0000
0010
0001
0000
,
0011
0110
1100
0110
0011
0110
1001
0000
,
1000
0000
0100
0000
0001
0100
0000
1000
0100
0000
0001
0100
0000
1000
0001
1000
,
0001
0000
0100
0000
1000
0100
0000
0001
0100
0000
1000
0100
0000
0001
1000
0001
,
1000
0000
0100
0000
0001
0100
0000
1000
0100
0000
0001
0100
0000
1000
0001
1000
,
0001
0000
0100
0000
1000
0100
0000
0001
0000
1000
0000
1000
0001
1000
0001
0000
,
1000
0000
0010
0000
0001
0010
0000
1000
0010
0000
0001
0010
0000
1000
0001
1000
,
0001
0000
0010
0000
1000
0010
0000
0001
0010
0000
1000
0010
0000
0001
1000
0001
,
1000
0000
0010
0000
0001
0010
0000
1000
0010
0000
0001
0010
0000
1000
0001
1000
,
0001
0000
0001
0000
0001
0001
0000
0001
0000
0001
0010
0100
0100
0010
0010
0001
,
1000
0000
1000
0000
0001
0010
0000
0010
0001
0000
0001
0100
0000
0010
1000
0010
,
1000
0000
1000
0000
0100
0010
0000
0010
0100
0000
0100
1000
0000
0001
0010
0001
,
0010
0000
0010
0000
0100
1000
0000
1000
0001
0000
0001
0010
0000
0001
0100
0001
,
0100
0000
0100
0000
0001
1000
0000
0001
0000
0010
0000
0010
0100
0010
0100
1000
,
0001
0000
0010
0000
0100
1000
0000
0001
1000
0000
0010
1000
0000
0001
0100
0001
,
0100
0000
0010
0000
1000
0001
0000
0010
0001
0000
1000
0100
0000
0010
0001
0010
,
0001
0000
1000
0000
0100
0010
0000
0001
1000
0000
0010
1000
0000
0001
0100
0001
,
0100
0000
0010
0000
1000
0001
0000
1000
0000
1000
0010
1000
1000
0100
0010
0010
,
0010
0000
0000
0001
0010
0000
0011
0000
1000
0000
0011
0000
0001
0000
0100
0000
,
1001
0010
1000
0101
0010
0101
0001
0100
,
0010
0000
0000
1000
0010
0000
1010
0000
0001
0000
1010
0000
1000
0000
0100
0000
,
1001
0010
0001
1100
0010
1100
0001
0100
,
0001
0000
0000
0100
0001
0000
0101
0000
1000
0000
0101
0000
0100
0000
0001
0000
,
0011
1000
0001
1100
0010
1001
0100
0001
,
1100
0000
0000
0100
0010
0000
0110
0000
1000
0000
0110
0000
0001
0000
0100
0000
,
0001
0000
0001
0000
0001
1000
0000
1000
0001
0000
0110
0000
0001
1000
0001
0000
,
1000
0000
0000
1000
0100
0000
0100
0000
0010
0000
0110
0000
0100
0000
1000
0000
,
1001
0001
0100
0101
0001
1000
0010
1000
,
0010
0000
0000
0010
1000
0000
1000
0000
0100
0000
0110
0000
0010
0000
0001
0000
,
0100
0100
1001
0010
1001
0100
1010
0001
,
0101
0000
0000
0010
1000
0000
0100
0000
0010
0000
1100
0000
0010
0000
0001
0000
,
0101
1000
0010
0101
0010
0100
0001
1000
,
0001
0000
0001
0000
0001
0001
0000
0001
0000
0001
0010
0100
0010
0100
0100
0000
,
1000
0000
1000
0000
1000
1000
0000
1000
0000
1000
0100
0010
0100
0010
0010
0001
;
