#TITLE:DO IT ALL NIGHT;
#SUBTITLE:;
#ARTIST:E-ROTIC;
#TITLETRANSLIT:;
#SUBTITLETRANSLIT:;
#ARTISTTRANSLIT:;
#CREDIT:;
#BANNER:DO IT ALL NIGHT.png;
#BACKGROUND:DO IT ALL NIGHT-bg.png;
#LYRICSPATH:;
#CDTITLE:Dance Dance Revolution 3rd Mix.png;
#MUSIC:DO IT ALL NIGHT.ogg;
#OFFSET:0.000;
#SAMPLESTART:44.062;
#SAMPLELENGTH:15.000;
#SELECTABLE:YES;
#DISPLAYBPM:143.000;
#BPMS:0.000=142.300,4.000=142.980;
#STOPS:;
#BGCHANGES:;

//---------------dance-single - ----------------
#NOTES:
     dance-single:
     :
     Beginner:
     1:
     0.192,0.197,0.165,0.000,0.000:
0000
0000
0000
0000
,
0000
0000
0000
0000
,
0000
0000
0000
0000
,
0000
0000
0000
0000
,
0000
0000
0000
0000
,
0000
0000
0000
0000
,
1000
0000
0000
0000
,
0001
0000
0000
0000
,
0010
0010
0000
0000
,
0100
0100
0100
0000
,
0001
0001
0001
0001
,
0001
0000
0001
0000
,
0010
0010
0010
0010
,
0010
0000
0010
0000
,
1000
1000
1000
1000
,
1000
0000
1000
0000
,
0100
0100
0100
0100
,
0100
0000
0100
0000
,
0010
0000
1001
0000
,
0001
0000
0001
0000
,
0100
0000
1001
0000
,
1000
0000
1000
0000
,
0010
0000
0010
0000
,
1001
0000
0001
0000
,
0100
0000
1000
0000
,
0100
0000
0001
0000
,
1001
0000
0000
0000
,
0001
0000
1001
0000
,
1000
0000
1001
0000
,
0010
0000
0010
0000
,
0100
0100
0100
0000
,
1000
0000
1001
0000
,
0001
0000
1001
0000
,
0010
0000
0010
0000
,
0100
0100
0100
0000
,
0001
0000
0110
0000
,
1000
0000
1001
0000
,
0010
0010
0010
0000
,
0100
0100
0100
0000
,
1000
0000
0110
0000
,
0001
0000
1001
0000
,
0010
0010
0010
0000
,
0100
0100
0100
0000
,
0001
0000
1000
0000
,
0100
0100
0100
0000
,
1000
0000
0001
0000
,
0100
0100
0100
0000
,
1000
0000
0110
0000
,
0001
0001
0001
0000
,
0001
0000
0110
0000
,
1000
1000
1000
0000
,
1001
0000
0000
0000
;

//---------------dance-single - ----------------
#NOTES:
     dance-single:
     :
     Easy:
     3:
     0.229,0.253,0.000,0.000,0.000:
0000
0000
0000
0000
,
0000
0000
0000
0000
,
0000
0000
0000
0000
,
0000
0000
0000
0000
,
0000
0000
0000
0000
,
0000
0000
0000
0000
,
0010
0000
0100
0000
,
0010
0000
0100
0000
,
0001
0000
1000
0000
,
0001
0000
1000
0000
,
1000
1000
0010
0010
,
1000
0100
0001
0100
,
0001
0001
0010
0010
,
0001
0100
1000
0100
,
1000
1000
0010
0010
,
1000
0100
0001
0100
,
0001
0001
0010
0010
,
0001
0100
1000
0100
,
0000
0001
0000
0010
,
0000
0100
0000
1000
,
0000
0001
0000
0010
,
0000
0100
0000
1000
,
0000
0001
0000
0100
,
0000
0010
0000
1000
,
0000
0001
0000
0100
,
0000
0010
0000
1000
,
0000
0000
0000
0000
,
0001
0001
1000
1000
,
0001
1000
0001
1000
,
0010
0010
0100
0100
,
0010
0100
0010
0100
,
0001
0001
1000
1000
,
0001
1000
0001
1000
,
0010
0010
0100
0100
,
0010
0100
0010
0100
,
0001
0010
0100
1000
,
0001
0010
1000
0100
,
0001
0100
1000
0100
,
0010
0100
0010
0100
,
1000
0010
0100
0001
,
1000
0010
0001
0100
,
1000
0100
0001
0100
,
0010
0100
0010
0100
,
1000
0000
1000
0000
,
0001
0000
0001
0000
,
1000
0001
1000
0001
,
0010
0100
0010
0100
,
0001
0000
0001
0000
,
1000
0000
1000
0000
,
0001
1000
0001
1000
,
0010
0100
0010
0100
,
0010
0000
0000
0000
;

//---------------dance-single - ----------------
#NOTES:
     dance-single:
     :
     Medium:
     5:
     0.260,0.338,0.110,0.000,0.000:
0000
0000
0000
0000
,
0000
0000
0000
0000
,
0000
0000
0000
0000
,
0000
0000
0000
0000
,
0000
0000
0000
0000
,
0000
0000
0000
0000
,
0010
0010
0100
0100
,
0010
0010
0100
0100
,
0001
0001
1000
1000
,
0001
0001
1000
1000
,
1000
0001
1000
0000
0000
0000
0000
0000
,
0010
0100
0010
0000
0000
0000
0000
0000
,
0001
1000
0001
0000
0000
0000
0000
0000
,
0100
0010
0100
0000
0000
0000
0000
0000
,
1000
0001
1000
0000
0000
0000
0000
0000
,
1000
0001
0100
0000
0000
0000
0000
0000
,
0001
1000
0001
0000
0000
0000
0000
0000
,
0001
1000
0100
0000
0000
0000
0000
0000
,
0010
0100
0001
1000
,
0000
0000
0000
0000
,
0100
0001
1000
0010
,
0000
0000
0000
0000
,
0010
0001
0100
1000
,
0000
0000
0000
0000
,
0001
1000
0010
0100
,
0000
0000
0000
0000
,
1001
0000
0000
0000
,
0010
0100
0001
1000
,
0110
0001
0110
1000
,
0001
0100
0010
1000
,
1001
0010
1001
0100
,
0001
1000
0010
0100
,
0011
1000
1100
0001
,
0010
0100
1000
0001
,
0101
1000
1010
0001
,
0001
1000
0001
0000
0100
0000
0010
0000
,
1000
0001
1000
0000
0010
0000
0100
0000
,
0001
0100
0001
0000
0010
0000
0100
0000
,
1000
0010
1000
0000
0100
0000
0010
0000
,
0001
1000
0001
0000
0100
0000
0010
0000
,
1000
0001
1000
0000
0010
0000
0100
0000
,
0001
0010
0001
0000
0100
0000
0010
0000
,
1000
0100
1000
0000
0010
0000
0100
0000
,
1000
0100
0001
0000
0000
0000
0000
0000
,
0001
0010
1000
0000
0000
0000
0000
0000
,
0100
0001
0100
0000
0000
0000
0000
0000
,
0010
1000
0010
0000
0000
0000
0000
0000
,
0001
1000
0001
0000
0000
0000
0000
0000
,
1000
0100
1000
0000
0000
0000
0000
0000
,
0001
0010
0001
0000
0000
0000
0000
0000
,
0100
0100
0100
0100
,
1001
0000
0000
0000
;

//---------------dance-single - ----------------
#NOTES:
     dance-single:
     :
     Hard:
     8:
     0.441,0.478,0.022,0.000,0.000:
0000
0000
0000
0000
,
0000
0000
0000
0000
,
0000
0000
0000
0000
,
0000
0000
0000
0000
,
0000
0000
0000
0000
,
0000
0000
0000
0000
,
0010
0001
1000
0100
,
0010
0100
1000
0001
,
0010
0001
0100
1000
,
0001
0010
0100
1000
,
1000
0001
1000
0001
1000
0001
1000
0001
,
0010
0100
0010
0100
0010
0100
0010
0100
,
1000
0001
1000
0001
1000
0100
1000
0001
,
0100
0010
0100
0010
0100
0001
0100
0010
,
1000
0100
1000
0100
1000
0001
1000
0100
,
1000
0001
0100
0001
1000
0001
0100
0001
,
0010
0100
1000
0100
0010
0100
1000
0100
,
0010
0001
0100
0001
0010
0001
0100
0001
,
0010
0010
0010
0000
0000
0000
0000
0000
,
0100
0100
0100
0000
0000
0000
0000
0000
,
1000
1000
1000
0000
0000
0000
0000
0000
,
0001
0001
0001
0000
0000
0000
0000
0000
,
0010
0010
0010
0000
0000
0000
0000
0000
,
0100
0100
0100
0000
0000
0000
0000
0000
,
0001
0001
0001
0000
0000
0000
0000
0000
,
1000
1000
1000
0000
0000
0000
0000
0000
,
1001
0000
0000
0000
,
1000
0001
1000
0010
1000
0001
1000
0000
,
0010
0100
0010
1000
0010
0100
0010
0000
,
1000
0100
1000
0001
1000
0100
1000
0000
,
0001
0010
0001
1000
0001
0010
0001
0000
,
1000
0010
1000
0001
1000
0010
1000
0000
,
0001
0100
0001
1000
0001
0100
0001
0000
,
1000
0001
1000
0001
0010
0100
0010
0000
,
0001
1000
0001
1000
0100
0010
0100
0000
,
1000
0010
0100
0001
0010
0100
1000
0000
,
0010
0100
0001
0010
0100
1000
0001
0000
,
1000
0001
0100
0010
1000
0100
0010
0000
,
0001
1000
0010
0100
0001
0010
0100
0000
,
0010
0100
1000
0001
0100
0010
1000
0000
,
0010
0100
0001
1000
0100
0010
0001
0000
,
0100
0010
1000
0100
0001
0100
1000
0000
,
0010
0100
0001
0010
1000
0010
0001
0000
,
1000
0100
0001
0100
1000
0100
0001
0100
,
0010
0001
1000
0001
0100
0001
1000
0001
,
0010
0001
1000
0001
0100
0001
1000
0001
,
0010
0100
0001
0100
0010
0100
0001
0100
,
1000
0010
0001
0010
1000
0010
0001
0010
,
0100
0001
1000
0001
0010
0001
1000
0001
,
0100
0010
1000
0010
0100
0010
1000
0010
,
0100
0001
0010
1000
,
1001
0000
0000
0000
;

//---------------dance-single - ----------------
#NOTES:
     dance-single:
     :
     Challenge:
     8:
     0.542,0.619,0.276,0.000,0.248: // measure 1
0000
0000
0000
0000
,  // measure 2
0000
0000
0000
0000
,  // measure 3
0000
0000
0000
0000
,  // measure 4
0000
0000
0000
0000
,  // measure 5
0000
0000
0000
0000
,  // measure 6
0000
0000
0000
0000
,  // measure 7
1000
0000
1000
0000
1000
0000
1000
0100
,  // measure 8
0010
0000
0010
0000
0010
0000
0010
0100
,  // measure 9
1000
0000
1000
0100
0010
0000
0010
0100
,  // measure 10
1000
0001
0010
0100
1000
0001
0010
0100
,  // measure 11
1000
0000
0001
0000
1000
0000
0001
1000
0000
0001
1000
0000
0010
0000
0100
0000
,  // measure 12
0001
0000
1000
0000
0001
0000
1000
0001
0000
1000
0001
0000
0100
0000
0010
0000
,  // measure 13
1000
0000
0001
0000
1000
0000
0001
1000
0000
0001
1000
0000
0010
0000
0100
0000
,  // measure 14
0001
0000
1000
0000
0001
0000
1000
0001
0000
1000
0001
0000
0100
0000
0010
0000
,  // measure 15
1000
0000
0001
0000
1000
0000
0010
1000
0000
0001
1000
0000
0010
0000
0100
0000
,  // measure 16
0001
0000
1000
0000
0001
0000
0100
0001
0000
1000
0001
0000
0100
0000
0010
0000
,  // measure 17
0100
0000
0010
0000
0100
0000
0001
1000
0000
0001
1000
0000
0010
0000
0100
0000
,  // measure 18
0001
0000
1000
0000
0001
0000
1000
0001
0000
1000
0001
1000
0001
1000
0001
1000
,  // measure 19
0001
0000
0000
0100
1000
0000
0100
0000
0001
0000
0000
0100
1000
0000
0100
0000
,  // measure 20
0001
0000
0000
0010
1000
0000
0010
0000
0001
0000
0000
0010
1000
0000
0010
0000
,  // measure 21
0001
0000
0000
0100
1000
0000
0100
0000
0001
0000
0000
0100
1000
0000
0100
0000
,  // measure 22
0101
1001
1010
1100
,  // measure 23
1000
0000
0000
0010
0001
0000
0010
0000
1000
0000
0000
0100
0001
0000
0100
0000
,  // measure 24
1000
0000
0000
0010
0001
0000
0010
0000
1000
0000
0000
0100
0001
0000
0100
0000
,  // measure 25
1000
0000
0000
0010
0001
0000
0010
0000
1000
0000
0000
0100
0001
0000
0100
0000
,  // measure 26
0011
0110
1001
1100
,  // measure 27
0101
0000
0000
0000
,  // measure 28
0000
1000
0000
0001
0010
0001
1000
0100
,  // measure 29
0000
0010
0000
0001
0100
0010
1000
0100
,  // measure 30
0000
1000
0000
0001
0100
0010
1000
0001
,  // measure 31
0000
0110
0000
0011
0000
1100
0000
0101
,  // measure 32
0000
0001
0000
0010
0100
0010
0001
0100
,  // measure 33
0000
0010
0000
1000
0100
1000
0001
0010
,  // measure 34
0000
0001
0000
0100
0001
0100
0010
0100
,  // measure 35
0000
0001
0000
1000
0000
0010
0100
0001
,  // measure 36
1001
0000
1000
0001
0000
0100
0010
1000
,  // measure 37
1001
0000
1000
0001
0000
1000
0100
0010
,  // measure 38
0110
0000
0100
0001
0000
0100
0010
1000
,  // measure 39
1100
0110
1010
0101
,  // measure 40
1010
0000
0001
0010
0000
0100
0010
0001
,  // measure 41
0101
0000
1000
0100
0000
1000
0010
0100
,  // measure 42
0101
0000
1000
0001
0000
1000
0010
0100
,  // measure 43
0110
0000
0011
0000
1000
0001
0010
0100
,  // measure 44
1000
0000
0001
0000
1000
0000
0001
1000
0000
0001
1000
0000
0010
0000
0100
0000
,  // measure 45
0001
0000
1000
0000
0001
0000
1000
0001
0000
1000
0001
0000
0100
0000
0010
0000
,  // measure 46
1000
0000
0010
0000
1000
0000
0001
1000
0000
0001
1000
0000
0010
0000
0100
0000
,  // measure 47
0001
0000
0100
0000
0001
0000
1000
0001
0000
1000
0001
0000
0100
0000
0010
0000
,  // measure 48
1000
0000
0100
0000
1000
0000
0001
1000
0000
0100
1000
0000
0010
0000
0100
0000
,  // measure 49
0001
0000
0010
0000
0001
0000
1000
0001
0000
0010
0001
0000
0100
0000
0010
0000
,  // measure 50
0100
0000
0010
0000
0100
0000
0001
1000
0000
0001
1000
0000
0010
0000
0100
0000
,  // measure 51
0001
0001
1000
1000
0001
0010
0100
1000
,  // measure 52
0001
0000
0000
0000
;

//---------------dance-double - ----------------
#NOTES:
     dance-double:
     :
     Easy:
     3:
     0.233,0.338,0.232,0.000,0.000:
00000000
00000000
00000000
00000000
,
00000000
00000000
00000000
00000000
,
00000000
00000000
00000000
00000000
,
00000000
00000000
00000000
00000000
,
00000000
00000000
00000000
00000000
,
00000000
00000000
00000000
00000000
,
10000000
00000000
00010000
00000000
,
00001000
00000000
00000100
00000000
,
00000001
00000000
00000100
00000000
,
00010000
00000000
01000000
00000000
,
10010000
00000000
01000000
00000000
,
00011000
00000000
00000100
00000000
,
00001001
00000000
00000100
00000000
,
00011000
00000000
01000000
00000000
,
10010000
01000000
00010000
00001000
,
00001001
00000100
00001000
00010000
,
10010000
01000000
00010000
00001000
,
00001001
00000100
00001000
00010000
,
01100000
00000000
00001000
00010000
,
00000010
00001000
00000001
00000100
,
00000110
00000000
00010000
00001000
,
00100000
10000000
00010000
01000000
,
00011000
00000000
00000100
00000001
,
00001000
00000100
00010000
00001000
,
00100000
10000000
01000000
00010000
,
00000010
00001000
00000100
00000001
,
00001001
00000000
00000000
00000000
,
00000001
00000000
00000100
00000000
,
00001000
00000000
00010000
00000000
,
01000000
00000000
10000000
00000000
,
00100000
00000000
01000000
00000000
,
00001000
00000000
00010000
00000000
,
00000010
00000000
00000100
00000000
,
00000001
00000000
00001000
00000000
,
00010000
00000000
10000000
00000000
,
10010000
00000000
00100000
00000000
,
00011000
00000000
00000010
00000000
,
00001001
00000000
00000100
00000000
,
00011000
00000000
00100000
00000000
,
10010000
00000000
01000000
00000000
,
00011000
00000000
00000010
00000000
,
00001001
00000000
00000100
00000000
,
00011000
00000000
01000000
00000000
,
10000000
00100000
01000000
00010000
,
10000000
01000000
00010000
00001000
,
00000100
00000001
00000010
00000100
,
00001000
00000001
00001000
00010000
,
00100000
01000000
00100000
00010000
,
10000000
01000000
00010000
00001000
,
00000010
00000100
00000010
00001000
,
00000001
00000100
00001000
00010000
,
00011000
00000000
00000000
00000000
;

//---------------dance-double - ----------------
#NOTES:
     dance-double:
     :
     Medium:
     6:
     0.342,0.394,0.232,0.000,0.000:
00000000
00000000
00000000
00000000
,
00000000
00000000
00000000
00000000
,
00000000
00000000
00000000
00000000
,
00000000
00000000
00000000
00000000
,
00000000
00000000
00000000
00000000
,
00000000
00000000
00000000
00000000
,
10000000
10000000
00010000
00010000
,
00001000
00001000
00000100
00000100
,
00000001
00000100
00001000
00010000
,
00001000
00010000
01000000
01000000
,
10010000
00000000
01000000
00000000
00010000
00001000
01000000
00000000
,
00011000
00000000
00000100
00000000
00001000
00000001
00000100
00000000
,
00001001
00000000
00000100
00000000
00001000
00010000
00000100
00000000
,
00011000
00000000
01000000
00000000
00010000
10000000
01000000
00000000
,
10010000
00000000
00100000
00000000
01000000
00010000
00001000
00000000
,
00011000
00000000
00000010
00000000
00001000
00000010
00000001
00000000
,
00001001
00000000
00000010
00000000
00000100
00001000
00010000
00000000
,
00011000
00000000
00100000
00000000
00010000
00100000
10000000
00000000
,
01100000
00000000
00000000
00000000
00001000
00010000
00000100
00000000
,
00000010
00001000
00000001
00000100
,
00000110
00000000
00000000
00000000
00010000
00001000
01000000
00000000
,
00100000
00010000
10000000
01000000
,
00011000
00000000
00000000
00000000
00001000
00000001
00000100
00000000
,
00001000
00000000
00000100
00000000
00010000
00001000
01000000
00000000
,
10000000
00000000
01000000
00000000
00001000
00010000
00000100
00000000
,
00000010
00001000
00000100
00000001
,
00000110
00000000
00000000
00000000
,
00000001
00001000
00000100
00000000
00000000
00000000
00000000
00000000
,
00010000
00001000
01000000
00000000
00000000
00000000
00000000
00000000
,
10000000
01000000
00010000
00000000
00000000
00000000
00000000
00000000
,
00010000
00001000
00000100
00000000
00000000
00000000
00000000
00000000
,
00000001
00000010
00001000
00000000
00000000
00000000
00000000
00000000
,
00000010
00010000
00001000
00000000
00000000
00000000
00000000
00000000
,
00100000
00001000
00000100
00000000
00000000
00000000
00000000
00000000
,
00010000
00001000
01000000
00000000
00000000
00000000
00000000
00000000
,
10010000
00000000
01000000
00000000
00010000
00001000
00000100
00000000
,
00011000
00000000
00000100
00000000
00001000
00000001
00000100
00000000
,
00001001
00000000
00000100
00000000
00001000
00010000
01000000
00000000
,
00011000
00000000
01000000
00000000
00010000
10000000
01000000
00000000
,
01100000
00000000
10000000
00000000
00010000
01000000
00001000
00000000
,
00011000
00000000
01000000
00000000
00001000
00000010
00000100
00000000
,
00000110
00000000
00000001
00000000
00001000
00000100
00010000
00000000
,
00011000
00000000
00000100
00000000
00010000
00100000
01000000
00000000
,
10000000
00000000
00100000
00000000
01000000
00010000
00001000
00000000
,
00000100
00000000
00000001
00000000
00000100
00001000
00010000
00000000
,
00100000
00000000
10000000
00000000
01000000
00010000
00001000
00000000
,
00000010
00000000
00000001
00000000
00000100
00001000
00010000
00000000
,
01000000
00000000
00010000
00000000
10000000
00100000
00001000
00000000
,
00000100
00000000
00001000
00000000
00000001
00000010
00010000
00000000
,
01000000
00000000
10000000
00000000
10000000
01000000
00001000
00000000
,
00000100
00000000
00000001
00000000
00000001
00000100
00010000
00000000
,
10010000
00000000
00000000
00000000
;

//---------------dance-double - ----------------
#NOTES:
     dance-double:
     :
     Hard:
     8:
     0.471,0.563,0.143,0.000,0.177:
00000000
00000000
00000000
00000000
,
00000000
00000000
00000000
00000000
,
00000000
00000000
00000000
00000000
,
00000000
00000000
00000000
00000000
,
00000000
00000000
00000000
00000000
,
00000000
00000000
00000000
00000000
,
10000000
01000000
00010000
00010000
,
00001000
00000100
00000001
00000001
,
00000001
00000100
00001000
00001000
,
00010000
01000000
10000000
10000000
,
10000000
00000000
00010000
00000000
01000000
00000000
00001000
00010000
00000000
00000000
00001000
00010000
00000100
00000000
00000000
00000000
,
00000001
00000000
00001000
00000000
00000100
00000000
00010000
00001000
00000000
00000000
00010000
00001000
01000000
00000000
00000000
00000000
,
00100000
00000000
10000000
00000000
01000000
00000000
00010000
01000000
00000000
00000000
00010000
01000000
00001000
00000000
00000000
00000000
,
00000010
00000000
00000001
00000000
00000100
00000000
00001000
00000100
00000000
00000000
00001000
00000100
00010000
00000000
00000000
00000000
,
00010000
00000000
10000000
00000000
01000000
00000000
10000000
01000000
00000000
00000000
10000000
01000000
00001000
00000000
00010000
00000000
,
00001000
00000000
00000001
00000000
00000100
00000000
00000001
00000100
00000000
00000000
00000001
00000100
00010000
00000000
00001000
00000000
,
00100000
00000000
00010000
00000000
10000000
00000000
00010000
10000000
00000000
00000000
00010000
10000000
00010000
00000000
01000000
00000000
,
00001000
00000000
00010000
00000000
00001000
00000000
00010000
00001000
00000000
00000000
00010000
00001000
00000100
00000000
00001000
00000000
,
00001001
00000000
00000000
00000000
00001000
00010000
00100000
00000000
,
00100000
10000000
01000000
00010000
00001000
00000100
00000001
00000000
,
00001001
00000000
00000000
00000000
00010000
00001000
01000000
00000000
,
00010000
10000000
01000000
00100000
00001000
00010000
00000100
00000000
,
00011000
00000000
00000000
00000000
00001000
00000001
00000100
00000000
,
00000010
00001000
00000001
00000100
00010000
10000000
01000000
00000000
,
10000000
00010000
01000000
00001000
00010000
00000010
00000100
00000000
,
00001000
00010000
01000000
00000000
00010000
00001000
00000100
00000000
,
00000110
00000000
00000000
00000100
00000000
00001000
00000001
00000000
,
00001001
00000000
00000000
00000001
00000000
00000100
00010000
00000000
,
10010000
00000000
01000000
00000000
00010000
00001000
00000100
00000001
,
00000010
00001000
00010000
00000100
00001000
00100000
10000000
00010000
,
00000000
00010000
00000000
10000000
00000000
01000000
00010000
00000000
,
00000110
00000000
00000000
00000001
00000000
00000100
00010000
00000000
,
10010000
00000000
00100000
00000000
00010000
10000000
01000000
00010000
,
00001000
00000100
00000010
00001000
00000100
00000001
00000100
00001000
,
00000000
00010000
00000000
10000000
00000000
00010000
01000000
00000000
,
11000000
00000000
00000000
00001000
00000000
00010000
00000010
00000000
,
00000101
00000000
00001000
00000000
00000001
00001000
00000100
00000010
,
00000001
00000100
00001000
00010000
01000000
10000000
00010000
10000000
,
00000000
00000000
00000000
00010000
00000000
10000000
01000000
00000000
,
01100000
00000000
00000000
00010000
00000000
00001000
00000100
00000000
,
00000101
00000000
00000010
00000000
00000100
00001000
00000001
00000100
,
00000010
00001000
00000100
00000001
00000100
00001000
00010000
10000000
,
00000000
00000000
00000000
00000000
,
10000000
00000000
00010000
00000000
01000000
00000000
00001000
00010000
00000000
00000000
00001000
00010000
00000100
00000000
00000000
00000000
,
00000001
00000000
00001000
00000000
00000100
00000000
00010000
00001000
00000000
00000000
00010000
00001000
01000000
00000000
00000000
00000000
,
00100000
00000000
10000000
00000000
01000000
00000000
00010000
01000000
00000000
00000000
00010000
01000000
00001000
00000000
00000000
00000000
,
00000010
00000000
00000001
00000000
00000100
00000000
00001000
00000100
00000000
00000000
00001000
00000100
00010000
00000000
00000000
00000000
,
00010000
00000000
10000000
00000000
01000000
00000000
10000000
01000000
00000000
00000000
10000000
01000000
00001000
00000000
00010000
00000000
,
00001000
00000000
00000001
00000000
00000100
00000000
00000001
00000100
00000000
00000000
00000001
00000100
00010000
00000000
00001000
00000000
,
00100000
00000000
00010000
00000000
10000000
00000000
00010000
10000000
00000000
00000000
00010000
10000000
00010000
00000000
01000000
00000000
,
00001000
00000000
00010000
00000000
00001000
00000000
00010000
00001000
00000000
00000000
00010000
00001000
00000100
00000000
00001000
00000000
,
00001001
00000000
00000000
00000000
;

//---------------dance-double - ----------------
#NOTES:
     dance-double:
     :
     Challenge:
     8:
     0.511,0.478,0.265,0.000,0.000:
00000000
00000000
00000000
00000000
,
00000000
00000000
00000000
00000000
,
00000000
00000000
00000000
00000000
,
00000000
00000000
00000000
00000000
,
00000000
00000000
00000000
00000000
,
00000000
00000000
00000000
00000000
,
10010000
00000000
11000000
00000000
00010000
00001000
00000100
00000000
,
00001001
00000000
00000101
00000000
00001000
00010000
01000000
00000000
,
00100000
00010000
01000000
00000000
00100000
00010000
00001000
00000000
,
00000010
00001000
00010000
00001000
00000100
00000010
00001000
00000100
,
00000010
00000001
00000100
00000001
00000010
00001000
00010000
00100000
,
10000000
01000000
10000000
00100000
10000000
01000000
00010000
00001000
,
00000010
00000001
00000100
00000001
00000010
00001000
00010000
00100000
,
10000000
01000000
10000000
00100000
10000000
01000000
00010000
00001000
,
00000010
00000001
00000100
00000001
00000010
00001000
00010000
00100000
,
10000000
01000000
10000000
00100000
10000000
01000000
00010000
00001000
,
00000010
00000001
00000100
00000001
00000010
00001000
00010000
00100000
,
10000000
01000000
10000000
00100000
10000000
00010000
10000000
01000000
,
00100000
00000000
11000000
00000000
10000000
01000000
00010000
00000000
,
00001000
00010000
01000000
00100000
01000000
00010000
00001000
00000100
,
00000010
00000000
00000101
00000000
00000001
00000100
00001000
00000000
,
00010000
00001000
00000100
00000010
00000100
00001000
00010000
01000000
,
00100000
00000000
10010000
00000000
00100000
10000000
01000000
00000000
,
00100000
00010000
10000000
00000000
00100000
10000000
00010000
00000000
,
10000000
01000000
10000000
01000000
00010000
01000000
00010000
00001000
,
00010000
00001000
00000100
00001000
00000100
00000001
00000100
00000001
,
00001000
00000110
00001000
00000001
,
00000010
00000000
00001001
00000000
00000010
00000100
00000001
00000000
,
00000100
00001000
00010000
00000000
00101000
00000000
00110000
00000000
,
00100000
01000000
00010000
00000000
00100000
01000000
10000000
00000000
,
00100000
10000000
00010000
00100000
01000000
00010000
00001000
00000000
,
00000110
00000000
00000001
00000000
00000010
00001000
00010000
00000000
,
00000010
00001000
00010000
00000000
00010100
00000000
00011000
00000000
,
00010000
01000000
10000000
00000000
10000000
01000000
00010000
00000000
,
00001000
00000100
00000010
00001000
00000100
00000010
00001000
00000000
,
00000011
00000000
00000101
00000000
00000010
00001000
00010000
00000000
,
00010000
00001000
00000100
00000000
00000110
00000000
00001001
00000000
,
00000010
00001000
00010000
00000000
00100000
00010000
00001000
00000000
,
00010000
01000000
00100000
00010000
01000000
00100000
00010000
00000000
,
01100000
00000000
10010000
00000000
00100000
10000000
01000000
00000000
,
00100000
00010000
01000000
00000000
10010000
00000000
01100000
00000000
,
00010000
00001000
00000100
00000000
00010000
00001000
00000100
00000000
,
00000101
00000000
00001010
00000000
00000001
00000100
00001000
00000000
,
00000100
00000001
00001000
00000100
00000010
00000001
00001000
00000010
,
00000001
00000010
00000100
00001000
00010000
00100000
01000000
10000000
,
01000000
00010000
00100000
01000000
00010000
00001000
00000100
00000010
,
00001000
00000100
00000010
00001000
00010000
00100000
10000000
01000000
,
00100000
00010000
01000000
00100000
00010000
00001000
00000100
00000010
,
00000001
00000010
00001000
00000001
00000010
00000100
00001000
00000010
,
00001000
00000100
00000010
00001000
00010000
00001000
00000100
00000010
,
00001000
00000100
00000010
00001000
00010000
01000000
00100000
00010000
,
10000000
00000000
00000000
00000000
;

//---------------dance-couple - ----------------
#NOTES:
     dance-couple:
     :
     Challenge:
     8:
     0.530,0.647,0.728,0.000,0.000:
00000000
00000000
00000000
00000000
,
00000000
00000000
00000000
00000000
,
00000000
00000000
00000000
00000000
,
00000000
00000000
00000000
00000000
,
00000000
00000000
00000000
00000000
,
00000000
00000000
00000000
00000000
,
00000000
00000000
10000000
10000000
,
00000000
00000000
00000001
00000001
,
00100000
00000010
10000000
00001000
,
01000000
00000100
00010000
00000001
,
00100000
01000000
00100000
00000000
10000000
00000000
01000001
00000000
,
10000000
00010000
10000000
00000000
00010000
00000000
01000001
00000000
,
01000000
00100000
01000000
00000000
10000000
00000000
01000001
00000000
,
10000000
00010000
10000000
00000000
00010000
00000000
01000001
00000000
,
00000010
00000100
00000010
00000000
00001000
00000000
10000100
00000000
,
00001000
00000001
00001000
00000000
00000001
00000000
10000100
00000000
,
00000100
00000010
00000100
00000000
00001000
00000000
10000100
00000000
,
00001000
00000001
00001000
00000000
00000001
00000000
10000100
00000000
,
10010000
00000000
01000001
00000000
01000000
10000000
00010001
00000000
,
01000000
00010000
01000001
00010000
10000000
01000000
10000001
00000000
,
00001001
00000000
10000100
00000000
00000100
00001000
10000001
00000000
,
00000100
00000001
10000100
00000001
00001000
00000100
10001000
00000000
,
00100000
00100000
00100000
00000000
00000010
00000010
00000010
00000000
,
00000001
00000001
00000001
00000000
00010000
00010000
00010000
00000000
,
10000000
10000000
10000000
00000000
00001000
00001000
00001000
00000000
,
00000100
00000100
00000100
00000000
01000000
01000000
01000000
00000000
,
10011001
00000000
00000000
00000000
,
00001000
00000001
10001000
00000010
00001000
00000001
10001000
00000000
,
00000010
00000100
10000010
00001000
00000010
00000100
10000010
00000000
,
00001000
00000100
10001000
00000001
00001000
00000100
10001000
00000000
,
00000001
00000010
10000001
00001000
00000001
00000010
10000001
00000000
,
10000000
00010000
10000001
00100000
10000000
00010000
10000001
00000000
,
00100000
01000000
00100001
10000000
00100000
01000000
00100001
00000000
,
10000000
01000000
10000001
00010000
10000000
01000000
10000001
00000000
,
00010000
00100000
00010001
10000000
00010000
00100000
00010001
00000000
,
10011001
00000000
01000100
00000000
00011000
10000001
01000100
00000000
,
00100010
00000000
01000100
00000000
00011000
10000001
01000100
00000000
,
00010000
11000000
00010000
11000000
,
00001000
00000101
00001000
00000101
,
00100000
01000000
10000000
00010000
01000000
00100000
10000000
00000000
,
00000010
00000100
00000001
00001000
00000100
00000010
00000001
00000000
,
01000000
00100000
10000000
01000000
00010000
01000000
10000000
00000000
,
00000010
00000100
00000001
00000010
00001000
00000010
00000001
00000000
,
10000000
01000000
00010001
01000000
10000000
01000000
00010001
01000000
,
00100000
00010000
10000001
00010000
01000000
00010000
10000001
00010000
,
00100000
00010000
10000001
00010000
01000000
00010000
10000001
00010000
,
00100000
01000000
00010001
01000000
00100000
01000000
00010001
00000000
,
00001000
00000100
10000001
00000100
00001000
00000100
10000001
00000100
,
00000010
00000001
10001000
00000001
00000100
00000001
10001000
00000001
,
00000010
00000001
10001000
00000001
00000100
00000001
10001000
00000001
,
00000010
00000100
10000001
00000100
00000010
00000100
10000001
00000000
,
00011000
00000000
00000000
00000000
;

//---------------dance-solo - ----------------
#NOTES:
     dance-solo:
     :
     Easy:
     3:
     0.219,0.253,0.000,0.000,0.000:
000000
000000
000000
000000
,
000000
000000
000000
000000
,
000000
000000
000000
000000
,
000000
000000
000000
000000
,
000000
000000
000000
000000
,
000000
000000
000000
000000
,
000010
000000
100000
000000
,
000010
000000
100000
000000
,
000001
000000
010000
000000
,
000001
000000
010000
000000
,
000100
000100
100000
100000
,
000001
001000
000100
100000
,
000001
000001
001000
001000
,
000001
000100
001000
100000
,
000010
000010
100000
000010
,
100000
001000
000001
000100
,
010000
010000
010000
000001
,
100000
000100
001000
000001
,
000000
001000
000000
000010
,
000000
010000
000000
001000
,
000000
000001
000000
100000
,
000100
000000
100000
000000
,
000000
000001
000000
001000
,
000000
000100
000000
001000
,
000000
000010
000000
001000
,
000000
010000
000000
000001
,
000000
000000
000000
000000
,
000100
000100
001000
001000
,
000001
100000
000001
100000
,
000010
000010
100000
100000
,
010000
000001
010000
000001
,
000100
000100
100000
100000
,
001000
000001
001000
000001
,
010000
000000
000010
000000
,
001000
000100
001000
000100
,
100000
001000
000100
000001
,
000001
000100
001000
100000
,
000010
001000
000001
010000
,
000001
100000
000001
100000
,
000100
001000
000001
100000
,
000100
100000
000001
001000
,
000001
001000
000100
100000
,
000100
001000
000100
001000
,
000010
000000
000010
000000
,
010000
000000
010000
000000
,
000010
000000
010000
000000
,
000010
000000
010000
000000
,
000010
000000
100000
000000
,
010000
000000
000001
000000
,
000001
100000
000001
100000
,
000100
001000
000100
001000
,
000010
000000
000000
000000
;

//---------------dance-solo - ----------------
#NOTES:
     dance-solo:
     :
     Medium:
     5:
     0.257,0.338,0.099,0.000,0.000:
000000
000000
000000
000000
,
000000
000000
000000
000000
,
000000
000000
000000
000000
,
000000
000000
000000
000000
,
000000
000000
000000
000000
,
000000
000000
000000
000000
,
000010
000010
100000
100000
,
010000
010000
000001
000001
,
000100
000100
001000
001000
,
000001
000001
100000
100000
,
000100
001000
000100
000000
000000
000000
000000
000000
,
100000
000001
100000
000000
000000
000000
000000
000000
,
000001
010000
000001
000000
000000
000000
000000
000000
,
001000
000010
001000
000000
000000
000000
000000
000000
,
010000
001000
100000
000000
000000
000000
000000
000000
,
000001
000100
000010
000000
000000
000000
000000
000000
,
000100
001000
000100
000000
000000
000000
000000
000000
,
000100
000001
000010
000000
000000
000000
000000
000000
,
010000
010000
000001
100000
,
000000
000000
000000
000000
,
000100
000001
010000
001000
,
000000
000000
000000
000000
,
100000
000100
001000
000001
,
000000
000000
000000
000000
,
000100
100000
000001
001000
,
000000
000000
000000
000000
,
100001
000000
000000
000000
,
010000
010000
000010
100000
,
000100
000110
000100
010100
,
000001
001000
000100
100000
,
000010
001000
000001
100000
,
000100
010000
001000
100000
,
000001
000011
100000
110000
,
000100
001000
000001
100000
,
000010
100010
010000
010001
,
000100
001000
001000
100001
,
000100
001000
000100
000000
010000
000000
000010
000000
,
001000
000001
001000
000000
000100
000000
100000
000000
,
000010
100000
000010
000000
001000
000000
000100
000000
,
100000
000001
001000
000000
000010
000000
010000
000000
,
000001
001000
000100
000000
100000
000000
001000
000000
,
000001
000010
000001
000000
000100
000000
001000
000000
,
100000
010000
100000
000000
000100
000000
001000
000000
,
100000
001000
000001
000000
000000
000000
000000
000000
,
000001
001000
100000
000000
000000
000000
000000
000000
,
000010
100000
000010
000000
000000
000000
000000
000000
,
010000
000001
010000
000000
000000
000000
000000
000000
,
000010
001000
000010
000000
000000
000000
000000
000000
,
010000
001000
010000
000000
000000
000000
000000
000000
,
000001
100000
000001
000000
000000
000000
000000
000000
,
001000
001000
001000
001000
,
100001
000000
000000
000000
;

//---------------dance-solo - ----------------
#NOTES:
     dance-solo:
     :
     Hard:
     7:
     0.443,0.478,0.044,0.000,0.000:
000000
000000
000000
000000
,
000000
000000
000000
000000
,
000000
000000
000000
000000
,
000000
000000
000000
000000
,
000000
000000
000000
000000
,
000000
000000
000000
000000
,
000100
100000
000001
001000
,
000100
001000
100000
000001
,
001000
000001
000100
100000
,
000001
000100
001000
100000
,
000001
010000
000001
010000
000001
010000
000001
010000
,
000100
100000
000100
100000
000100
100000
000100
100000
,
000010
001000
000010
001000
000010
001000
000010
001000
,
000001
100000
000001
100000
000001
010000
000001
100000
,
001000
000100
001000
000100
001000
010000
001000
000100
,
000001
100000
000001
001000
000001
010000
000001
100000
,
000010
000100
000010
001000
000010
010000
000010
100000
,
000100
001000
000010
001000
000100
001000
000001
001000
,
000010
000010
000010
000000
000000
000000
000000
000000
,
010000
010000
010000
000000
000000
000000
000000
000000
,
000001
000001
000001
000000
000000
000000
000000
000000
,
100000
100000
100000
000000
000000
000000
000000
000000
,
001000
001000
001000
000000
000000
000000
000000
000000
,
000100
000100
000100
000000
000000
000000
000000
000000
,
010000
010000
010000
000000
000000
000000
000000
000000
,
000010
000010
000010
000000
000000
000000
000000
000000
,
001100
000000
000000
000000
,
100000
000001
100000
000100
100000
000010
100000
000000
,
000010
100000
000010
000100
000010
001000
000010
000000
,
001000
000100
001000
000001
001000
000010
001000
000000
,
000001
000100
000001
010000
000001
100000
000001
000000
,
000100
001000
000100
000001
000100
100000
000100
000000
,
000001
010000
000001
100000
000001
001000
000001
000000
,
100000
000010
100000
000010
001000
000001
001000
000000
,
000010
100000
000010
000000
000100
000001
000100
000000
,
000010
001000
000010
100000
000001
000100
001000
000000
,
010000
000001
100000
001000
000100
000001
001000
000000
,
000010
100000
000100
001000
000010
100000
000001
000000
,
000100
001000
010000
000001
100000
000010
001000
000000
,
000100
010000
010000
000001
100000
000010
000010
000000
,
001000
000100
100000
100001
001000
001000
000010
000000
,
010000
000001
000001
100100
001000
000010
000010
000000
,
000100
000001
100000
000100
001000
000100
100000
000000
,
000010
001000
010000
001000
000010
001000
010000
001000
,
001000
000001
000100
000001
100000
000001
001000
000001
,
000100
000001
010000
000001
000010
000001
100000
000001
,
000100
001000
100000
001000
010000
001000
100000
001000
,
010000
000100
000001
000100
010000
000100
000001
000100
,
100000
010000
100000
000100
100000
010000
100000
001000
,
010000
100000
010000
000100
010000
100000
010000
000100
,
100000
000001
001000
000100
,
100001
000000
000000
000000
;

//---------------dance-double - Edit by silenttype01----------------
#NOTES:
     dance-double:
     Edit by silenttype01:
     Edit:
     8:
     0.517,0.563,0.232,0.177,0.182:
00000000
00000000
00000000
00000000
,
00000000
00000000
00000000
00000000
,
00000000
00000000
00000000
00000000
,
00000000
00000000
00000000
00000000
,
00000000
00000000
00000000
00000000
,
00000000
00000000
00000000
00000000
,
00000000
00000000
00000000
00000000
,
00000000
00000000
00000000
00000000
,
00000000
00000000
00000000
00000000
,
00000000
00000000
00000000
00000000
00000000
10000000
00100000
01000000
,
00010000
00000000
10000000
00000000
01000000
00000000
10000000
01000000
00000000
00000000
10000000
01000000
00001000
00000000
00000000
00000000
,
00001000
00000000
00000001
00000000
00000100
00000000
00000001
00000100
00000000
00000000
00000001
00000100
00010000
00000000
00000000
00000000
,
00010000
00000000
10000000
00000000
00100000
00000000
10000000
00100000
00000000
00000000
10000000
00100000
00001000
00000000
00000000
00000000
,
00001000
00000000
00000001
00000000
00000010
00000000
00000001
00000010
00000000
00000000
00000001
00000010
00010000
00000000
00100000
00000000
,
00010000
00000000
10000000
00000000
01000000
00000000
10000000
01000000
00000000
00000000
10000000
01000000
00001000
00000000
00000010
00000000
,
00001000
00000000
00000001
00000000
00000100
00000000
00000001
00000100
00000000
00000000
00000001
00000100
00010000
00000000
01000000
00000000
,
00010000
00000000
10000000
00000000
00100000
00000000
10000000
00100000
00000000
00000000
10000000
00100000
00001000
00000000
00000100
00000000
,
00001000
00000000
00000001
00000000
00000010
00000000
00000001
00000010
00000000
00000000
00000001
00000010
00010000
00000000
00100000
00010000
,
00100000
01000000
10000000
01000000
00010000
00001000
00010000
01000000
,
00100000
01000000
00010000
00001000
00000100
00000010
00000100
00000001
,
00000100
00001000
00010000
00001000
00000100
00000010
00000100
00001000
,
00010000
01000000
00100000
00010000
10000000
00100000
10000000
01000000
,
00100000
00000000
10010000
00000000
01000000
10000000
00010000
10000000
,
00100000
10000000
00100000
00010000
00100000
00010000
00001000
00010000
,
00001000
00000010
00001000
00000010
00000001
00000010
00000001
00001000
,
00000001
00000100
00000001
00000100
00001000
00010000
00001000
00000100
,
00001001
00000000
00000000
00000000
00000000
00001001
00000000
00000000
,
00000110
00001001
00000101
00001100
,
00011000
01010000
11000000
10010000
,
02000000
03200000
00302000
00023000
,
02030000
03200000
00302000
00013000
,
01010000
11000000
01100000
00101000
,
00010010
00000110
00001100
00000101
,
00000200
00000320
00020030
00032000
,
00003200
00000000
00000320
00000000
00020030
00000000
00031000
00001000
,
00001000
00000100
00000010
00000100
00001000
00000100
00000001
00000000
,
00001000
00000100
00000010
00000001
00000100
00000010
00001000
00000000
,
00000001
00000100
00000010
00000000
00000100
00001000
00010000
00000000
,
01000000
00100000
01000000
00000000
10000000
00010000
00100000
00000000
,
01000000
00010000
01000000
00100000
01000000
00010000
01000000
00000000
,
10000000
00100000
01000000
00010000
10000000
01000000
00100000
00000000
,
10000000
00010000
00001000
00000001
,
00002002
00000000
00000000
00000000
00003003
00000010
00000100
00000010
,
00000001
00000000
00000100
00000000
00000001
00000000
00000100
00000001
00000000
00000100
00000001
00000000
00000100
00000000
00001000
00000000
,
00010000
00000000
00000010
00000000
00001000
00000000
00000010
00010000
00000000
00001000
00100000
00000000
00010000
00000000
00100000
00000000
,
00001000
00000000
00010000
00000000
01000000
00000000
10000000
00100000
00000000
10000000
00100000
00000000
00010000
00000000
00001000
00000000
,
00010000
00000000
00100000
00000000
10000000
00000000
00010000
10000000
00000000
00010000
10000000
00000000
01000000
00000000
00010000
00000000
,
00001000
00000000
00000010
00000000
00000001
00000000
00001000
00000001
00000000
00001000
00000001
00000000
00000100
00000000
00001000
00000000
,
00010000
00000000
00100000
00000000
10000000
00000000
00010000
01000000
00000000
00100000
10000000
00000000
01000000
00000000
00010000
00000000
,
00001000
00000000
00000010
00000000
00000001
00000000
00001000
00000100
00000000
00000010
00000001
00000000
00000100
00000000
00000001
00000000
,
00000010
00000000
00001000
00000000
00010000
00000000
01000000
10000000
00000000
01000000
00010000
00000000
00001000
00000000
01000000
00000000
,
00110000
00000000
00000000
00000000
;

//---------------dance-single - Edit by silenttype01----------------
#NOTES:
     dance-single:
     Edit by silenttype01:
     Edit:
     8:
     0.517,0.563,0.232,0.177,0.182: // measure 1
0000
0000
0000
0000
,  // measure 2
0000
0000
0000
0000
,  // measure 3
0000
0000
0000
0000
,  // measure 4
0000
0000
0000
0000
,  // measure 5
0000
0000
0000
0000
,  // measure 6
0000
0000
0000
0000
,  // measure 7
0000
0000
0000
0000
,  // measure 8
0000
0000
0000
0000
,  // measure 9
0000
0000
0000
0000
,  // measure 10
0000
0000
0000
0000
0000
1000
0010
0100
,  // measure 11
0001
0000
1000
0000
0100
0000
1000
0100
0000
0000
1000
0100
1000
0000
0000
0000
,  // measure 12
1000
0000
0001
0000
0100
0000
0001
0100
0000
0000
0001
0100
0001
0000
0000
0000
,  // measure 13
0001
0000
1000
0000
0010
0000
1000
0010
0000
0000
1000
0010
1000
0000
0000
0000
,  // measure 14
1000
0000
0001
0000
0010
0000
0001
0010
0000
0000
0001
0010
0001
0000
0010
0000
,  // measure 15
0001
0000
1000
0000
0100
0000
1000
0100
0000
0000
1000
0100
1000
0000
0010
0000
,  // measure 16
1000
0000
0001
0000
0100
0000
0001
0100
0000
0000
0001
0100
0001
0000
0100
0000
,  // measure 17
0001
0000
1000
0000
0010
0000
1000
0010
0000
0000
1000
0010
1000
0000
0100
0000
,  // measure 18
1000
0000
0001
0000
0010
0000
0001
0010
0000
0000
0001
0010
0001
0000
0010
0001
,  // measure 19
0010
0001
1000
0001
0010
0001
1000
0001
,  // measure 20
0010
0100
0010
0001
0010
0100
0010
0001
,  // measure 21
0100
0001
1000
0001
0100
0001
1000
0010
,  // measure 22
1000
0001
1000
0010
1000
0001
0010
0001
,  // measure 23
1000
0000
1001
0000
0001
0010
0001
1000
,  // measure 24
0100
1000
0001
1000
0100
1000
0001
1000
,  // measure 25
0001
1000
0010
0100
0010
1000
0001
1000
,  // measure 26
0001
0100
0010
0100
0001
0010
0100
1000
,  // measure 27
1001
0000
0000
0000
0000
1001
0000
0000
,  // measure 28
0101
0110
1010
0101
,  // measure 29
1001
1100
0011
0110
,  // measure 30
2000
3002
0023
0230
,  // measure 31
2300
3020
0230
0310
,  // measure 32
0101
1100
0011
0110
,  // measure 33
1001
0110
1100
0011
,  // measure 34
2000
3200
0302
0203
,  // measure 35
0320
0000
0230
0000
0320
0000
1030
1000
,  // measure 36
1000
0001
0100
1000
0001
0100
1000
0000
,  // measure 37
0100
0001
0100
1000
0100
0010
1000
0000
,  // measure 38
0001
0100
0010
0000
1000
0100
0010
0000
,  // measure 39
1000
0010
0001
0000
1000
0100
0001
0000
,  // measure 40
0100
1000
0100
1000
0010
0100
0001
0000
,  // measure 41
0100
0001
0100
0001
0010
0100
1000
0000
,  // measure 42
0010
0001
0100
1000
,  // measure 43
2002
0000
0000
0000
3003
1000
0010
0100
,  // measure 44
0001
0000
1000
0000
0001
0000
1000
0001
0000
1000
0001
0000
0010
0000
0100
0000
,  // measure 45
1000
0000
0001
0000
1000
0000
0001
1000
0000
0001
1000
0000
0100
0000
0010
0000
,  // measure 46
0001
0000
0010
0000
0001
0000
1000
0001
0000
1000
0001
0000
0010
0000
0100
0000
,  // measure 47
1000
0000
0100
0000
1000
0000
0001
1000
0000
0001
1000
0000
0100
0000
0010
0000
,  // measure 48
0001
0000
0100
0000
0001
0000
1000
0001
0000
0100
0001
0000
0010
0000
0100
0000
,  // measure 49
1000
0000
0010
0000
1000
0000
0001
1000
0000
0010
1000
0000
0100
0000
0010
0000
,  // measure 50
0100
0000
0010
0000
0100
0000
1000
0001
0000
1000
0001
0000
0010
0000
0100
0000
,  // measure 51
1000
0000
1000
0000
0001
0000
0001
1000
0000
0010
0100
0000
0001
0000
1000
0000
,  // measure 52
0110
0000
0000
0000
;
