#TITLE:Disconnected;
#SUBTITLE:;
#ARTIST:Inspector K;
#TITLETRANSLIT:;
#SUBTITLETRANSLIT:;
#ARTISTTRANSLIT:;
#CREDIT:;
#BANNER:disconnected-bn.png;
#BACKGROUND:disconnected-bg.png;
#LYRICSPATH:;
#CDTITLE:;
#MUSIC:Disconnected.ogg;
#OFFSET:-0.036;
#SAMPLESTART:67.220;
#SAMPLELENGTH:9.500;
#SELECTABLE:YES;
#BPMS:0.000=200.000;
#STOPS:287.000=2.400
;
#BGCHANGES:;

//---------------dance-single - K. Ward----------------
#NOTES:
     dance-single:
     K. Ward:
     Hard:
     8:
     0.552,0.659,0.210,0.081,0.000:
0000
0000
0000
0000
,
0000
0000
0000
0000
,
0000
0000
0000
0000
,
0000
0000
0000
0000
,
0000
0000
0000
0000
,
0000
0000
0000
0000
,
0000
0000
0000
0000
,
0000
0000
0000
0000
,
0100
1000
0100
1000
0100
0000
0000
0000
,
0001
0010
0001
0010
0001
0000
0000
0000
,
0010
0100
0010
0100
0010
0000
0000
0000
,
0001
1000
0001
1000
0001
0000
0000
0000
,
1000
1000
0010
0001
,
0010
0000
0100
0000
0001
0010
0001
0000
,
1000
1000
0001
0010
,
0100
0010
0100
0000
1001
0000
0000
0000
,
0100
1000
0100
0010
0100
0000
0000
0000
,
0010
0001
0010
0100
0010
0000
0000
0000
,
0100
0001
0010
0100
0010
0000
0000
0000
,
1000
0001
1000
0001
1000
0000
0000
0000
,
0100
0100
0010
0001
,
0100
0000
0010
0000
0001
0010
0100
0000
,
0001
0010
0100
1000
,
0100
0010
0100
0000
1001
0000
0000
0000
,
1100
0000
0100
0010
0000
0000
0011
0000
,
0000
0000
0010
0100
,
1001
0000
0000
1100
0000
0000
0110
0000
,
0000
0000
0100
0010
,
0011
0000
0100
0010
0000
0000
0101
0000
,
0000
0000
0100
1000
,
0100
0000
0000
0011
0000
0000
1001
0000
,
0000
0000
0001
1000
,
0100
0010
0100
0000
1000
1000
0000
0010
,
0001
0010
0100
0000
0001
0001
0000
0010
,
0100
0010
0100
0000
1000
1000
0000
0010
,
0100
1000
0100
0000
0002
0000
0013
0000
,
1000
0100
0010
0000
0001
0001
0000
0010
,
0100
0010
0001
0000
1000
1000
0000
0100
,
0010
0100
0001
0000
0010
0100
0010
0000
,
1000
0100
0010
0100
1000
0000
0000
0000
,
1000
0001
0100
0000
0010
0010
0000
0100
,
1000
0100
0010
0000
1000
1000
0000
0100
,
0010
0001
0010
0000
0100
0100
0000
0000
,
0001
0010
0100
0010
0200
0000
1300
0000
,
0010
0100
0001
0000
0010
0010
0000
0100
,
1000
0100
0010
0000
0001
0001
0000
0100
,
0001
0100
0010
0000
1000
0100
0010
0000
,
0100
0010
0101
0000
,
2000
0000
0000
0001
3000
0001
0100
0000
,
0020
0000
0000
0100
0030
0100
0001
0000
,
0020
0000
0000
0100
0030
0100
1000
0000
,
0100
0010
0001
0010
,
0002
0000
0000
1000
0003
1000
0100
0000
,
0020
0000
0000
0100
0030
0100
0010
0000
,
0002
0000
0000
1000
0003
1000
0100
0000
,
0010
0100
0010
1001
,
1000
0001
1000
0001
0100
0001
0100
0001
,
1000
0100
1000
0100
1000
0001
1000
0001
,
0010
0100
1000
0001
0010
0100
0010
0001
,
1000
0010
1000
0010
0100
0001
0010
0000
,
0100
1000
0100
1000
0010
0100
0010
0100
,
0001
0010
0100
1000
0100
0010
0001
0010
,
0100
1000
0010
1000
0100
0010
0100
1000
,
0001
0010
0100
0010
,
0001
0100
0010
1000
0010
0100
0001
0010
,
0100
0010
0100
1000
0100
0010
0100
0010
,
0001
1000
0010
1000
0001
1000
0010
0010
,
0010
0100
0001
0010
,
0100
0010
0001
0010
0100
1000
0100
0010
,
0100
0010
0001
0010
0100
0010
0001
0000
,
1000
0100
0010
0100
1000
0100
0010
0001
,
0010
0100
0010
1001
,
1000
0100
1000
0000
0010
0010
0000
0001
,
0010
0100
0001
0000
1000
1000
0000
0100
,
0010
0100
0010
0000
0001
0001
0000
0000
,
0010
0100
1000
0100
0020
0000
0030
0000
,
0100
1000
0001
0000
0010
0010
0000
0100
,
0010
0100
1000
0000
0100
0100
0000
0000
,
0010
0001
0100
0000
0001
0001
0000
0000
,
1000
0100
0010
0000
1001
0000
0000
0000
,
1000
0100
0010
0000
0100
0010
0001
0000
,
0100
0010
1000
0010
0100
0001
0010
0000
,
0100
1000
0100
0000
0010
0001
0010
0000
,
0100
1000
0100
0010
0200
0000
1300
0000
,
0010
0100
0010
0000
0001
0010
0001
0000
,
0010
0100
1000
0100
0010
0100
0001
0000
,
0010
0100
1000
0000
0100
0010
0001
0000
,
0010
0100
1001
0000
,
1000
0000
0001
0100
0000
0000
0011
0000
,
0000
0000
0100
0010
,
1100
0000
0000
0011
0000
0000
1001
0000
,
0000
0000
0100
0000
,
1001
0000
0010
0100
0000
0000
1100
0000
,
0000
0000
0100
0010
,
0101
0000
0000
1100
0000
0000
1001
0000
,
0000
0000
0010
0100
,
0011
0000
0000
0000
;

//---------------dance-single - K. Ward----------------
#NOTES:
     dance-single:
     K. Ward:
     Medium:
     6:
     0.399,0.426,0.226,0.137,0.000:
0000
0000
0000
0000
,
0000
0000
0000
0000
,
0000
0000
0000
0000
,
0000
0000
0000
0000
,
0000
0000
0000
0000
,
0000
0000
0000
0000
,
0000
0000
0000
0000
,
0000
0000
0000
0000
,
1000
0100
0010
0100
,
1000
0001
1000
0000
1001
0000
0000
0000
,
0001
0010
0100
0010
,
0001
1000
0001
0000
1001
0000
0000
0000
,
0100
0000
0000
0100
0000
0000
0010
0000
,
0100
0000
0000
1000
0000
0000
0100
0000
,
0001
0000
0000
1000
0000
0000
0100
0000
,
0001
0100
1001
0000
,
0100
1000
0100
0010
,
0100
1000
0100
0000
,
0010
0100
0001
0010
,
0100
0010
0101
0000
,
1000
0000
0000
0010
0000
0000
0100
0000
,
0010
0000
0000
0001
0000
0000
0010
0000
,
0100
0000
0000
0001
0000
0000
0010
0000
,
0100
0100
0100
0000
,
2000
0000
0000
3002
,
0000
0000
0100
0003
,
2200
0000
3300
0022
,
0000
0000
0033
0000
,
0002
0000
0000
2003
,
0000
0000
0010
3000
,
0022
0000
0000
0000
0000
0033
2200
0000
,
0000
0000
3300
0000
,
0001
0010
0100
1000
,
0100
0010
0100
0000
1000
0000
0000
0000
,
0010
0100
0010
0001
,
0010
0100
0010
0000
0001
0000
0000
0000
,
0010
0100
0001
0010
,
0100
1000
0100
0000
1000
0000
0000
0000
,
0100
0010
0001
0010
,
0100
0010
1001
0000
,
1000
0010
0100
1000
,
0100
0001
0100
1000
,
0100
0100
0001
0001
,
1000
0000
1000
0000
0100
0010
0100
0000
,
1000
1000
0001
0001
,
1000
1000
0010
0100
,
1000
0100
0010
0000
0100
0001
0010
0000
,
0100
0010
0110
0000
,
0010
0000
0000
1001
0000
0000
0000
0000
,
0100
0100
0100
0000
,
0010
0000
0000
1001
0000
0000
0000
0000
,
0001
0001
0001
0000
,
0100
0000
0000
1010
0000
0000
0000
0000
,
0100
0100
0100
0000
,
0020
0000
0000
0100
0030
0000
0000
0000
,
0010
0100
1001
0000
,
0100
0000
0010
0000
1000
0100
1000
0100
,
1000
0010
0001
0010
,
0100
0000
0001
0000
0010
0100
0010
0100
,
0010
0100
1000
0001
,
0010
0000
0001
0000
1000
0001
1000
0001
,
1000
0010
0100
1000
,
0100
0000
0010
0000
0100
0001
0100
0001
,
0020
0000
0130
0000
,
1000
0000
0001
0000
0100
0010
1000
0001
,
1000
0010
0110
0000
,
0001
0000
1000
0000
0100
0010
0001
0010
,
0100
0010
1001
0000
,
0100
0000
0010
0000
1000
0100
1000
0100
,
0010
0100
1010
0000
,
0100
0000
0000
0011
0000
0000
0000
0000
,
0100
0010
0100
0010
,
1000
0100
0010
0010
,
0100
0010
0100
0000
1000
0000
0000
0000
,
0010
0100
0010
0001
,
0010
0100
0010
0000
0100
0000
0000
0000
,
0001
0010
0100
1000
,
0100
0010
0100
0000
0010
0000
0000
0000
,
1000
1000
0100
0100
,
0010
0100
0010
0000
1001
0000
0000
0000
,
0001
0100
1000
0100
,
0001
0010
0001
0001
,
1000
1000
0100
0010
,
0100
0010
0101
0000
,
1000
0100
0001
0100
,
1000
0000
0010
0000
0100
0010
0100
0000
,
0010
1000
0100
0010
,
0100
0010
1001
0000
,
1100
0000
0000
0011
,
0000
0000
0100
0010
,
2002
0000
3003
0100
,
0000
0000
0010
1000
,
1100
0000
0000
0011
,
0000
0000
0100
1000
,
0100
0000
0000
1001
0000
0000
0020
0000
,
0000
0000
0130
0010
,
0101
0000
0000
0000
;

//---------------dance-single - K. Ward----------------
#NOTES:
     dance-single:
     K. Ward:
     Easy:
     4:
     0.288,0.504,0.089,0.065,0.000:
0000
0000
0000
0000
,
0000
0000
0000
0000
,
0000
0000
0000
0000
,
0000
0000
0000
0000
,
0000
0000
0000
0000
,
0000
0000
0000
0000
,
0000
0000
0000
0000
,
0000
0000
0000
0000
,
1000
0100
1000
0010
,
0100
0001
0010
0000
,
0100
1000
0100
0010
,
0100
0001
0010
0000
,
0001
0000
1000
0000
,
0001
0000
0001
0000
,
1000
0000
0001
0000
,
1000
0000
1000
0000
,
0010
0100
1000
0000
,
0100
0010
0001
0000
,
0010
0100
1000
0000
,
0100
0010
0001
0000
,
1000
0000
0001
0000
,
1000
0000
1000
0000
,
0001
0000
1000
0000
,
0001
0000
0001
0000
,
1001
0000
0000
0100
,
0000
0000
1000
0000
,
0001
0000
0000
1000
0000
0000
0001
0000
,
0000
0000
0000
0000
,
1001
0000
0000
0010
,
0000
0000
0001
0000
,
1000
0000
0000
0001
0000
0000
1000
0000
,
0000
0000
0000
0000
,
0100
0010
0100
0010
,
1000
0010
0100
0000
,
0010
0100
0010
0001
,
0010
0100
0010
0000
,
1000
0010
0100
0001
,
0010
0100
0010
0000
,
0001
0100
1000
0100
,
0010
0100
0001
0000
,
1001
0000
0010
0000
,
0100
0000
0001
0000
,
0100
0000
0010
0000
,
0100
0000
1000
0000
,
0100
0000
0010
0000
,
0100
0000
0001
0000
,
1000
0000
0001
0000
,
0100
0100
0100
0000
,
1000
0000
0000
0001
0000
0000
0000
0000
,
0200
0000
0300
0000
,
0001
0000
0000
1000
0000
0000
0000
0000
,
0020
0000
0030
0000
,
0100
0000
0000
0010
0000
0000
0000
0000
,
2000
0000
3000
0000
,
0010
0000
0000
0100
0000
0000
0000
0000
,
0002
0000
0003
0000
,
1000
0010
0100
0010
,
0001
0010
0100
0100
,
0001
0010
0001
1000
,
0001
1000
1000
1000
,
0010
0001
0010
0100
,
1000
0100
0010
0010
,
0100
0001
0010
0100
,
2200
0000
0000
3300
0022
0000
0000
0033
,
1000
0010
0100
1000
,
0100
0001
0010
0100
,
0010
0100
1000
0001
,
1000
1000
0001
0001
,
1000
0100
0010
0100
,
1000
0010
0001
0010
,
0100
0000
0001
0000
,
1000
0001
1000
0001
,
0100
0000
0010
0000
,
0100
0000
1000
0000
,
0100
0000
0010
0000
,
0100
0100
0100
0000
,
0001
0000
0100
0000
,
0010
0000
0001
0000
,
0010
0000
0100
0000
,
0001
0001
0001
0000
,
1000
0100
0010
0001
,
0001
0010
0100
1000
,
1000
0100
0010
0001
,
0001
1000
0001
0000
,
0001
0010
0100
1000
,
1000
0100
0010
0001
,
0100
0010
0100
1000
,
0100
0100
0100
0000
,
1001
0000
0000
0110
,
0000
0000
1001
0000
,
0001
0000
0000
1000
0000
0000
0001
0000
,
0000
0000
0000
0000
,
1001
0000
0000
0110
,
0000
0000
0000
0000
,
1000
0000
0000
0001
0000
0000
1000
0000
,
0000
0000
0000
0000
,
1001
0000
0000
0000
;

//---------------dance-single - K. Ward----------------
#NOTES:
     dance-single:
     K. Ward:
     Challenge:
     9:
     0.728,0.814,0.089,0.218,0.165:
0000
0000
0000
0000
,
0000
0000
0000
0000
,
0000
0000
0000
0000
,
0000
0000
0000
0000
,
0000
0000
0000
0000
,
0000
0000
0000
0000
,
0000
0000
0000
0000
,
0000
0000
0000
0000
,
0001
0010
0001
0010
0001
0010
0001
0010
,
1000
0010
1000
0010
1000
0010
1000
0010
,
0001
0100
0001
0100
0001
0100
0001
0100
,
1000
0100
1000
0100
1000
0100
1000
0000
,
0001
0010
0001
0010
0100
1000
0100
1000
,
0001
0100
0001
0100
0010
1000
0010
0000
,
1000
0100
1000
0100
0010
0001
0010
0001
,
1000
0010
1000
0010
0200
0000
0310
0000
,
1000
0100
1000
0100
1000
0100
1000
0100
,
0001
0100
0001
0100
0001
0100
0001
0100
,
1000
0010
1000
0010
1000
0010
1000
0010
,
0001
0010
0001
0010
0001
0010
0001
0000
,
1000
0100
1000
0100
0010
0001
0010
0001
,
1000
0010
1000
0010
0100
0001
0100
0000
,
0001
0010
0001
0010
0100
1000
0100
1000
,
0001
0100
0001
0100
0020
0000
0130
0000
,
0001
0000
0100
0000
M000
0000
0001
0000
0010
0000
0000
000M
1000
0000
0100
0000
,
1000
0000
0010
0000
1000
0000
0001
0000
0100
0000
0000
M000
0001
0000
0000
0000
,
0001
0000
0100
0000
0000
0000
0010
0000
0100
0000
0000
M000
0001
0000
0010
0000
,
0001
0000
1000
0000
0100
0000
1000
0000
0001
0000
0000
00M0
1000
0000
0000
0000
,
0001
0000
0100
0000
M000
0000
0001
0000
0010
0000
0000
000M
1000
0000
0100
0000
,
1000
0000
0010
0000
1000
0000
0001
0000
0100
0000
0000
M000
0001
0000
0000
0000
,
0001
0000
0100
0000
0000
0000
0010
0000
0100
0000
0000
M000
0001
0000
0010
0000
,
0001
0000
1000
0000
0100
0000
1000
0000
0001
0000
0000
00M0
1000
0000
0000
0000
,
0010
1000
0100
1000
0100
0010
0100
1000
,
0100
0010
0100
1000
0100
0010
0100
0000
,
0100
0001
0010
0001
0010
0100
0010
0001
,
0010
0100
0010
0001
0010
0000
0010
0000
,
0010
1000
0100
1000
0100
0010
0100
1000
,
0100
0010
0100
1000
0100
0010
0100
0000
,
0100
0001
0010
0001
0010
0100
1000
0100
,
1000
1000
1000
1000
1000
0000
0000
0000
,
0100
0001
0010
0001
0010
0100
0010
0001
,
0010
0100
0010
0001
0010
0100
0010
0000
,
0010
1000
0100
1000
0100
0010
0100
1000
,
0100
0010
0100
1000
0100
0000
0100
0000
,
0100
0001
0010
0001
0010
0100
0010
0001
,
0010
0100
0010
0001
0010
0100
0010
0000
,
0010
1000
0100
1000
0100
0010
0001
0010
,
0001
0001
0001
0001
0001
0000
0000
0000
,
1000
0001
0100
0010
2000
0000
0000
0000
,
0100
0010
3001
0000
,
0001
0100
0010
1000
0010
2000
0000
0000
,
0100
0010
3001
0000
,
1000
0001
0100
0010
2000
0000
0000
0000
,
0100
0010
3001
0000
,
0001
0100
0010
1000
0010
2000
0000
3000
,
0100
1000
0010
1000
0001
0000
0000
0000
,
1000
0001
1000
0001
0100
0001
0100
0001
,
0010
0000
0001
0000
1000
0000
0001
0000
0100
0000
0010
0000
1000
0000
0001
1000
,
0010
1000
0001
0100
0010
0100
0010
1000
,
0001
0000
1000
0000
0010
0000
1000
0000
0010
0000
1000
0000
0100
0000
1000
0001
,
1000
0001
1000
0001
0100
0001
0100
0001
,
1000
0000
0100
0000
1000
0000
0100
0000
1000
0000
0001
0000
1000
0000
0001
1000
,
0010
1000
0001
0100
0010
1000
0001
1000
,
0001
1000
0001
1000
0000
0000
0000
0000
1000
0001
1000
0001
0000
0000
0000
0000
,
1000
0001
1000
0001
0100
0001
0100
0001
,
0010
0000
0001
0000
1000
0000
0001
0000
0100
0000
0010
0000
1000
0000
0001
1000
,
0010
1000
0001
0100
0010
0100
0010
1000
,
0001
1000
0001
0000
1000
0001
1000
0000
0001
1000
0001
0000
1000
0001
1000
0000
,
1000
0001
1000
0001
0100
0001
0100
0001
,
1000
0000
0100
0000
1000
0000
0100
0000
1000
0000
0001
0000
1000
0000
0001
1000
,
0010
1000
0010
1000
0010
1000
0001
0100
,
0010
1000
0020
0000
1000
1030
00M0
M00M
,
2002
0000
3003
M00M
0220
0000
0330
0MM0
,
2002
0000
3003
0000
0010
0000
0100
M00M
,
2002
0000
0000
0000
3003
0000
M00M
0000
0220
0000
0000
0330
0000
0000
0000
0000
,
0010
0100
0010
0100
0010
0100
0010
0100
0010
0000
0000
0000
0000
0000
0M0M
0000
,
0202
0000
0303
0M0M
2020
0000
3030
M0M0
,
0202
0000
0303
0000
1000
0000
0010
0M0M
,
0202
0000
0000
0000
0303
0000
0M0M
0000
2020
0000
0000
3030
0000
0000
M0M0
0000
,
1000
0010
1000
0010
1000
0010
1000
0010
1000
0000
0000
0000
0000
0000
0000
0000
,
0100
0001
0010
0001
0010
0100
0010
0001
,
0010
0100
0010
0001
0010
0100
0010
0000
,
0010
1000
0100
1000
0100
0010
0100
1000
,
0001
1000
0001
1000
0001
1000
0001
1000
0001
0000
0000
0000
0000
0000
0000
0000
,
0100
0001
0010
0001
0010
0100
0010
0001
,
0010
0100
0010
0001
0010
0100
0010
0000
,
0010
1000
0100
1000
0100
0010
0001
0010
,
0001
1000
0001
0001
1000
0000
0000
0000
,
0001
0000
0100
0000
M000
0000
0001
0000
0010
0000
0000
000M
1000
0000
0100
0000
,
1000
0000
0010
0000
1000
0000
0001
0000
0100
0000
0000
M000
0001
0000
0000
0000
,
0001
0000
0100
0000
0000
0000
0010
0000
0100
0000
0000
M000
0001
0000
0010
0000
,
0001
0000
1000
0000
0100
0000
1000
0000
0001
0000
0000
00M0
1000
0000
0000
0000
,
0001
0000
0100
0000
M000
0000
0001
0000
0010
0000
0000
000M
1000
0000
0100
0000
,
1000
0000
0010
0000
1000
0000
0001
0000
0100
0000
0000
M000
0001
0000
0000
0000
,
0001
0000
0100
0000
0000
0000
0010
0000
0100
0000
0000
M000
0001
0000
0010
0000
,
0001
0000
1000
0000
0100
0000
1000
0000
0001
0000
0000
00M0
1000
0000
0000
0000
,
0011
0000
0000
0000
;

//---------------dance-double - M. Emirzian----------------
#NOTES:
     dance-double:
     M. Emirzian:
     Easy:
     4:
     0.251,0.352,0.169,0.016,0.000:
00000000
00000000
00000000
00000000
,
00000000
00000000
00000000
00000000
,
00000000
00000000
00000000
00000000
,
00000000
00000000
00000000
00000000
,
00000000
00000000
00000000
00000000
,
00000000
00000000
00000000
00000000
,
00000000
00000000
00000000
00000000
,
00000000
00000000
00000000
00000000
,
00001000
00000000
00000010
00000000
,
00000100
00000000
00000001
00000000
,
00001000
00000000
00000100
00000000
,
00010000
00010000
00010000
00000000
,
00001000
00000000
01000000
00000000
,
01000000
01000000
01000000
00000000
,
00100000
00000000
10000000
00000000
,
01000000
01000000
01000000
00000000
,
00010000
00000000
00001000
00000000
,
00000100
00000100
00000100
00000000
,
00000001
00000000
00001000
00000000
,
00000100
00000000
00010000
00000000
,
00001000
00000000
00101000
00000000
,
01000000
00000000
10010000
00000000
,
00100000
00000000
10000000
00000000
,
01000000
00010000
00000000
00000000
,
00011000
00000000
00000000
00010100
,
00000000
00000000
00010000
00000000
,
00011000
00000000
00000000
00010000
00000000
00000000
00101000
00000000
,
00000000
00010000
00010000
00000000
,
00001010
00000000
00000000
00001001
,
00000000
00000000
00000000
00000000
00000000
00000101
00000000
00000000
,
00000010
00000000
00000000
00000010
00000000
00000000
00001100
00000000
,
00000000
00010000
00010000
00000000
,
00100000
00000000
10000000
00000000
,
00100000
00000000
00000000
00100000
00000000
00000000
00000000
00000000
,
01000000
00000000
00001000
00000000
,
00010000
00000000
00000000
00010000
00000000
00000000
00000000
00000000
,
00000010
00000000
00000100
00000000
,
00000001
00000000
00000000
00000001
00000000
00000000
00000000
00000000
,
00001000
00000000
00000010
00000000
,
00010000
00000000
00010000
00000000
,
00001000
01000000
00001000
00000000
,
00010000
00000000
00010000
00000000
,
00100000
01000000
00100000
00000000
,
10000000
00000000
00000000
10000000
00000000
00000000
00000000
00000000
,
00010000
10000000
00010000
00000000
,
01000000
00000000
00000000
01000000
00000000
00000000
00000000
00000000
,
00001000
01000000
00001000
00000000
,
00010000
00000000
00010000
00000000
,
00010000
00000000
00001000
00000000
,
00001010
00000000
00001000
00000000
,
00010000
00000000
00110000
00000000
,
00010000
00000000
00001000
00000000
,
00001100
00000000
00001000
00000000
,
00010000
00000000
01010000
00000000
,
00010000
00000000
00001000
00000000
,
00010000
00000000
00010000
00000000
,
00001000
00000000
00000100
00000000
,
00000001
00001000
00000001
00000000
,
00000100
00000000
00000010
00000000
,
00010000
00000100
00010000
00000000
,
00001000
00000000
01000000
00000000
,
00001000
00100000
00001000
00000000
,
01000000
00000000
00100000
00000000
,
10000000
00000000
00010000
00000000
,
10000000
00000000
01000000
00000000
,
00010000
00000000
00001000
00000000
,
00000010
00000000
00000001
00000000
,
00000100
00000010
00000100
00000000
,
00000001
00000000
00000100
00000000
,
00001000
00000000
00010000
00000000
,
00100000
01000000
00100000
00000000
,
10000000
00010000
10000000
00000000
,
00000000
00000000
10000000
00000000
,
01000000
00000000
00000000
01000000
00000000
00000000
00000000
00000000
,
00100000
00000000
00001000
00000000
,
00010000
00000000
00010000
00000000
,
00001000
00000000
00000010
00000000
,
00000001
00000000
00000000
00000001
00000000
00000000
00000000
00000000
,
00000001
00000000
00000100
00000000
,
00000010
00000000
00000000
00000010
00000000
00000000
00000000
00000000
,
00010000
00000000
00001000
00000000
,
00001000
00000000
00010000
00000100
,
00010000
00000000
00001000
00000000
,
01000000
00010000
01000000
00000000
,
00001000
00000000
00010000
00000000
,
00000010
00001000
00000010
00000000
,
00010000
00000000
00001000
00000000
,
00010000
00000100
00010000
00000000
,
00011000
00000000
00000000
00010100
,
00000000
00000000
00010000
00000000
,
00010010
00000000
00000000
00010000
00000000
00000000
00011000
00000000
,
00000000
00000000
00010000
00000000
,
00101000
00000000
00000000
00010000
00000000
00000000
00011000
00000000
,
00000000
00001000
01000000
00000000
,
00100000
00000000
10000000
00000000
,
01000000
00000000
00100000
00001000
,
00022000
00000000
00000000
00000000
,
00033000
00000000
00000000
00000000
;

//---------------dance-double - M. Emirzian----------------
#NOTES:
     dance-double:
     M. Emirzian:
     Hard:
     8:
     0.536,0.548,0.533,0.032,0.000:
00000000
00000000
00000000
00000000
,
00000000
00000000
00000000
00000000
,
00000000
00000000
00000000
00000000
,
00000000
00000000
00000000
00000000
,
00000000
00000000
00000000
00000000
,
00000000
00000000
00000000
00000000
,
00000000
00000000
00000000
00000000
,
00000000
00000000
00000000
00000000
,
00001000
00010000
00000100
00000000
00011000
00000000
00000000
00000000
,
00010000
00001000
01000000
00000000
00011000
00000000
00000000
00000000
,
00001000
00010000
00000010
00000000
00011000
00000000
00000000
00000000
,
00010000
00001000
00100000
00000000
00011000
00000000
00010100
00000000
,
00001000
00000000
00000010
00000100
00000000
00000001
00000000
00000100
,
00000010
00010000
00001000
000M0000
,
01000000
00000000
00010000
01000000
00100000
10000000
00000000
11000000
,
00000000
10100000
00000000
00000000
01000000
00000000
00100000
00000000
,
00001000
00010000
00000010
00000000
00011000
00000000
00000000
00000000
,
00010000
00001000
01000000
00000000
00011000
00000000
00000000
00000000
,
00001000
00010000
00000100
00000000
00011000
00000000
00000000
00000000
,
00010000
00001000
00100000
00000000
00011000
00000000
01001000
00000000
,
00010000
00000000
01000000
00100000
00000000
10000000
00000000
00100000
,
01000000
00001000
00010000
0000M000
,
00000100
00000000
00001000
00000010
00000100
00000001
00000000
00000011
,
00000000
00000202
00000000
00000000
00000000
00000303
00000000
00000000
,
00001010
00000000
00000100
00010000
00001000
00000000
00011000
00000000
,
01000000
01000000
01000000
0M000000
,
10010000
00000000
00000000
01100000
00000000
00000000
10010000
00000000
,
M0000000
10000000
10000000
10000000
,
00110000
00000000
00100000
00001000
00010000
00000000
00011000
00000000
,
00000100
00000000
00000100
00000000
00000000
00001000
00000000
00000000
,
00001001
00000000
00000000
00000110
00000000
00000000
00001001
00000000
,
00000M00
00000100
00000100
00000100
,
00000010
00001000
00000001
00000000
00000100
00000000
00000010
00000000
,
00010000
00001000
01000000
00000000
00001000
00000000
00010000
00000000
,
00001000
01000000
00010000
01000000
00100000
00000000
10000000
00000000
,
00100000
01000000
00001000
00000000
00010000
00000000
00011000
00000000
,
00000100
00000010
00000001
00000000
00001000
00000000
00000001
00000000
,
00000010
00000100
00001000
00000000
00000010
00000000
00010000
00000000
,
00001000
00100000
01000000
10000000
01000000
00000000
00100000
00000000
,
01000000
00100000
00001000
00000000
00010000
00000000
00011000
00000000
,
00010000
00000010
00001000
00000000
00000100
00000000
00000010
00000000
,
00000001
00001000
00000010
00000000
00000100
00000000
00000001
00000000
,
00000100
00000010
00001000
00000010
00000100
00000000
00000010
00000000
,
00010000
00001000
01000000
00000000
00100000
00000000
10010000
00000000
,
00100000
01000000
10000000
00000000
01000000
00000000
00100000
00000000
,
00001000
00010000
00000010
00000000
00001000
00000000
00000100
00000000
,
00000010
00000001
00000010
00000100
00001000
00000000
00000010
00000000
,
00010000
00001000
01000000
00000000
00100000
00000000
10M00000
00000000
,
11000000
00000000
00000000
00110000
00000000
00000000
11000000
00000000
,
00100000
01000000
00010000
00000000
00100000
00000000
00001000
00000000
,
00011000
00000000
00000000
00010010
00000000
00000000
00011000
00000000
,
00010000
00000100
00001000
00000000
00000010
00000000
00000100
00000000
,
00000101
00000000
00000000
00001010
00000000
00000000
00000101
00000000
,
00000010
00001000
00000100
00000000
00010000
00000000
00001000
00000000
,
00011000
00000000
00000000
00101000
00000000
00000000
00010000
00001000
,
01000000
00000000
00010000
01000000
00100000
00000000
10010000
00000000
,
01000000
00000000
00100000
00000000
00001000
00010000
00000100
00000000
,
00010000
00001000
01000000
00000000
00011000
00000000
00010000
00000000
,
00000100
00000000
00001000
00000000
00000010
00000100
00000001
00000000
,
00000010
00000100
00001000
00000000
00001010
00000000
00010000
00000000
,
00001000
00000000
01000000
00000000
00001000
00010000
00000100
00000000
,
00010000
00001000
01000000
00000000
01010000
00000000
01000000
00000000
,
00100000
00000000
10000000
00000000
01000000
00100000
00010000
00100000
,
00000000
00001000
00010000
00000000
00010100
00000000
00001000
00000000
,
00000010
00000000
00000100
00000000
00000001
00001000
00000100
00000000
,
00000010
00000100
00010000
00000000
00011000
00000000
00010000
00000000
,
00001000
00000000
01000000
00000000
00100000
01000000
00010000
00000000
,
00100000
01000000
10000000
00000000
10010000
00000000
00100000
00000000
,
10000000
00000000
00010000
00000000
00100000
00001000
00010000
00000000
,
00000100
00010000
00001000
00000000
00010100
00000000
00001000
00000000
,
00000010
00000000
00000100
00000000
00000001
00001000
00000100
00000010
,
00000000
00000001
00001000
00000000
00000101
00000000
00001001
00000000
,
0000M01M
00000000
00001000
00000000
00000100
00010000
00001000
00000000
,
01000000
00010000
10010000
00010000
,
01000000
00000000
00100000
00000000
10000000
00010000
01000000
00000000
,
00100000
10000000
01010000
00100000
,
00001000
00000000
00010000
00000000
00000100
00001000
00000001
00000000
,
00000010
00000100
00010100
00001000
,
00000010
00000000
00010000
00000000
00001000
00100000
00010000
00000000
,
01000000
00100000
01001000
00100000
,
00010000
00000000
01000000
00000000
00100000
10000000
00010000
00000000
,
00100000
01000000
00101000
00010000
,
00100000
00000000
00001000
00000000
00010000
00000010
00001000
00000000
,
00000100
00000010
00001001
00000010
,
00001000
00000000
00000100
00000000
00010000
00001000
00100000
00000000
,
01000000
10000000
10010000
01000000
,
10000000
00000000
01000000
00000000
00100000
00001000
00010000
00000000
,
00000010
00001000
00001100
00000000
,
00001001
00000000
00000010
00001000
00000100
00000000
00010000
00000000
,
00010000
00000000
00010000
00000000
00001000
00010000
00001000
00000000
,
00011000
00000000
00000000
01001000
00000000
00000000
00011000
00000000
,
01000000
01000000
01000000
0M000000
,
01100000
00000000
00000000
10010000
00000000
00000000
01100000
00000000
,
0M000000
01000000
01000000
01000000
,
01001000
00000000
00000000
00011000
00000000
00010000
00000100
00000000
,
00001000
00000000
00000010
00000000
00000100
00000001
00001000
00000010
,
00002002
00000000
00000000
00000000
,
00003003
00000000
00000000
00000000
;

//---------------dance-double - M. Emirzian----------------
#NOTES:
     dance-double:
     M. Emirzian:
     Medium:
     6:
     0.386,0.470,0.299,0.016,0.000:
00000000
00000000
00000000
00000000
,
00000000
00000000
00000000
00000000
,
00000000
00000000
00000000
00000000
,
00000000
00000000
00000000
00000000
,
00000000
00000000
00000000
00000000
,
00000000
00000000
00000000
00000000
,
00000000
00000000
00000000
00000000
,
00000000
00000000
00000000
00000000
,
01001000
00000000
00100000
00010000
,
01000000
00100000
10000000
00000000
,
10010000
00000000
10000000
00010000
,
00100000
01000000
10000000
00000000
,
00100000
01000000
00001000
00000000
,
00010000
00010000
00010000
00001000
,
01000000
00001000
00010000
00000010
,
00000100
00000100
00000000
00000100
,
00000000
00000100
00000100
00000000
,
00000001
00000001
00000000
00000100
,
00000100
00000000
00001000
00001000
,
00010000
00010000
00100000
10000000
,
01000000
00000000
00100000
00001000
,
00010000
00000010
00010000
00000000
,
00011000
00000000
00010000
00000100
,
00001000
00000001
00000100
00000000
,
00000101
00000000
00000000
00000100
00000000
00000000
00001100
00000000
,
00000000
00001000
00011000
00000000
,
00101000
00000000
00000000
00010000
00000000
00000000
01010000
00000000
,
00000000
00100000
10100000
00000000
,
11000000
00000000
00000000
01000000
00000000
00000000
01010000
00000000
,
00000000
00010000
00011000
00000000
,
00010100
00000000
00000000
00001000
00000000
00000000
00001010
00000000
,
00000000
00000100
00000100
00000100
,
00000001
00000100
00001000
00010000
,
00000010
00010000
00001000
00000000
,
01000000
01000000
00100000
00100000
,
00100000
00000000
10010000
00000000
,
00100000
01000000
00001000
00010000
,
00000010
00010000
00001000
00000000
,
00010000
00010000
00000100
00000100
,
00000100
00000000
00001001
00000000
,
00000010
00000010
00000100
00000100
,
00001000
00001000
00010000
00010000
,
01000000
01000000
10000000
10000000
,
00100000
01000000
01001000
00000000
,
00100000
01000000
00100000
00000000
00010000
00000000
01000000
00100000
,
10000000
00000000
01000000
00000000
00010000
00001000
00010000
00000000
,
00000100
00000000
00001000
00000010
00000000
00000100
00000000
00000100
,
00000001
00000010
00001100
00000000
,
00010000
00001000
00101000
00000000
,
01000000
00010000
01100000
00000000
,
10000000
01000000
00110000
00000000
,
00100000
00001000
00011000
00000000
,
00000100
00001000
00010010
00000000
,
00000100
00000010
00001001
00000000
,
00000100
00000001
00001010
00000000
,
00010000
00001000
00010000
00000000
,
00010000
00000010
00001000
00000100
,
00010000
00000010
00001000
00000100
,
00010000
00001000
01000000
00010000
,
00100000
00001000
01000000
00000000
,
00100000
10000000
00010000
01000000
,
00001000
00100000
00010000
01000000
,
00001000
00010000
00000010
00010000
,
00000100
00001000
00000010
00000000
,
00000100
00000001
00000010
00000100
,
00010000
00000010
00001000
00000100
,
00010000
00001000
01000000
00010000
,
10000000
00100000
01000000
00000000
,
00001000
00010000
00000100
00001000
,
00000010
00010000
00001000
00010000
,
00000100
00001000
00000010
00010000
,
00001000
01000000
00010000
00100000
,
10010000
00000000
00100000
01000000
,
00001000
01000000
00010000
00000000
,
00101000
00000000
00010000
00000100
,
00001000
00000010
00001000
00000000
,
00000010
00000010
00000000
00000100
,
00000000
00000100
00000100
00000100
,
00000001
00000001
00000100
00000100
,
00001000
00001000
00010000
00000000
,
00010000
00001000
00100000
00000000
00010000
00000000
01000000
00000000
,
00100000
10000000
00100000
00000000
01000000
00000000
00010000
00000000
,
10000000
01000000
00100000
00000000
,
00001000
01000000
00001000
00000000
,
00010000
00000100
00010000
00000010
,
00000100
00000001
00000100
00000010
,
00010000
00010000
00001000
00001000
,
00100000
00100000
00100000
00000000
,
00010100
00000000
00000000
00001000
00000000
00000000
00101000
00000000
,
00000000
00010000
01010000
00000000
,
10100000
00000000
00000000
10000000
00000000
00000000
11000000
00000000
,
00000000
01000000
01010000
00000000
,
00011000
00000000
00000000
00010000
00000000
00000000
00010100
00000000
,
00000000
00001000
00001010
00000100
,
00000001
00000010
00000100
00000000
,
00010000
00001000
01000000
00100000
,
20200000
00000000
00000000
00000000
,
30300000
00000000
00000000
00000000
;

//---------------dance-double - M. Emirzian----------------
#NOTES:
     dance-double:
     M. Emirzian:
     Challenge:
     9:
     0.643,0.626,0.936,0.016,0.065:
00000000
00000000
00000000
00000000
,
00000000
00000000
00000000
00000000
,
00000000
00000000
00000000
00000000
,
00000000
00000000
00000000
00000000
,
00000000
00000000
00000000
00000000
,
00000000
00000000
00000000
00000000
,
00000000
00000000
00000000
00000000
,
00000000
00000000
00000000
00000000
,
10000000
00100000
01000000
00001000
00010000
00000000
00110000
00000000
,
00100000
00001000
00010000
00000010
00001000
00000000
00011000
00000000
,
00000100
00000001
00000010
00000100
00001000
00000000
00011000
00000000
,
00100000
00001000
00100000
00010000
01000000
00100000
10000000
00000000
,
01010000
00000000
00100000
10000000
00000000
11000000
00000000
00100000
,
00001000
00000000
00011000
00000000
00010000
00000010
00001000
00000000
,
00000110
00000000
00000010
00000001
00000100
00000010
00000000
00010000
,
00000100
00001000
00000010
00000000
00010010
00000000
00011000
00000000
,
00001000
01000000
00010000
00000000
00011000
00000000
00100000
00000000
,
01000000
00100000
00010000
00000000
00011000
00000000
01000000
00000000
,
00001000
00010000
00001000
00000000
00001100
00000000
00000011
00000000
,
00000001
00000100
00000010
00010000
00001000
00000000
00110000
00000000
,
10010000
00000000
00100000
01000000
00000000
10100000
00000000
00010000
,
01000000
00000000
00110000
00000000
00001000
00010000
00000010
00000000
,
00000110
00000000
00000001
00000010
00000100
00001000
00000000
00000010
,
00000100
00000001
00001000
00000000
00001100
00000000
00010100
00000000
,
00001000
00000000
00010000
00100000
00000000
10000000
00100000
00000000
,
01000000
00010000
00110000
01000000
,
11000000
00000000
00000000
MM000000
00000000
00000000
00110000
00000000
00000000
00MM0000
00000000
00000000
00101000
00000000
00000000
00000000
,
00010000
00001000
00010010
000M00M0
,
00001000
00000000
00000100
00000001
00000000
00000100
00001000
00000000
,
00000010
00000100
00000101
00000010
,
00001010
00000000
00000000
0000M0M0
00000000
00000000
00010010
00000000
00000000
000M00M0
00000000
00000000
00011000
00000000
00000000
00000000
,
01001000
00000000
01100000
00000000
00100000
10000000
01000000
00100000
,
00010000
01000000
00001000
00000000
00010000
00000100
00001000
00000000
,
00000010
00000100
00000001
00000010
00000100
00000000
00011000
00000000
,
00001000
01000000
00100000
00000000
10000000
01000000
00100000
00000000
,
11000000
10010000
00110000
MMMM0000
,
00000010
00000001
00000100
00000000
00000001
00000100
00001000
00000000
,
00010000
00001000
00100000
00001000
00010000
00000000
01100000
00000000
,
10000000
00010000
01000000
00000000
00100000
10000000
01000000
00000000
,
10100000
10010000
01010000
MMMM0000
,
00000100
00000010
00000001
00000000
00001000
00000010
00000100
00000000
,
00000001
00001000
00000100
00000010
00000001
00000000
00001100
00000000
,
00000010
00010000
00001000
00000000
01000000
00100000
10000000
00000000
,
11000000
00110000
01010000
MMMM0000
,
00000100
00001000
00000010
00000000
00000100
00000001
00000010
00000000
,
00000001
00000100
00000010
00001000
00000010
00000000
00011000
00000000
,
00001000
01000000
00100000
00000000
10000000
01000000
00100000
00000000
,
00110000
00101000
00011000
00000000
,
00010100
00000000
00000000
000M0M00
00000000
00000000
00001010
00000000
00000000
0000M0M0
00000000
00000000
00001100
00000000
00000000
00000000
,
00000010
00000001
00000100
00000000
00001010
00000000
00000100
00000000
,
00010100
00000000
00000000
000M0M00
00000000
00000000
00011000
00000000
00000000
000MM000
00000000
00000000
01001000
00000000
00000000
00000000
,
01000000
00010000
00100000
00000000
11000000
00000000
00100000
00000000
,
01010000
00000000
00000000
0M0M0000
00000000
00000000
01001000
00000000
00000000
0M00M000
00000000
00000000
00011000
00000000
00000000
00000000
,
00000100
00001000
00000010
00000000
00000101
00000000
00000010
00000000
,
00001100
00000000
00000000
0000MM00
00000000
00000000
00010010
00000000
00000000
000M00M0
00000000
00000000
00011000
00000000
00010000
00000000
,
00001000
01000000
00100000
00000000
10100000
00000000
01010000
00000000
,
00011000
00000000
01000000
00000000
00010000
01000000
00001000
00000000
,
00010000
00001000
00100000
00000000
00011000
00000000
00010010
00000000
,
00011000
00000000
00000100
00000000
00001000
00000010
00010000
00000000
,
00001000
00100000
01000000
00000000
00110000
00000000
00101000
00000000
,
00011000
00000000
00010000
00000000
00000010
00001000
00000100
00000000
,
00010000
00001000
00100000
00000000
10010000
00000000
01001000
00000000
,
00010010
00000000
00000100
00000000
00000010
00000100
00000001
00001000
,
00000000
00000010
00010000
00000000
00101000
00000000
00011000
00000000
,
00010010
00000000
00000100
00000000
00001000
00000010
00010000
00000000
,
00001000
01000000
00100000
00000000
01010000
00000000
00101000
00000000
,
00010100
00000000
00010000
00000000
00001000
00000010
00000100
00010000
,
00000000
00001000
00100000
00000000
01001000
00000000
00110000
00000000
,
01100000
00000000
01000000
00000000
00010000
01000000
00100000
00000000
,
00010000
00000100
00000010
00000000
00010100
00000000
00011000
00000000
,
01001000
00000000
00001000
00000000
00000010
00000100
00001000
00000001
,
00000000
00001000
00000100
00000000
00001010
00000000
00001100
0000M00M
,
00001001
00000000
00001000
00000000
00000100
00010000
00001000
00000000
,
01000000
00100000
10000000
01000000
00100000
00000000
00011000
00000000
,
01000000
00001000
00010000
00000000
00000100
00001000
00000010
00000000
,
00000101
00001001
00001010
0000MMMM
,
01000000
00010000
00100000
00000000
01000000
10000000
00010000
00000000
,
10000000
01000000
00100000
00001000
00010000
00000000
00001010
00000000
,
00001000
00000100
00000010
00000000
00000001
00000100
00000010
00000000
,
00000101
00001001
00001010
0000MMMM
,
00100000
01000000
00010000
00000000
00100000
01000000
10000000
00000000
,
00100000
01000000
00001000
00010000
00000010
00000000
00011000
00000000
,
00001000
00100000
01000000
00000000
00100000
00001000
00010000
00000000
,
00000110
00001001
00001010
0000MMMM
,
01000000
00100000
00010000
00000000
10000000
00100000
01000000
00000000
,
00010000
10000000
01000000
00100000
00001000
00000000
00010100
00000000
,
00000010
00000100
00000001
00000000
00000010
00000100
00001000
00000000
,
00000101
00001001
00001010
00000000
,
00010000
00000000
00100000
10000000
00000000
00100000
00010000
00000000
,
00100000
00000000
10100000
00000000
10000000
01000000
00100000
00000000
,
00110000
00000000
00000000
00MM0000
00000000
00000000
00101000
00000000
00000000
00M0M000
00000000
00000000
00011000
00000000
00000000
00000000
,
00000100
00000000
00001000
00000000
00000011
00000000
00000100
00000010
,
00001010
00000000
00000000
0000M0M0
00000000
00000000
00001001
00000000
00000000
0000M00M
00000000
00000000
00000011
00000000
00000000
00000000
,
00001000
00000000
00000100
00010000
00000000
00100000
10000000
00000000
,
10010000
00000000
01000000
00010000
00000000
01000000
10000000
00000000
,
10010000
00000000
01000000
00100000
00001000
00010000
00000010
00000100
,
00002002
00000000
00000000
00000000
,
00003003
00000000
00000000
00000000
;

//---------------lights-cabinet - ----------------
#NOTES:
     lights-cabinet:
     :
     Easy:
     1:
     0.633,0.855,0.363,0.105,0.000:
000000
000000
000000
000000
,
000000
000000
000000
000000
,
000000
000000
000000
000000
,
000000
000000
000000
000000
,
110000
111100
001000
010100
,
101000
101000
010100
010100
,
110000
101000
000000
010100
,
000000
101000
101000
010100
,
010000
100000
010000
100000
010000
000000
100000
000000
,
001000
010000
001000
010000
000100
000000
000000
000000
,
100000
010000
001000
010000
100000
000000
001000
000000
,
100000
010000
100000
001000
100000
000000
000100
000000
,
000100
000000
010000
000000
001000
100000
000100
000000
,
010000
000000
010000
000000
000100
001000
000100
000000
,
100000
000000
000100
000000
100000
000100
010000
000000
,
001000
010000
001000
010000
000200
000000
001300
000000
,
010000
000100
010000
000100
100000
000000
011000
000000
,
000100
100000
000100
100000
001000
000000
000000
000000
,
100000
000100
100000
000100
010000
000000
011000
000000
,
000100
100000
000100
100000
010000
000000
100000
000000
,
100000
000000
010000
000000
100000
000100
010000
000000
,
001000
000000
001000
000000
100000
010000
100000
000000
,
000100
000000
001000
000000
000100
010000
001000
000000
,
100000
001000
010000
000100
100000
000000
010000
000000
,
110000
000000
000100
010000
000000
000000
001100
000000
,
000000
000000
001000
010000
,
001000
000000
000000
110000
000000
000000
001100
000000
,
000000
000000
100000
000000
,
001100
000000
100000
001000
000000
000000
110000
000000
,
000000
000000
010000
001000
,
010000
000000
000000
001100
000000
000000
110000
000000
,
000000
000000
000100
100000
,
000100
010000
001000
000000
100000
100000
000000
000100
,
001000
010000
001000
000000
000100
000100
000000
001000
,
010000
001000
010000
000000
100000
100000
000000
000100
,
010000
001000
010000
000000
000200
000000
100300
000000
,
100000
001000
100000
000000
000100
000100
000000
100000
,
001000
010000
001000
000000
100000
100000
000000
000100
,
010000
000100
010000
000000
001000
010000
001000
000000
,
100000
000100
100000
000100
010000
000000
100100
000000
,
100000
010000
001000
000000
000100
100000
011000
100000
,
001000
010000
001000
000000
100000
100000
000000
001000
,
010000
001000
010000
000000
000100
000100
000000
100000
,
010000
001000
010000
001000
000200
000000
100300
000000
,
100000
010000
100000
000000
000100
000100
000000
000100
,
100000
010000
100000
000000
001000
001000
000000
100000
,
010000
100000
010000
000000
100000
000100
010000
001000
,
100000
000100
001100
000000
,
200000
000000
000000
000100
300000
000100
010000
000000
,
000200
000000
000000
100000
000300
100000
001000
000000
,
200000
000000
000000
000100
300000
000100
010000
000000
,
000100
100000
001000
101000
,
000200
000000
000000
100000
000300
100000
001000
000000
,
200000
000000
000000
000100
300000
000100
010000
000000
,
000200
000000
000000
100000
000300
100000
000100
000000
,
010000
001000
100000
000100
,
100000
000100
100000
000100
010000
000100
010000
000100
,
100000
010000
100000
010000
100000
000100
100000
000100
,
001000
010000
100000
000100
001000
010000
001000
000100
,
100000
001000
100000
001000
010000
000100
010000
000000
,
001000
100000
010000
100000
001000
010000
001000
010000
,
001000
100000
010000
100000
000100
010000
000100
001000
,
000100
010000
001000
100000
010000
001000
010000
100000
,
110100
011000
101100
111000
,
011100
010000
001000
100000
001000
010000
001000
100000
,
010000
001000
000100
001000
010000
100000
001000
010000
,
000100
100000
001000
100000
000100
100000
001000
100000
,
101100
010000
000100
100000
,
100000
000100
001000
000100
010000
001000
100000
000100
,
010000
000100
001000
000100
010000
001000
100000
001000
,
010000
000100
001000
000100
010000
000100
100000
001000
,
100000
001000
010000
111111
,
100000
010000
100000
000000
001000
001000
000000
100000
,
001000
010000
001000
000000
010000
010000
000000
001000
,
010000
001000
010000
000000
000100
100000
000000
100000
,
010000
001000
010000
100000
000200
000000
000300
000000
,
100000
010000
001000
000000
000100
100000
010000
000100
,
100000
010000
100000
000000
001000
001000
000000
100000
,
010000
100000
010000
000000
100000
100000
001000
010000
,
001000
010000
110000
000000
,
001000
010000
001000
000000
000100
100000
000100
000000
,
010000
001000
100000
001000
100000
000100
010000
000000
,
010000
001000
010000
000000
000100
100000
000100
000000
,
100000
001000
010000
001000
200000
000000
300100
000000
,
100000
010000
100000
000000
000100
010000
000100
000000
,
100000
010000
100000
010000
100000
100000
000100
000000
,
100000
001000
010000
000000
010000
000100
100000
001000
,
010000
001000
011000
000000
,
110000
000000
000100
010000
000000
000000
001100
000000
,
000000
000000
001000
010000
,
001000
000000
000000
110000
000000
000000
001100
000000
,
000000
000000
100000
000000
,
001100
000000
100000
001000
000000
000000
110000
000000
,
000000
000000
010000
001000
,
010000
000000
000000
001100
000000
000000
110000
000000
,
000000
000000
000100
100000
,
200200
300300
000000
000000
;

//---------------dance-single - M. Puls----------------
#NOTES:
     dance-single:
     M. Puls:
     Beginner:
     1:
     0.103,0.155,0.073,0.000,0.000:
0000
0000
0000
0000
,
0000
0000
0000
0000
,
0000
0000
0000
0000
,
0000
0000
0000
0000
,
0001
0000
0000
0000
,
0000
0000
0000
0000
,
1000
0000
0000
0000
,
0000
0000
0000
0000
,
0010
0000
0000
0000
,
0010
0000
0000
0000
,
0100
0000
0000
0000
,
0100
0000
0000
0000
,
0001
0000
0000
0000
,
1000
0000
0000
0000
,
1000
0000
0000
0000
,
0001
0000
0000
0000
,
0100
0000
0000
0000
,
0100
0000
0000
0000
,
0010
0000
0000
0000
,
0010
0000
0000
0000
,
0001
0000
0000
0000
,
1000
0000
0000
0000
,
0001
0000
0000
0000
,
0000
0000
0000
0000
,
1001
0000
0000
0000
,
0000
0000
0000
0000
,
1001
0000
0000
0000
,
0000
0000
0000
0000
,
1001
0000
0000
0000
,
0000
0000
0000
0000
,
1001
0000
0000
0000
,
0000
0000
0000
0000
,
0100
0000
0000
0000
,
0010
0000
0000
0000
,
1000
0000
0000
0000
,
0001
0000
0000
0000
,
0010
0000
0000
0000
,
0100
0000
0000
0000
,
0010
0000
0000
0000
,
0000
0000
0000
0000
,
0001
0000
0000
0000
,
1000
0000
0000
0000
,
0010
0000
0000
0000
,
0100
0000
0000
0000
,
0001
0000
0000
0000
,
1000
0000
0000
0000
,
0100
0000
0000
0000
,
0100
0000
0000
0000
,
1000
0000
0000
0000
,
0000
0000
0000
0000
,
0001
0000
0000
0000
,
0000
0000
0000
0000
,
0001
0000
0000
0000
,
0000
0000
0000
0000
,
1000
0000
0000
0000
,
0000
0000
0000
0000
,
0010
0000
0000
0000
,
0100
0000
0000
0000
,
0100
0000
0000
0000
,
0010
0000
0000
0000
,
0001
0000
0000
0000
,
1000
0000
0000
0000
,
1000
0000
0000
0000
,
0001
0000
0000
0000
,
0100
0000
0100
0000
,
0100
0000
0000
0000
,
0010
0000
0010
0000
,
0010
0000
0000
0000
,
0001
0000
0001
0000
,
0001
0000
0000
0000
,
1000
0000
0000
0000
,
1001
0000
0000
0000
,
0100
0000
0000
0000
,
0100
0000
0000
0000
,
0010
0000
0000
0000
,
0010
0000
0000
0000
,
1000
0000
0000
0000
,
1000
0000
0000
0000
,
0001
0000
0000
0000
,
0001
0000
0000
0000
,
0100
0000
0000
0000
,
1000
0000
0000
0000
,
0010
0000
0000
0000
,
0001
0000
0000
0000
,
0100
0000
0000
0000
,
1000
0000
0000
0000
,
0010
0000
0000
0000
,
0001
0000
0000
0000
,
1001
0000
0000
0000
,
0000
0000
0000
0000
,
1001
0000
0000
0000
,
0000
0000
0000
0000
,
1001
0000
0000
0000
,
0000
0000
0000
0000
,
0100
0000
0000
0000
,
0000
0000
0000
0000
,
1001
0000
0000
0000
;

//---------------dance-double - ----------------
#NOTES:
     dance-double:
     :
     Edit:
     9:
     0.673,0.852,0.557,0.404,0.153: // measure 1
00000000
00000000
00000000
00000000
,  // measure 2
00000000
00000000
00000000
00000000
,  // measure 3
00000000
00000000
00000000
00000000
,  // measure 4
00000000
00000000
00000000
00000000
,  // measure 5
00000000
00000000
00000000
00000000
,  // measure 6
00000000
00000000
00000000
00000000
,  // measure 7
00000000
00000000
00000000
00000000
,  // measure 8
00000000
00000000
00000000
00000000
,  // measure 9
10000000
01000000
00010000
01000000
10000000
00000000
11000000
00000000
,  // measure 10
00010000
01000000
10000000
01000000
00010000
00000000
00110000
00000000
,  // measure 11
00100000
00001000
00010000
00000100
00001000
00000000
00011000
00000000
,  // measure 12
00000010
00010000
00001000
01000000
00010000
00000000
00011000
00000000
,  // measure 13
00001000
00000000
00000100
00000001
00000000
00000101
00000000
00000000
,  // measure 14
00000001
00001000
00000000
00000001
00000010
00001000
00010000
00000000
,  // measure 15
00011000
00000000
00010000
00100000
10000000
01000000
00000000
00010000
,  // measure 16
00000000
00001000
00000000
00000000
00000000
00000000
00000000
00000000
,  // measure 17
00000001
00000010
00001000
00000010
00000001
00000000
00000011
00000000
,  // measure 18
00001000
00000010
00000001
00000010
00001000
00000000
00001100
00000000
,  // measure 19
00000100
00010000
00001000
00100000
00010000
00000000
00011000
00000000
,  // measure 20
01000000
00001000
00010000
00000010
00001000
00000000
00011000
00000000
,  // measure 21
00010000
00000000
00100000
10000000
00000000
10100000
00000000
00000000
,  // measure 22
10000000
00010000
00000000
10000000
01000000
00010000
00001000
00000000
,  // measure 23
00011000
00000000
00001000
00000100
00000001
00000010
00000000
00001000
,  // measure 24
00000000
00010000
00000000
00000000
00000000
00000000
00000000
00000000
,  // measure 25
00022000
00000000
00000000
00033000
00000000
00000000
2MM20000
00000000
,  // measure 26
00000000
0MM00000
00000000
00000000
30030000
00000000
00000000
00000000
,  // measure 27
00011000
00000000
00000000
00001MM1
00000000
00000000
0000M22M
00000000
,  // measure 28
00000000
0000M00M
00000000
00000000
00000330
00000000
00000000
00000000
,  // measure 29
00022000
00000000
00000000
00033000
00000000
00000000
2MM20000
00000000
,  // measure 30
00000000
0MM00000
30030000
00000000
00000000
M11M0000
00000000
00000000
,  // measure 31
1MM10000
00000000
00000000
00011000
00000000
00000000
0000M22M
00000000
,  // measure 32
00000000
00000000
00000000
00000000
00000000
00000330
00000000
00000000
,  // measure 33
00000001
00000100
00001000
00000100
00000001
00000001
00000001
00000000
,  // measure 34
00000010
00000001
00000100
00000001
00000010
00001000
00001000
00001000
,  // measure 35
00010000
01000000
10000000
01000000
00010000
00010000
00010000
00000000
,  // measure 36
01000000
10000000
00100000
10000000
01000000
00010000
00010000
00010000
,  // measure 37
00001000
00000010
00001000
00010000
00100000
00100000
00100000
00000000
,  // measure 38
10000000
00100000
00010000
00001000
00000010
00000001
00000001
00000001
,  // measure 39
00000100
00000000
00001000
00010000
00000000
00011000
00000000
00000000
,  // measure 40
00100000
10000000
00010000
10000000
00010000
10000000
00010000
00000000
00000000
0M000000
00000000
00000000
,  // measure 41
10000000
00100000
00010000
00100000
10000000
10000000
10000000
00000000
,  // measure 42
01000000
10000000
00100000
10000000
01000000
00010000
00010000
00010000
,  // measure 43
00001000
00000010
00000001
00000010
00001000
00001000
00001000
00000000
,  // measure 44
00000010
00000001
00000100
00000001
00000010
00001000
00001000
00001000
,  // measure 45
00010000
01000000
00010000
00001000
00000100
00000100
00000100
00000000
,  // measure 46
00000001
00000100
00001000
00010000
01000000
10000000
10000000
10000000
,  // measure 47
00100000
00000000
00010000
00001000
00000000
00011000
00000000
00000000
,  // measure 48
00010000
00000000
00000000
00000000
00010000
00001000
00010000
00000000
00010000
00001000
00010000
00000000
00000000
00000000
00000000
00000000
,  // measure 49
00001000
00000000
00000000
00001100
00000000
00000000
00000100
00000000
,  // measure 50
00000002
00000000
00000000
00000000
00000020
00000003
00000000
00000000
00002000
00000030
00000000
00000000
00003000
00000000
00000000
00000000
,  // measure 51
00000100
00000000
00000000
00000101
00000000
00000000
00000001
00000000
,  // measure 52
00000020
00000000
00000000
00000000
00002000
00000030
00000000
00000000
00000200
00003000
00000000
00000000
00000300
00000000
00000000
00000000
,  // measure 53
00000001
00000000
00000000
00000011
00000000
00000000
00000010
00000000
,  // measure 54
00002000
00000000
00000000
00000000
00000200
00003000
00000000
00000000
00000002
00000300
00000000
00000000
00000003
00000000
00000000
00000000
,  // measure 55
00001000
00000000
00000000
00011000
00000000
00000000
00010000
10000000
,  // measure 56
20010000
30020000
00230000
00300000
,  // measure 57
01100000
00000000
10010000
00000000
10000000
01000000
00010000
00001000
,  // measure 58
00000010
00000011
00000101
00010010
,  // measure 59
00000110
00000000
00001001
00000000
00000001
00000100
00001000
00010000
,  // measure 60
00100000
10100000
11000000
00101000
,  // measure 61
10010000
00000000
01100000
00000000
10000000
00100000
00010000
00001000
,  // measure 62
00000010
00000011
00010100
00001100
,  // measure 63
00001001
00000000
00000110
00000000
00000001
00000010
00001000
00010000
,  // measure 64
00012000
001M3000
10010000
00000000
,  // measure 65
10000000
01000000
00010000
01000000
10000000
00100000
00010000
00001000
,  // measure 66
00010000
00100000
00010000
00001000
00000100
00000001
00000100
00000010
,  // measure 67
00001000
00000100
00010000
00001000
00000100
00000010
00001000
00000100
,  // measure 68
00000001
00000100
00001000
00000010
00010000
00001000
00000100
00001000
,  // measure 69
00010000
00100000
01000000
00001000
01000000
00100000
10000000
01000000
,  // measure 70
00010000
00001000
00010000
00100000
00010000
00001000
00000100
00001000
,  // measure 71
00010000
00001000
00000010
00000001
00000100
00001000
00010000
00100000
,  // measure 72
10000000
00000000
00000000
00000000
00000000
00000000
00000000
00000000
01000000
00000000
00000000
00000000
00000000
00000000
00000000
00000000
00010000
00000000
00000000
00000000
00000000
00000000
00000000
00000000
01000000
00000000
00000000
00000000
00000000
00000000
00000000
00000000
20000000
00000000
00000000
00000000
00000000
00000000
00000000
00000000
00000000
00000000
00000000
00000000
00000000
00000000
00000000
00000000
0MM00000
30000000
00000000
00000000
00000000
00000000
00000000
00000000
00000000
00000000
00000000
00000000
00000000
00000000
00000000
00000000
,  // measure 73
00010000
00000000
10000000
01000000
10000000
00000000
00010000
01000000
00010000
00000000
10000000
00010000
00000000
00000000
00000000
00000000
,  // measure 74
10000000
01000000
10000000
00000000
01000000
00100000
01000000
00000000
00100000
00001000
00100000
00000000
00001000
00000000
00010000
00001000
,  // measure 75
00010000
00000000
00000010
00010000
00000010
00000000
00001000
00000000
00000000
00000000
00001000
00000000
00000000
00000000
00000000
00000000
,  // measure 76
00002002
00000000
00000000
00003003
00000220
00000000
00000000
00000330
00001001
00000000
00000000
00000000
00000000
00000000
00000000
00000000
,  // measure 77
00001000
00000000
00000001
00000010
00000001
00000000
00001000
00000010
00001000
00000000
00000001
00001000
00000000
00000000
00000000
00000000
,  // measure 78
00000001
00000010
00000001
00000000
00000010
00000100
00000010
00000000
00000100
00010000
00000100
00000000
00010000
00000000
00001000
00010000
,  // measure 79
00001000
00000000
01000000
00001000
01000000
00000000
00010000
00000000
00000000
00000000
00010000
00000000
00000000
00000000
00000000
00000000
,  // measure 80
20020000
00000000
00000000
30030000
02200000
00000000
00000000
03300000
10010000
00000000
00000000
00000000
00000000
00000000
00000000
00000000
,  // measure 81
10000000
00000000
00100000
10000000
00100000
00000000
10000000
01000000
10000000
00000000
01000000
10000000
00000000
00000000
00000000
00000000
,  // measure 82
01000000
00010000
01000000
00000000
00010000
00001000
00010000
00000000
00001000
00010000
00001000
00000000
00000100
00000000
00000010
00010000
,  // measure 83
00000010
00000000
00000100
00000001
00000100
00000000
00000001
00000000
00000000
00000000
00000001
00000000
00000000
00000000
00000000
00000000
,  // measure 84
00002002
00000000
00000000
00003003
00000220
00000000
00000000
00000330
00001001
00000000
00000000
00000000
00000000
00000000
00000000
00000000
,  // measure 85
00000001
00000000
00000100
00000001
00000100
00000000
00000001
00000010
00000001
00000000
00000010
00000001
00000000
00000000
00000000
00000000
,  // measure 86
00000010
00001000
00000010
00000000
00001000
00010000
00001000
00000000
00010000
00001000
00010000
00000000
00100000
00000000
01000000
00001000
,  // measure 87
01000000
00000000
00100000
10000000
00100000
00000000
10000000
00000000
00000000
00000000
10000000
00000000
00000000
00000000
00000000
00000000
,  // measure 88
01000000
01000000
01000000
00000000
,  // measure 89
2MM20000
00000000
30030000
M22M0000
,  // measure 90
00000000
03300000
00010000
00001000
,  // measure 91
00001MM1
00000000
00000000
0000M11M
00000000
00000000
00022000
00000000
,  // measure 92
00000000
00000000
00000000
00000000
00033000
00000000
00001000
00010000
,  // measure 93
2MM20000
00000000
00000000
30030000
00000000
00000000
M22M0000
00000000
,  // measure 94
00000000
00000000
03300000
00000000
00000000
00011000
00000000
00000000
,  // measure 95
0000M11M
00000000
00000000
00001MM1
00000000
00022000
00000000
00000000
,  // measure 96
00000000
00000000
00033000
00000000
,  // measure 97
M00MM00M
00000000
00000000
00000000
;
